  0
SECTION
  2
HEADER
  9
$ACADVER
  1
AC1015
  9
$ACADMAINTVER
 70
    18
  9
$DWGCODEPAGE
  3
ANSI_932
  9
$INSBASE
 10
-271.5893678300117
 20
-1736.527570236173
 30
0.0
  9
$EXTMIN
 10
-1012.416817272407
 20
-3212.581722651603
 30
0.0
  9
$EXTMAX
 10
5938.000000000004
 20
1135.725567356596
 30
0.0
  9
$LIMMIN
 10
0.0
 20
0.0
  9
$LIMMAX
 10
380.0
 20
260.0
  9
$ORTHOMODE
 70
     1
  9
$REGENMODE
 70
     1
  9
$FILLMODE
 70
     1
  9
$QTEXTMODE
 70
     0
  9
$MIRRTEXT
 70
     0
  9
$LTSCALE
 40
10.0
  9
$ATTMODE
 70
     1
  9
$TEXTSIZE
 40
2.5
  9
$TRACEWID
 40
0.05
  9
$TEXTSTYLE
  7
K1
  9
$CLAYER
  8
K-1
  9
$CELTYPE
  6
ByBlock
  9
$CECOLOR
 62
     0
  9
$CELTSCALE
 40
1.0
  9
$DISPSILH
 70
     0
  9
$DIMSCALE
 40
1.0
  9
$DIMASZ
 40
3.0
  9
$DIMEXO
 40
0.4999999999999997
  9
$DIMDLI
 40
10.0
  9
$DIMRND
 40
0.0
  9
$DIMDLE
 40
0.0
  9
$DIMEXE
 40
1.0
  9
$DIMTP
 40
0.02
  9
$DIMTM
 40
0.02
  9
$DIMTXT
 40
4.0
  9
$DIMCEN
 40
0.0
  9
$DIMTSZ
 40
0.0
  9
$DIMTOL
 70
     0
  9
$DIMLIM
 70
     0
  9
$DIMTIH
 70
     0
  9
$DIMTOH
 70
     0
  9
$DIMSE1
 70
     0
  9
$DIMSE2
 70
     0
  9
$DIMTAD
 70
     3
  9
$DIMZIN
 70
     8
  9
$DIMBLK
  1
Open30
  9
$DIMASO
 70
     1
  9
$DIMSHO
 70
     0
  9
$DIMPOST
  1
P.C.D<>
  9
$DIMAPOST
  1
"
  9
$DIMALT
 70
     0
  9
$DIMALTD
 70
     2
  9
$DIMALTF
 40
0.0393701
  9
$DIMLFAC
 40
1.0
  9
$DIMTOFL
 70
     1
  9
$DIMTVP
 40
0.0
  9
$DIMTIX
 70
     0
  9
$DIMSOXD
 70
     0
  9
$DIMSAH
 70
     0
  9
$DIMBLK1
  1

  9
$DIMBLK2
  1

  9
$DIMSTYLE
  2
PCD_AM_JIS
  9
$DIMCLRD
 70
   256
  9
$DIMCLRE
 70
   256
  9
$DIMCLRT
 70
     7
  9
$DIMTFAC
 40
0.71
  9
$DIMGAP
 40
1.5
  9
$DIMJUST
 70
     0
  9
$DIMSD1
 70
     0
  9
$DIMSD2
 70
     0
  9
$DIMTOLJ
 70
     0
  9
$DIMTZIN
 70
     8
  9
$DIMALTZ
 70
     0
  9
$DIMALTTZ
 70
     0
  9
$DIMUPT
 70
     0
  9
$DIMDEC
 70
     8
  9
$DIMTDEC
 70
     8
  9
$DIMALTU
 70
     2
  9
$DIMALTTD
 70
     2
  9
$DIMTXSTY
  7
K1
  9
$DIMAUNIT
 70
     0
  9
$DIMADEC
 70
     0
  9
$DIMALTRND
 40
0.0
  9
$DIMAZIN
 70
     2
  9
$DIMDSEP
 70
    46
  9
$DIMATFIT
 70
     2
  9
$DIMFRAC
 70
     0
  9
$DIMLDRBLK
  1
Open30
  9
$DIMLUNIT
 70
     2
  9
$DIMLWD
 70
    -1
  9
$DIMLWE
 70
    -1
  9
$DIMTMOVE
 70
     0
  9
$LUNITS
 70
     2
  9
$LUPREC
 70
     2
  9
$SKETCHINC
 40
0.1
  9
$FILLETRAD
 40
0.0
  9
$AUNITS
 70
     0
  9
$AUPREC
 70
     2
  9
$MENU
  1
SSE-M2
  9
$ELEVATION
 40
0.0
  9
$PELEVATION
 40
0.0
  9
$THICKNESS
 40
0.0
  9
$LIMCHECK
 70
     0
  9
$CHAMFERA
 40
1.0
  9
$CHAMFERB
 40
1.0
  9
$CHAMFERC
 40
2.500000000000085
  9
$CHAMFERD
 40
0.7853981633974483
  9
$SKPOLY
 70
     0
  9
$TDCREATE
 40
2455541.484285116
  9
$TDUCREATE
 40
2455541.109285116
  9
$TDUPDATE
 40
2456715.748823519
  9
$TDUUPDATE
 40
2456715.373823519
  9
$TDINDWG
 40
7.9896263426
  9
$TDUSRTIMER
 40
7.9896261574
  9
$USRTIMER
 70
     1
  9
$ANGBASE
 50
0.0
  9
$ANGDIR
 70
     0
  9
$PDMODE
 70
     1
  9
$PDSIZE
 40
0.0
  9
$PLINEWID
 40
0.0
  9
$SPLFRAME
 70
     0
  9
$SPLINETYPE
 70
     5
  9
$SPLINESEGS
 70
     8
  9
$HANDSEED
  5
4D7
  9
$SURFTAB1
 70
     6
  9
$SURFTAB2
 70
     6
  9
$SURFTYPE
 70
     6
  9
$SURFU
 70
     6
  9
$SURFV
 70
     6
  9
$UCSBASE
  2

  9
$UCSNAME
  2

  9
$UCSORG
 10
0.0
 20
0.0
 30
0.0
  9
$UCSXDIR
 10
1.0
 20
0.0
 30
0.0
  9
$UCSYDIR
 10
0.0
 20
1.0
 30
0.0
  9
$UCSORTHOREF
  2

  9
$UCSORTHOVIEW
 70
     0
  9
$UCSORGTOP
 10
0.0
 20
0.0
 30
0.0
  9
$UCSORGBOTTOM
 10
0.0
 20
0.0
 30
0.0
  9
$UCSORGLEFT
 10
0.0
 20
0.0
 30
0.0
  9
$UCSORGRIGHT
 10
0.0
 20
0.0
 30
0.0
  9
$UCSORGFRONT
 10
0.0
 20
0.0
 30
0.0
  9
$UCSORGBACK
 10
0.0
 20
0.0
 30
0.0
  9
$PUCSBASE
  2

  9
$PUCSNAME
  2

  9
$PUCSORG
 10
0.0
 20
0.0
 30
0.0
  9
$PUCSXDIR
 10
1.0
 20
0.0
 30
0.0
  9
$PUCSYDIR
 10
0.0
 20
1.0
 30
0.0
  9
$PUCSORTHOREF
  2

  9
$PUCSORTHOVIEW
 70
     0
  9
$PUCSORGTOP
 10
0.0
 20
0.0
 30
0.0
  9
$PUCSORGBOTTOM
 10
0.0
 20
0.0
 30
0.0
  9
$PUCSORGLEFT
 10
0.0
 20
0.0
 30
0.0
  9
$PUCSORGRIGHT
 10
0.0
 20
0.0
 30
0.0
  9
$PUCSORGFRONT
 10
0.0
 20
0.0
 30
0.0
  9
$PUCSORGBACK
 10
0.0
 20
0.0
 30
0.0
  9
$USERI1
 70
     3
  9
$USERI2
 70
     0
  9
$USERI3
 70
     0
  9
$USERI4
 70
     0
  9
$USERI5
 70
     0
  9
$USERR1
 40
2.5
  9
$USERR2
 40
1.0
  9
$USERR3
 40
15.0
  9
$USERR4
 40
1.0
  9
$USERR5
 40
5.0
  9
$WORLDVIEW
 70
     1
  9
$SHADEDGE
 70
     3
  9
$SHADEDIF
 70
    70
  9
$TILEMODE
 70
     1
  9
$MAXACTVP
 70
    64
  9
$PINSBASE
 10
0.0
 20
0.0
 30
0.0
  9
$PLIMCHECK
 70
     0
  9
$PEXTMIN
 10
-10.01835592131328
 20
-10.01299674582856
 30
-0.0015258207003583
  9
$PEXTMAX
 10
590.0366018691502
 20
415.0130182616429
 30
0.0000000349246037
  9
$PLIMMIN
 10
-8.391071047101702
 20
-8.391068322317941
  9
$PLIMMAX
 10
591.5327222006661
 20
415.9098611559186
  9
$UNITMODE
 70
     0
  9
$VISRETAIN
 70
     1
  9
$PLINEGEN
 70
     0
  9
$PSLTSCALE
 70
     1
  9
$TREEDEPTH
 70
  3020
  9
$CMLSTYLE
  2
Standard
  9
$CMLJUST
 70
     0
  9
$CMLSCALE
 40
1.0
  9
$PROXYGRAPHICS
 70
     1
  9
$MEASUREMENT
 70
     1
  9
$CELWEIGHT
370
    -1
  9
$ENDCAPS
280
     0
  9
$JOINSTYLE
280
     0
  9
$LWDISPLAY
290
     0
  9
$INSUNITS
 70
     4
  9
$HYPERLINKBASE
  1

  9
$STYLESHEET
  1

  9
$XEDIT
290
     1
  9
$CEPSNTYPE
380
     0
  9
$PSTYLEMODE
290
     1
  9
$FINGERPRINTGUID
  2
{9E3CAA45-CB09-4219-8C45-9B98D483EBA8}
  9
$VERSIONGUID
  2
{08BE4ADB-4438-4429-8724-1FB89DF144B4}
  9
$EXTNAMES
290
     1
  9
$PSVPSCALE
 40
0.0
  9
$OLESTARTUP
290
     0
  0
ENDSEC
  0
SECTION
  2
CLASSES
  0
CLASS
  1
ACDBDICTIONARYWDFLT
  2
AcDbDictionaryWithDefault
  3
ObjectDBX Classes
 90
        0
280
     0
281
     0
  0
CLASS
  1
ACDBPLACEHOLDER
  2
AcDbPlaceHolder
  3
ObjectDBX Classes
 90
        0
280
     0
281
     0
  0
CLASS
  1
LAYOUT
  2
AcDbLayout
  3
ObjectDBX Classes
 90
        0
280
     0
281
     0
  0
CLASS
  1
ACME_DOCUMENT
  2
AcMeDbDoc
  3
AcMeServices
 90
    33792
280
     0
281
     0
  0
CLASS
  1
AMGSETTINGSOBJ
  2
AmgSettingsObj
  3
"AcadM|Product Description: AutoCAD Mechanical|Company: Autodesk, Inc."
 90
     1024
280
     0
281
     0
  0
CLASS
  1
ACMESCOPE
  2
AcMeScope
  3
AcMeServices
 90
     1024
280
     0
281
     0
  0
CLASS
  1
ACMECOMMANDHISTORY
  2
AcMeCommandHistory
  3
AcMeServices
 90
    33792
280
     0
281
     0
  0
CLASS
  1
ACIMSYSVARMAN
  2
AcImSysVarManager
  3
AcMeServices
 90
     1024
280
     0
281
     0
  0
CLASS
  1
ACIMREALSYSVAR
  2
AcImRealSysVar
  3
AcMeServices
 90
     1024
280
     0
281
     0
  0
CLASS
  1
ACIMINTSYSVAR
  2
AcImIntSysVar
  3
AcMeServices
 90
     1024
280
     0
281
     0
  0
CLASS
  1
ACMEDRAWINGMAN
  2
AcMeDrawingMan
  3
AcMeServices
 90
    33792
280
     0
281
     0
  0
CLASS
  1
ACMEVIEW
  2
AcMeView
  3
AcMeServices
 90
    33792
280
     0
281
     0
  0
CLASS
  1
ACDBENTITYCACHE
  2
AcMeEntityCache
  3
AcMeServices
 90
    33792
280
     0
281
     0
  0
CLASS
  1
GSMANAGER
  2
AcMeGSManager
  3
AcMeServices
 90
    33792
280
     1
281
     0
  0
CLASS
  1
AMDTINTERNALREACTOR
  2
AmdtInternalReactor
  3
AcMeServices
 90
     1024
280
     0
281
     0
  0
CLASS
  1
ACMESTATEMGR
  2
AcMeStateMgr
  3
AcMeServices
 90
     1024
280
     0
281
     0
  0
CLASS
  1
ACGREFMASTER
  2
AcGrefMaster
  3
AcAttribServices
 90
     1024
280
     0
281
     0
  0
CLASS
  1
ACME_DATABASE
  2
AcMeDbDatabase
  3
AcMeServices
 90
    33792
280
     0
281
     0
  0
CLASS
  1
ACRFINSADJUSTERMGR
  2
AcRfInsAdjusterMgr
  3
AcMeServices
 90
    33792
280
     0
281
     0
  0
CLASS
  1
ACGREFACADMASTER
  2
AcGrefacadMaster
  3
AcGrefServices
 90
    33792
280
     0
281
     0
  0
CLASS
  1
AMIMASTER
  2
AmiMaster
  3
AmiServices
 90
    33792
280
     0
281
     0
  0
CLASS
  1
ACMDATADICTIONARY
  2
AcmDataDictionary
  3
"AcmSymBB|Product Description: AutoCAD Mechanical|Company: Autodesk, Inc."
 90
     1024
280
     0
281
     0
  0
CLASS
  1
ACMDATAENTRYBLOCK
  2
AcmDataEntryBlock
  3
AcmSymBB|Product Description: AutoCAD Mechanical|Company: Autodesk, Inc.
 90
     1024
280
     0
281
     0
  0
CLASS
  1
ACIMSTRSYSVAR
  2
AcImStrSysVar
  3
AcMeServices
 90
     1024
280
     0
281
     0
  0
CLASS
  1
ACMSTANDARDANSI
  2
AcmStandardANSI
  3
"Amdt_StdImp|Product Description: AutoCAD Mechanical|Company: Autodesk, Inc."
 90
    33792
280
     0
281
     0
  0
CLASS
  1
AMGOBJPROPCFG
  2
AmgObjPropCfg
  3
"AmgLay|Product Description: AutoCAD Mechanical|Company: Autodesk, Inc."
 90
     1024
280
     0
281
     0
  0
CLASS
  1
ACMSURFSTANDARDANSI
  2
AcmSurfTextStdANSI
  3
"Amdt_StdImp|Product Description: AutoCAD Mechanical|Company: Autodesk, Inc."
 90
    33792
280
     0
281
     0
  0
CLASS
  1
ACMFCFSTANDARDANSI
  2
AcmFCFStdANSI
  3
"Amdt_StdImp|Product Description: AutoCAD Mechanical|Company: Autodesk, Inc."
 90
    33792
280
     0
281
     0
  0
CLASS
  1
ACMWELDSTANDARDANSI
  2
AcmWeldingStdANSI
  3
"Amdt_StdImp|Product Description: AutoCAD Mechanical|Company: Autodesk, Inc."
 90
    33792
280
     0
281
     0
  0
CLASS
  1
ACMIDSTANDARDANSI
  2
AcmIdStdANSI
  3
"Amdt_StdImp|Product Description: AutoCAD Mechanical|Company: Autodesk, Inc."
 90
    33792
280
     0
281
     0
  0
CLASS
  1
ACMDATUMSTANDARDANSI
  2
AcmDatumStdANSI
  3
"Amdt_StdImp|Product Description: AutoCAD Mechanical|Company: Autodesk, Inc."
 90
    33792
280
     0
281
     0
  0
CLASS
  1
ACMBOMSTANDARDANSI
  2
AcmBOMStdANSI
  3
"Amdt_StdImp|Product Description: AutoCAD Mechanical|Company: Autodesk, Inc."
 90
    33792
280
     0
281
     0
  0
CLASS
  1
ACMDETAILSTANDARDANSI
  2
AmdtDetailSymStdANSI
  3
"Amdt_StdImp|Product Description: AutoCAD Mechanical|Company: Autodesk, Inc."
 90
    33792
280
     0
281
     0
  0
CLASS
  1
ACMSECTIONSTANDARDANSI
  2
AmdtSectionSymStdANSI
  3
"Amdt_StdImp|Product Description: AutoCAD Mechanical|Company: Autodesk, Inc."
 90
    33792
280
     0
281
     0
  0
CLASS
  1
ACMCENTERLINESTANDARDANSI
  2
AmdtCenterLineStdANSI
  3
"Amdt_StdImp|Product Description: AutoCAD Mechanical|Company: Autodesk, Inc."
 90
    33792
280
     0
281
     0
  0
CLASS
  1
ACMNOTESTANDARDANSI
  2
AmdtNoteStdANSI
  3
"Amdt_StdImp|Product Description: AutoCAD Mechanical|Company: Autodesk, Inc."
 90
    33792
280
     0
281
     0
  0
CLASS
  1
ACAMGLAYSTD
  2
AcAmgLayStd
  3
"AmgLay|Product Description: AutoCAD Mechanical|Company: Autodesk, Inc."
 90
     1024
280
     0
281
     0
  0
CLASS
  1
ACAMGDIMSTD
  2
AcAmgDimStd
  3
"AmgDim|Product Description: AutoCAD Mechanical|Company: Autodesk, Inc."
 90
     1024
280
     0
281
     0
  0
CLASS
  1
ACAMGHOLECHARTSTDANSI
  2
AcAmgHoleChartStdANSI
  3
AmgDim|Product Description: AutoCAD Mechanical|Company: Autodesk, Inc.
 90
    33792
280
     0
281
     0
  0
CLASS
  1
ACAMGTITLESTD
  2
AcAmgTitleStd
  3
"AmgTitle|Product Description: AutoCAD Mechanical|Company: Autodesk, Inc."
 90
     1024
280
     0
281
     0
  0
CLASS
  1
ACAMGFILTERDAT
  2
AcAmgFilterDat
  3
"AcadM|Product Description: AutoCAD Mechanical|Company: Autodesk, Inc."
 90
    33792
280
     0
281
     0
  0
CLASS
  1
ACMSTANDARDJIS
  2
AcmStandardJIS
  3
"Amdt_StdImp|Product Description: AutoCAD Mechanical|Company: Autodesk, Inc."
 90
     1024
280
     0
281
     0
  0
CLASS
  1
ACMSURFSTANDARDJIS
  2
AcmSurfTextStdJIS
  3
"Amdt_StdImp|Product Description: AutoCAD Mechanical|Company: Autodesk, Inc."
 90
     1024
280
     0
281
     0
  0
CLASS
  1
ACMFCFSTANDARDJIS98
  2
AcmFCFStdJIS98
  3
"Amdt_StdImp|Product Description: AutoCAD Mechanical|Company: Autodesk, Inc."
 90
     1024
280
     0
281
     0
  0
CLASS
  1
ACMWELDSTANDARDJIS
  2
AcmWeldingStdJIS
  3
"Amdt_StdImp|Product Description: AutoCAD Mechanical|Company: Autodesk, Inc."
 90
     1024
280
     0
281
     0
  0
CLASS
  1
ACMIDSTANDARDJIS
  2
AcmIdStdJIS
  3
"Amdt_StdImp|Product Description: AutoCAD Mechanical|Company: Autodesk, Inc."
 90
     1024
280
     0
281
     0
  0
CLASS
  1
ACMDATUMSTANDARDJIS
  2
AcmDatumStdJIS
  3
"Amdt_StdImp|Product Description: AutoCAD Mechanical|Company: Autodesk, Inc."
 90
     1024
280
     0
281
     0
  0
CLASS
  1
ACMBOMSTANDARDJIS
  2
AcmBOMStdJIS
  3
"Amdt_StdImp|Product Description: AutoCAD Mechanical|Company: Autodesk, Inc."
 90
     1024
280
     0
281
     0
  0
CLASS
  1
ACMDETAILSTANDARDJIS
  2
AmdtDetailSymStdJIS
  3
"Amdt_StdImp|Product Description: AutoCAD Mechanical|Company: Autodesk, Inc."
 90
     1024
280
     0
281
     0
  0
CLASS
  1
ACMSECTIONSTANDARDJIS
  2
AmdtSectionSymStdJIS
  3
"Amdt_StdImp|Product Description: AutoCAD Mechanical|Company: Autodesk, Inc."
 90
     1024
280
     0
281
     0
  0
CLASS
  1
ACMCENTERLINESTANDARDJIS
  2
AmdtCenterLineStdJIS
  3
"Amdt_StdImp|Product Description: AutoCAD Mechanical|Company: Autodesk, Inc."
 90
     1024
280
     0
281
     0
  0
CLASS
  1
ACMNOTESTANDARDJIS
  2
AmdtNoteStdJIS
  3
"Amdt_StdImp|Product Description: AutoCAD Mechanical|Company: Autodesk, Inc."
 90
     1024
280
     0
281
     0
  0
CLASS
  1
ACAMGHOLECHARTSTDJIS
  2
AcAmgHoleChartStdJIS
  3
AmgDim|Product Description: AutoCAD Mechanical|Company: Autodesk, Inc.
 90
     1024
280
     0
281
     0
  0
CLASS
  1
DIMASSOC
  2
AcDbDimAssoc
  3
"AcDbDimAssoc|Product Desc:     AcDim ARX App For Dimension|Company:          Autodesk, Inc.|WEB Address:      www.autodesk.com"
 90
        0
280
     0
281
     0
  0
CLASS
  1
LAYER_INDEX
  2
AcDbLayerIndex
  3
ObjectDBX Classes
 90
    32768
280
     0
281
     0
  0
CLASS
  1
IDBUFFER
  2
AcDbIdBuffer
  3
ObjectDBX Classes
 90
    32768
280
     0
281
     0
  0
CLASS
  1
DICTIONARYVAR
  2
AcDbDictionaryVar
  3
ObjectDBX Classes
 90
        0
280
     0
281
     0
  0
CLASS
  1
ACMSTANDARDISO
  2
AcmStandardISO
  3
"Amdt_StdImp|Product Description: AutoCAD Mechanical|Company: Autodesk, Inc."
 90
    33792
280
     0
281
     0
  0
CLASS
  1
AMDTEDGESTANDARDISO
  2
AmdtEdgeStdISO
  3
"Amdt_StdImp|Product Description: AutoCAD Mechanical|Company: Autodesk, Inc."
 90
    33792
280
     0
281
     0
  0
CLASS
  1
ACMSURFSTANDARDISO
  2
AcmSurfTextStdISO
  3
"Amdt_StdImp|Product Description: AutoCAD Mechanical|Company: Autodesk, Inc."
 90
    33792
280
     0
281
     0
  0
CLASS
  1
ACMFCFSTANDARDISO
  2
AcmFCFStdISO
  3
"Amdt_StdImp|Product Description: AutoCAD Mechanical|Company: Autodesk, Inc."
 90
    33792
280
     0
281
     0
  0
CLASS
  1
ACMWELDSTANDARDISO
  2
AcmWeldingStdISO
  3
"Amdt_StdImp|Product Description: AutoCAD Mechanical|Company: Autodesk, Inc."
 90
    33792
280
     0
281
     0
  0
CLASS
  1
ACMIDSTANDARDISO
  2
AcmIdStdISO
  3
"Amdt_StdImp|Product Description: AutoCAD Mechanical|Company: Autodesk, Inc."
 90
    33792
280
     0
281
     0
  0
CLASS
  1
ACMDATUMSTANDARDISO
  2
AcmDatumStdISO
  3
"Amdt_StdImp|Product Description: AutoCAD Mechanical|Company: Autodesk, Inc."
 90
    33792
280
     0
281
     0
  0
CLASS
  1
ACMBOMSTANDARDISO
  2
AcmBOMStdISO
  3
"Amdt_StdImp|Product Description: AutoCAD Mechanical|Company: Autodesk, Inc."
 90
    33792
280
     0
281
     0
  0
CLASS
  1
ACMDETAILSTANDARDISO
  2
AmdtDetailSymStdISO
  3
"Amdt_StdImp|Product Description: AutoCAD Mechanical|Company: Autodesk, Inc."
 90
    33792
280
     0
281
     0
  0
CLASS
  1
ACMSECTIONSTANDARDISO
  2
AmdtSectionSymStdISO
  3
"Amdt_StdImp|Product Description: AutoCAD Mechanical|Company: Autodesk, Inc."
 90
    33792
280
     0
281
     0
  0
CLASS
  1
ACMCENTERLINESTANDARDISO
  2
AmdtCenterLineStdISO
  3
"Amdt_StdImp|Product Description: AutoCAD Mechanical|Company: Autodesk, Inc."
 90
    33792
280
     0
281
     0
  0
CLASS
  1
ACMNOTESTANDARDISO
  2
AmdtNoteStdISO
  3
"Amdt_StdImp|Product Description: AutoCAD Mechanical|Company: Autodesk, Inc."
 90
    33792
280
     0
281
     0
  0
CLASS
  1
ACAMGHOLECHARTSTDISO
  2
AcAmgHoleChartStdISO
  3
AmgDim|Product Description: AutoCAD Mechanical|Company: Autodesk, Inc.
 90
    33792
280
     0
281
     0
  0
CLASS
  1
AMDTFORMULAUPDATEDISPATCHER
  2
AmdtFormulaUpdateDispatcher
  3
AcMeServices
 90
    33792
280
     0
281
     0
  0
CLASS
  1
STDPART2D
  2
AmgStdPart
  3
AmgStdPart|Product Description: AutoCAD Mechanical|Company: Autodesk, Inc.
 90
    33792
280
     0
281
     1
  0
CLASS
  1
ACMDATAENTRYPART
  2
AcmDataEntryPart
  3
AcmSymBB|Product Description: AutoCAD Mechanical|Company: Autodesk, Inc.
 90
    33792
280
     0
281
     0
  0
CLASS
  1
ACMPARTREF
  2
AcmPartRef
  3
"AcmSymBB|Product Description: AutoCAD Mechanical|Company: Autodesk, Inc."
 90
    33792
280
     0
281
     1
  0
CLASS
  1
ACDBSTDPARTRES_LINE
  2
AcDbStdPartRes_Line
  3
AmgStdPart|Product Description: AutoCAD Mechanical|Company: Autodesk, Inc.
 90
    33792
280
     0
281
     0
  0
CLASS
  1
AMDTNOTE
  2
AmdtNote
  3
"AcmSymBB|Product Description: AutoCAD Mechanical|Company: Autodesk, Inc."
 90
    33792
280
     0
281
     1
  0
CLASS
  1
MATERIAL
  2
AcDbMaterial
  3
ObjectDBX Classes
 90
     1153
280
     0
281
     0
  0
CLASS
  1
VISUALSTYLE
  2
AcDbVisualStyle
  3
ObjectDBX Classes
 90
     4095
280
     0
281
     0
  0
CLASS
  1
TABLESTYLE
  2
AcDbTableStyle
  3
ObjectDBX Classes
 90
     4095
280
     0
281
     0
  0
CLASS
  1
AM_DRAWING_MGR
  2
AcDmDwgMgr
  3
AcMechDwgViewMgmt
 90
     1024
280
     0
281
     0
  0
CLASS
  1
AM_DWG_DOCUMENT
  2
AcDmDwgDocument
  3
AcMechDwgViewMgmt
 90
     1024
280
     0
281
     0
  0
CLASS
  1
AM_DWG_SHEET
  2
AcDmSheet
  3
AcMechDwgViewMgmt
 90
     1024
280
     0
281
     0
  0
CLASS
  1
AM_VIEWDIMPARMAP
  2
AcDmViewDimParMap
  3
AcMechDwgViewMgmt
 90
     1024
280
     0
281
     0
  0
CLASS
  1
AM_DWGMGR_NAME
  2
AcDmDwgMgrName
  3
AcMechDwgViewMgmt
 90
     1024
280
     0
281
     0
  0
CLASS
  1
AMDTMENUSTATEMGR
  2
AmdtMenuStateMgr
  3
McadcomServices
 90
    33792
280
     0
281
     0
  0
CLASS
  1
AMDTMCOMMENUSTATE
  2
AmdtMcomMenuState
  3
McadcomServices
 90
    33792
280
     0
281
     0
  0
CLASS
  1
MAPIAMMOUDLE
  2
MApiAmModule
  3
MApiAmServices
 90
    33792
280
     0
281
     0
  0
CLASS
  1
AMDTADMENUSTATE
  2
AmdtAdMenuState
  3
DesignerServices
 90
    33792
280
     1
281
     0
  0
CLASS
  1
ADAPPL
  2
AcAdAppl
  3
DesignerAssemblies
 90
    33792
280
     0
281
     0
  0
CLASS
  1
DEPMGR
  2
AcAdDepMgr
  3
DesignerAssemblies
 90
    33792
280
     0
281
     0
  0
CLASS
  1
PARAMMGR
  2
AcAdParamMgr
  3
DesignerAssemblies
 90
    33792
280
     0
281
     0
  0
CLASS
  1
PARAMSCOPE
  2
AcAdParamScope
  3
DesignerAssemblies
 90
    33792
280
     0
281
     0
  0
CLASS
  1
NAMEDAPPL
  2
AcAdNamedAppl
  3
DesignerAssemblies
 90
    33792
280
     0
281
     0
  0
CLASS
  1
AMDTDMMENUSTATE
  2
AmdtDmMenuState
  3
AcMechDwgViewMgmt
 90
    33792
280
     1
281
     0
  0
CLASS
  1
AMDTAMMENUSTATE
  2
AmdtAmMenuState
  3
DesignerAssemblies
 90
    33792
280
     0
281
     0
  0
CLASS
  1
ACAMPROJECT
  2
AcAmProject
  3
DesignerAssemblies
 90
    33792
280
     0
281
     0
  0
CLASS
  1
ACAMGRCOMPDEF
  2
AcAmGrCompDef
  3
DesignerAssemblies
 90
    33792
280
     0
281
     0
  0
CLASS
  1
ACCMCONTEXT
  2
AcCmContext
  3
DesignerAssemblies
 90
    33792
280
     0
281
     0
  0
CLASS
  1
ACAMCOMPDEF
  2
AcAmCompDef
  3
DesignerAssemblies
 90
    33792
280
     0
281
     0
  0
CLASS
  1
ACAMCOMPDEFMGR
  2
AcAmCompDefMgr
  3
DesignerAssemblies
 90
    33792
280
     0
281
     0
  0
CLASS
  1
AMCONTEXTMGR
  2
AcAmContextMgr
  3
DesignerAssemblies
 90
    33792
280
     0
281
     0
  0
CLASS
  1
ACAMCONTEXTMODELER
  2
AcAmContextModeler
  3
DesignerAssemblies
 90
    33792
280
     0
281
     0
  0
CLASS
  1
ACRFATTGENMGR
  2
AcRfAttGeneralMgr
  3
AcAttribServices
 90
    33792
280
     0
281
     0
  0
CLASS
  1
ACRFOBJATTMGR
  2
AcRfObjAttGroupMgr
  3
AcAttribServices
 90
    33792
280
     0
281
     0
  0
CLASS
  1
ACRFMCADAPIATTHOLDER
  2
AcRfMCADAPIAttHolder
  3
AcAttribServices
 90
    33792
280
     0
281
     0
  0
CLASS
  1
AMDTSYSATTR
  2
AmdtSystemAttribute
  3
AcAttribServices
 90
    33792
280
     0
281
     0
  0
CLASS
  1
ACMTHREADLINESTANDARDANSI
  2
AmdtThreadLineStdANSI
  3
"Amdt_StdImp|Product Description: AutoCAD Mechanical|Company: Autodesk, Inc."
 90
    33792
280
     0
281
     0
  0
CLASS
  1
ACMTAPERSTANDARDANSI
  2
AcmTaperStdANSI
  3
"Amdt_StdImp|Product Description: AutoCAD Mechanical|Company: Autodesk, Inc."
 90
    33792
280
     0
281
     0
  0
CLASS
  1
ACMTHREADLINESTANDARDJIS
  2
AmdtThreadLineStdJIS
  3
"Amdt_StdImp|Product Description: AutoCAD Mechanical|Company: Autodesk, Inc."
 90
     1024
280
     0
281
     0
  0
CLASS
  1
ACMTAPERSTANDARDJIS
  2
AcmTaperStdJIS
  3
"Amdt_StdImp|Product Description: AutoCAD Mechanical|Company: Autodesk, Inc."
 90
     1024
280
     0
281
     0
  0
CLASS
  1
ACMTHREADLINESTANDARDISO
  2
AmdtThreadLineStdISO
  3
"Amdt_StdImp|Product Description: AutoCAD Mechanical|Company: Autodesk, Inc."
 90
    33792
280
     0
281
     0
  0
CLASS
  1
ACMTAPERSTANDARDISO
  2
AcmTaperStdISO
  3
"Amdt_StdImp|Product Description: AutoCAD Mechanical|Company: Autodesk, Inc."
 90
    33792
280
     0
281
     0
  0
CLASS
  1
CATALOGSTATE
  2
AcAmCatalogState
  3
DesignerAssemblies
 90
    33792
280
     0
281
     0
  0
CLASS
  1
ACAMGRCOMPDEFSET
  2
AcAmGrCompDefSet
  3
DesignerAssemblies
 90
    33792
280
     0
281
     0
  0
CLASS
  1
AMDTBROWSERDBTAB
  2
AmdtBrowserDbTab
  3
McadcomServices
 90
    33792
280
     0
281
     0
  0
CLASS
  1
CBROWSERAPPOBJECT
  2
CBrowserAppObject
  3
McadcomServices
 90
    33792
280
     0
281
     0
  0
CLASS
  1
DM_PLACEHOLDER
  2
AcDmSelsetPlaceholder
  3
McadcomServices
 90
    33792
280
     0
281
     0
  0
CLASS
  1
SORTENTSTABLE
  2
AcDbSortentsTable
  3
ObjectDBX Classes
 90
        0
280
     0
281
     0
  0
CLASS
  1
CAMSSTRUCTBTNSTATE
  2
StructBtnState
  3
DesignerAssemblies
 90
    33792
280
     0
281
     0
  0
CLASS
  1
PLOTSETTINGS
  2
AcDbPlotSettings
  3
ObjectDBX Classes
 90
    32768
280
     0
281
     0
  0
CLASS
  1
SCALE
  2
AcDbScale
  3
ObjectDBX Classes
 90
     1153
280
     0
281
     0
  0
CLASS
  1
MLEADERSTYLE
  2
AcDbMLeaderStyle
  3
ACDB_MLEADERSTYLE_CLASS
 90
    36863
280
     0
281
     0
  0
CLASS
  1
ACMANOOTATIONVIEWSTANDARDANSI
  2
AmdtAnViewStdANSI
  3
"Amdt_StdImp|Product Description: AutoCAD Mechanical|Company: Autodesk, Inc."
 90
    33792
280
     0
281
     0
  0
CLASS
  1
ACMANOOTATIONVIEWSTANDARDJIS
  2
AmdtAnViewStdJIS
  3
"Amdt_StdImp|Product Description: AutoCAD Mechanical|Company: Autodesk, Inc."
 90
     1024
280
     0
281
     0
  0
CLASS
  1
ACMANOOTATIONVIEWSTANDARDISO
  2
AmdtAnViewStdISO
  3
"Amdt_StdImp|Product Description: AutoCAD Mechanical|Company: Autodesk, Inc."
 90
    33792
280
     0
281
     0
  0
CLASS
  1
CELLSTYLEMAP
  2
AcDbCellStyleMap
  3
ObjectDBX Classes
 90
     1152
280
     0
281
     0
  0
CLASS
  1
SOLID_BACKGROUND
  2
AcDbSolidBackground
  3
SCENEOE
 90
    36863
280
     0
281
     0
  0
CLASS
  1
NPOCOLLECTION
  2
AcDbImpNonPersistentObjectsCollection
  3
ObjectDBX Classes
 90
    33921
280
     0
281
     0
  0
CLASS
  1
ACDBSECTIONVIEWSTYLE
  2
AcDbSectionViewStyle
  3
ObjectDBX Classes
 90
     1025
280
     0
281
     0
  0
CLASS
  1
ACDBDETAILVIEWSTYLE
  2
AcDbDetailViewStyle
  3
ObjectDBX Classes
 90
     1025
280
     0
281
     0
  0
CLASS
  1
ACMSECTIONSTANDARDCUSTOM
  2
AmdtSectionSymStdCustom
  3
"Amdt_StdImp|Product Description: AutoCAD Mechanical|Company: Autodesk, Inc."
 90
     1024
280
     0
281
     0
  0
CLASS
  1
ACMDETAILTANDARDCUSTOM
  2
AmdtDetailSymStdCustom
  3
"Amdt_StdImp|Product Description: AutoCAD Mechanical|Company: Autodesk, Inc."
 90
     1024
280
     0
281
     0
  0
CLASS
  1
AMDTEDGESTANDARDJIS
  2
AmdtEdgeStdJIS
  3
"Amdt_StdImp|Product Description: AutoCAD Mechanical|Company: Autodesk, Inc."
 90
     1024
280
     0
281
     0
  0
CLASS
  1
FIELD
  2
AcDbField
  3
ObjectDBX Classes
 90
     1152
280
     0
281
     0
  0
CLASS
  1
FIELDLIST
  2
AcDbFieldList
  3
ObjectDBX Classes
 90
     1152
280
     0
281
     0
  0
CLASS
  1
EXACXREFPANELOBJECT
  2
ExAcXREFPanelObject
  3
EXAC_ESW
 90
    33793
280
     0
281
     0
  0
ENDSEC
  0
SECTION
  2
TABLES
  0
TABLE
  2
VPORT
  5
2D
330
0
100
AcDbSymbolTable
 70
     1
  0
VPORT
  5
2E
330
2D
100
AcDbSymbolTableRecord
100
AcDbViewportTableRecord
  2
*Active
 70
     0
 10
0.0
 20
0.0
 11
1.0
 21
1.0
 12
-52.34879588639159
 22
-1589.426498152533
 13
0.0
 23
0.0
 14
2.5
 24
2.5
 15
10.0
 25
10.0
 16
0.0
 26
0.0
 36
1.0
 17
0.0
 27
0.0
 37
0.0
 40
304.6012858120249
 41
2.230392156862745
 42
50.0
 43
0.0
 44
0.0
 50
0.0
 51
0.0
 71
     0
 72
  1000
 73
     1
 74
     2
 75
     0
 76
     0
 77
     0
 78
     0
281
     0
 65
     1
110
0.0
120
0.0
130
0.0
111
1.0
121
0.0
131
0.0
112
0.0
122
1.0
132
0.0
 79
     0
146
0.0
1001
ACAD_NAV_VCDISPLAY
1070
     3
  0
ENDTAB
  0
TABLE
  2
LTYPE
  5
28
330
0
100
AcDbSymbolTable
 70
    12
  0
LTYPE
  5
29
330
28
100
AcDbSymbolTableRecord
100
AcDbLinetypeTableRecord
  2
ByBlock
 70
     0
  3

 72
    65
 73
     0
 40
0.0
  0
LTYPE
  5
2A
330
28
100
AcDbSymbolTableRecord
100
AcDbLinetypeTableRecord
  2
ByLayer
 70
     0
  3

 72
    65
 73
     0
 40
0.0
  0
LTYPE
  5
E
330
28
100
AcDbSymbolTableRecord
100
AcDbLinetypeTableRecord
  2
CONTINUOUS
 70
     0
  3
Solid line
 72
    65
 73
     0
 40
0.0
  0
LTYPE
  5
173
330
28
100
AcDbSymbolTableRecord
100
AcDbLinetypeTableRecord
  2
CENTERS
 70
     0
  3
0.5,-0.1,0,-0.1
 72
    65
 73
     4
 40
0.7
 49
0.5
 74
     0
 49
-0.1
 74
     0
 49
0.0
 74
     0
 49
-0.1
 74
     0
  0
LTYPE
  5
43E
330
28
100
AcDbSymbolTableRecord
100
AcDbLinetypeTableRecord
  2
AM_ISO02W050
 70
     0
  3
__ __ __ __ __ __ __ __ __ __ __ __ __ __ __
 72
    65
 73
     2
 40
7.5
 49
6.0
 74
     0
 49
-1.5
 74
     0
  0
LTYPE
  5
43F
330
28
100
AcDbSymbolTableRecord
100
AcDbLinetypeTableRecord
  2
AM_ISO08W050
 70
     0
  3
____ . ____ . ____ . ____ . ____ . ____ . ____
 72
    65
 73
     4
 40
18.0
 49
12.0
 74
     0
 49
-1.5
 74
     0
 49
3.0
 74
     0
 49
-1.5
 74
     0
  0
LTYPE
  5
440
330
28
100
AcDbSymbolTableRecord
100
AcDbLinetypeTableRecord
  2
AM_ISO09W050
 70
     0
  3
_____ . . _____ . . _____ . . ____ .. ____
 72
    65
 73
     6
 40
22.5
 49
12.0
 74
     0
 49
-1.5
 74
     0
 49
3.0
 74
     0
 49
-1.5
 74
     0
 49
3.0
 74
     0
 49
-1.5
 74
     0
  0
LTYPE
  5
441
330
28
100
AcDbSymbolTableRecord
100
AcDbLinetypeTableRecord
  2
Amconstr
 70
     0
  3
_______________________
 72
    65
 73
     2
 40
9999.0
 49
9999.0
 74
     0
 49
0.0
 74
     0
  0
LTYPE
  5
442
330
28
100
AcDbSymbolTableRecord
100
AcDbLinetypeTableRecord
  2
Amzigzag
 70
     0
  3
/\/-/\/-/\/-/\/-/\/-/\/
 72
    65
 73
     2
 40
11.0001
 49
0.0001
 74
     4
 75
   135
340
443
 46
0.04
 50
0.0
 44
0.0
 45
0.0
 49
-11.0
 74
     0
  0
LTYPE
  5
121
330
28
100
AcDbSymbolTableRecord
100
AcDbLinetypeTableRecord
  2
CENTER
 70
     0
  3
0.5,-0.1,0,-0.1____ _ ____ _ ____ _ ____ _ ____
 72
    65
 73
     4
 40
0.7
 49
0.5
 74
     0
 49
-0.1
 74
     0
 49
0.0
 74
     0
 49
-0.1
 74
     0
  0
LTYPE
  5
456
330
28
100
AcDbSymbolTableRecord
100
AcDbLinetypeTableRecord
  2
ACJISTGB
 70
     0
  3
__ . . __ . .
 72
    65
 73
     6
 40
9.0
 49
4.0
 74
     0
 49
-1.0
 74
     0
 49
1.0
 74
     0
 49
-1.0
 74
     0
 49
1.0
 74
     0
 49
-1.0
 74
     0
  0
LTYPE
  5
457
330
28
100
AcDbSymbolTableRecord
100
AcDbLinetypeTableRecord
  2
ACJISTGL
 70
     0
  3
_ _ _ _ _
 72
    65
 73
     2
 40
3.0
 49
2.0
 74
     0
 49
-1.0
 74
     0
  0
LTYPE
  5
129
330
28
100
AcDbSymbolTableRecord
100
AcDbLinetypeTableRecord
  2
HIDDEN
 70
     0
  3
0.1,-0.1Hidden __ __ __ __ __ __ __ __ __ __ __
 72
    65
 73
     2
 40
0.2
 49
0.1
 74
     0
 49
-0.1
 74
     0
  0
LTYPE
  5
179
330
28
100
AcDbSymbolTableRecord
100
AcDbLinetypeTableRecord
  2
PHANTOM
 70
     0
  3
0.4,-0.1,0,-0.1,0,-0.1Phantom ______  __  __  _
 72
    65
 73
     6
 40
0.7000000000000001
 49
0.4
 74
     0
 49
-0.1
 74
     0
 49
0.0
 74
     0
 49
-0.1
 74
     0
 49
0.0
 74
     0
 49
-0.1
 74
     0
  0
ENDTAB
  0
TABLE
  2
LAYER
  5
19
102
{ACAD_XDICTIONARY
360
1A
102
}
330
0
100
AcDbSymbolTable
 70
     8
  0
LAYER
  5
6
102
{ACAD_XDICTIONARY
360
7
102
}
330
19
100
AcDbSymbolTableRecord
100
AcDbLayerTableRecord
  2
0
 70
     0
 62
     7
  6
CONTINUOUS
370
    -3
390
9
  0
LAYER
  5
4F
102
{ACAD_XDICTIONARY
360
50
102
}
330
19
100
AcDbSymbolTableRecord
100
AcDbLayerTableRecord
  2
K-1
 70
     0
 62
     7
  6
CONTINUOUS
370
     0
390
9
  0
LAYER
  5
30A
102
{ACAD_XDICTIONARY
360
30B
102
}
330
19
100
AcDbSymbolTableRecord
100
AcDbLayerTableRecord
  2
SUNPO
 70
     0
 62
     1
  6
CONTINUOUS
370
     0
390
9
  0
LAYER
  5
141
102
{ACAD_XDICTIONARY
360
142
102
}
330
19
100
AcDbSymbolTableRecord
100
AcDbLayerTableRecord
  2
KIKI
 70
     0
 62
     7
  6
CONTINUOUS
370
     0
390
9
  0
LAYER
  5
316
330
19
100
AcDbSymbolTableRecord
100
AcDbLayerTableRecord
  2
Defpoints
 70
     0
 62
     7
  6
CONTINUOUS
290
     0
370
    -3
390
9
  0
LAYER
  5
11B
102
{ACAD_XDICTIONARY
360
11C
102
}
330
19
100
AcDbSymbolTableRecord
100
AcDbLayerTableRecord
  2
Sunpou
 70
     0
 62
     1
  6
CONTINUOUS
290
     0
370
    -3
390
9
  0
LAYER
  5
8B
102
{ACAD_XDICTIONARY
360
8C
102
}
330
19
100
AcDbSymbolTableRecord
100
AcDbLayerTableRecord
  2
A3WAKU
 70
     0
 62
     7
  6
CONTINUOUS
370
    -3
390
9
  0
LAYER
  5
6C
102
{ACAD_XDICTIONARY
360
6D
102
}
330
19
100
AcDbSymbolTableRecord
100
AcDbLayerTableRecord
  2
A4WAKU
 70
     0
 62
     7
  6
CONTINUOUS
370
    -3
390
9
  0
ENDTAB
  0
TABLE
  2
STYLE
  5
25
330
0
100
AcDbSymbolTable
 70
     6
  0
STYLE
  5
26
330
25
100
AcDbSymbolTableRecord
100
AcDbTextStyleTableRecord
  2
STANDARD
 70
     0
 40
0.0
 41
1.0
 50
0.0
 71
     0
 42
0.2
  3
ISOCP.SHX
  4

  0
STYLE
  5
36
330
25
100
AcDbSymbolTableRecord
100
AcDbTextStyleTableRecord
  2
K1
 70
     0
 40
0.0
 41
0.8
 50
0.0
 71
     0
 42
2.5
  3
SSE
  4
BIGFONT
  0
STYLE
  5
443
330
25
100
AcDbSymbolTableRecord
100
AcDbTextStyleTableRecord
  2

 70
     1
 40
0.0
 41
1.0
 50
0.0
 71
     0
 42
2.5
  3
ltypeshp.shx
  4

  0
STYLE
  5
44F
330
25
100
AcDbSymbolTableRecord
100
AcDbTextStyleTableRecord
  2
ACJISTS
 70
     0
 40
1.0
 41
1.0
 50
0.0
 71
     0
 42
2.5
  3
isocp.shx
  4
extfont.shx
  0
STYLE
  5
452
330
25
100
AcDbSymbolTableRecord
100
AcDbTextStyleTableRecord
  2
ACJISGDT
 70
     0
 40
0.0
 41
1.0
 50
0.0
 71
     0
 42
2.5
  3
amgdt.shx
  4

  0
STYLE
  5
2FE
330
25
100
AcDbSymbolTableRecord
100
AcDbTextStyleTableRecord
  2
K
 70
     0
 40
0.0
 41
1.0
 50
0.0
 71
     0
 42
0.2
  3
SSE
  4
BIGFONT
  0
ENDTAB
  0
TABLE
  2
VIEW
  5
2B
330
0
100
AcDbSymbolTable
 70
     0
  0
ENDTAB
  0
TABLE
  2
UCS
  5
2C
330
0
100
AcDbSymbolTable
 70
     0
  0
ENDTAB
  0
TABLE
  2
APPID
  5
32
330
0
100
AcDbSymbolTable
 70
    14
  0
APPID
  5
33
330
32
100
AcDbSymbolTableRecord
100
AcDbRegAppTableRecord
  2
ACAD
 70
     0
  0
APPID
  5
28F
330
32
100
AcDbSymbolTableRecord
100
AcDbRegAppTableRecord
  2
GENIUS_GENODEF_13
 70
     0
  0
APPID
  5
2E8
330
32
100
AcDbSymbolTableRecord
100
AcDbRegAppTableRecord
  2
GENIUS_GENOBJ-N-CEN_13
 70
     0
  0
APPID
  5
28E
330
32
100
AcDbSymbolTableRecord
100
AcDbRegAppTableRecord
  2
GENIUS_GENREC_14
 70
     0
  0
APPID
  5
290
330
32
100
AcDbSymbolTableRecord
100
AcDbRegAppTableRecord
  2
GENIUS_GENOBJ-N-REC_13
 70
     0
  0
APPID
  5
3B0
330
32
100
AcDbSymbolTableRecord
100
AcDbRegAppTableRecord
  2
ACAD_DSTYLE_DIMRADIAL_EXTENSION
 70
     0
  0
APPID
  5
395
330
32
100
AcDbSymbolTableRecord
100
AcDbRegAppTableRecord
  2
ACAD_DSTYLE_DIMINSPECT
 70
     0
  0
APPID
  5
2E9
330
32
100
AcDbSymbolTableRecord
100
AcDbRegAppTableRecord
  2
GENIUS_GENCEN_19
 70
     0
  0
APPID
  5
31
330
32
100
AcDbSymbolTableRecord
100
AcDbRegAppTableRecord
  2
ACAD_NAV_VCDISPLAY
 70
     0
  0
APPID
  5
481
330
32
100
AcDbSymbolTableRecord
100
AcDbRegAppTableRecord
  2
AD_DRAW
 70
     0
  0
APPID
  5
482
330
32
100
AcDbSymbolTableRecord
100
AcDbRegAppTableRecord
  2
MCAD_NO_VIS
 70
     0
  0
APPID
  5
483
330
32
100
AcDbSymbolTableRecord
100
AcDbRegAppTableRecord
  2
ACADM_DIM_EDIT
 70
     0
  0
APPID
  5
484
330
32
100
AcDbSymbolTableRecord
100
AcDbRegAppTableRecord
  2
AMDT_DM_ADJ
 70
     0
  0
APPID
  5
4A6
330
32
100
AcDbSymbolTableRecord
100
AcDbRegAppTableRecord
  2
ACATTRIBSERVICES
 70
     0
  0
ENDTAB
  0
TABLE
  2
DIMSTYLE
  5
34
330
0
100
AcDbSymbolTable
 70
    11
100
AcDbDimStyleTable
 71
     5
340
35
340
3D
340
3E
340
3F
340
40
  0
DIMSTYLE
105
3D
330
34
100
AcDbSymbolTableRecord
100
AcDbDimStyleTableRecord
  2
AM_JIS
 70
     0
  4
"
 41
3.0
 42
1.0
 43
10.0
 44
1.0
 47
0.02
 48
0.02
 73
     0
 74
     0
 77
     3
 78
     8
 79
     2
140
4.0
141
0.0
143
0.0393701
146
0.71
147
1.5
172
     1
176
   256
177
   256
178
     7
179
     2
271
     2
272
     2
284
     8
340
36
341
37
342
37
371
    -1
372
    -1
  0
DIMSTYLE
105
3BB
102
{ACAD_REACTORS
330
3B1
330
418
102
}
330
34
100
AcDbSymbolTableRecord
100
AcDbDimStyleTableRecord
  2
AM_JIS$3
 70
     0
  4
"
 41
3.0
 42
1.0
 43
10.0
 44
1.0
 47
0.02
 48
0.02
 73
     0
 77
     3
 78
     8
 79
     2
140
4.0
141
0.0
143
0.0393701
146
0.71
147
1.5
176
   256
177
   256
178
     7
179
     2
271
     2
272
     2
284
     8
340
36
341
37
342
37
371
    -1
372
    -1
  0
DIMSTYLE
105
3AF
102
{ACAD_REACTORS
330
3A5
102
}
330
34
100
AcDbSymbolTableRecord
100
AcDbDimStyleTableRecord
  2
AM_JIS$4
 70
     0
  4
"
 41
3.0
 42
1.0
 43
10.0
 44
1.0
 47
0.02
 48
0.02
 73
     0
 74
     0
 77
     3
 78
     8
 79
     2
140
4.0
141
0.0
143
0.0393701
146
0.71
147
1.5
172
     1
176
   256
177
   256
178
     7
179
     2
271
     2
272
     2
284
     8
288
     1
340
36
341
37
342
37
371
    -1
372
    -1
  0
DIMSTYLE
105
476
330
34
100
AcDbSymbolTableRecord
100
AcDbDimStyleTableRecord
  2
AM_JIS$6
 70
     0
  4
"
 41
3.0
 42
1.0
 43
10.0
 44
1.0
 47
0.02
 48
0.02
 73
     0
 74
     0
 78
     8
 79
     2
140
4.0
141
0.0
143
0.0393701
146
0.71
147
1.5
172
     1
176
   256
177
   256
178
     7
179
     2
271
     2
272
     2
284
     8
340
36
341
37
342
37
371
    -1
372
    -1
  0
DIMSTYLE
105
428
330
34
100
AcDbSymbolTableRecord
100
AcDbDimStyleTableRecord
  2
AM_JIS$7
 70
     0
  4
"
 41
3.0
 42
1.0
 43
10.0
 44
1.0
 47
0.02
 48
0.02
 73
     0
 74
     0
 77
     3
 78
     8
 79
     2
140
4.0
141
0.0
143
0.0393701
146
0.71
147
1.5
172
     1
176
   256
177
   256
178
     7
179
     2
271
     2
272
     2
280
     3
284
     8
340
36
341
37
342
37
371
    -1
372
    -1
  0
DIMSTYLE
105
3F
330
34
100
AcDbSymbolTableRecord
100
AcDbDimStyleTableRecord
  2
AM_JIS$SF
 70
     0
  4
"
 41
3.0
 42
1.0
 43
10.0
 44
1.0
 47
0.1
 48
0.1
 73
     0
 74
     0
 75
     1
 76
     1
 77
     3
 78
     8
 79
     2
140
4.0
141
0.0
143
0.0393701
146
0.71
147
1.5
172
     1
176
   256
177
   256
178
     7
271
     2
272
     2
283
     0
284
     8
340
36
341
37
342
37
371
    -1
372
    -1
  0
DIMSTYLE
105
40
330
34
100
AcDbSymbolTableRecord
100
AcDbDimStyleTableRecord
  2
AM_JIS$SH
 70
     0
  4
"
 41
3.0
 42
1.0
 43
10.0
 44
1.0
 47
0.1
 48
0.1
 73
     0
 74
     0
 75
     1
 76
     1
 77
     3
 78
     8
 79
     2
140
4.0
141
0.0
143
0.0393701
144
2.0
146
0.71
147
1.5
172
     1
173
     1
176
   256
177
   256
178
     7
271
     2
272
     2
283
     0
284
     8
340
36
341
37
343
41
344
37
371
    -1
372
    -1
  0
DIMSTYLE
105
475
330
34
100
AcDbSymbolTableRecord
100
AcDbDimStyleTableRecord
  2
AM_JIS$2
 70
     0
  4
"
 41
3.0
 42
1.0
 43
10.0
 44
1.0
 47
0.02
 48
0.02
 73
     0
 74
     0
 77
     3
 78
     8
 79
     2
140
4.0
141
0.0
143
0.0393701
146
0.71
147
1.5
172
     1
176
   256
177
   256
178
     7
179
     2
271
     2
272
     2
284
     8
289
     2
340
36
341
37
342
37
371
    -1
372
    -1
  0
DIMSTYLE
105
31A
102
{ACAD_REACTORS
330
309
330
31B
330
32C
330
339
330
346
330
357
330
366
330
375
330
384
330
396
330
3BC
330
3C9
330
3DC
330
3EB
330
3FA
330
409
102
}
330
34
100
AcDbSymbolTableRecord
100
AcDbDimStyleTableRecord
  2
AM_JIS$0
 70
     0
  4
"
 41
3.0
 42
1.0
 43
10.0
 44
1.0
 47
0.02
 48
0.02
 73
     0
 74
     0
 77
     3
 78
     8
 79
     2
140
4.0
141
0.0
143
0.0393701
146
0.71
147
1.5
172
     1
176
   256
177
   256
178
     7
179
     2
271
     2
272
     2
284
     8
340
36
341
37
342
37
371
    -1
372
    -1
  0
DIMSTYLE
105
3E
330
34
100
AcDbSymbolTableRecord
100
AcDbDimStyleTableRecord
  2
AM_JIS_PCD
 70
     0
  4
"
 41
3.0
 42
1.0
 43
10.0
 44
1.0
 47
0.02
 48
0.02
 73
     0
 74
     0
 77
     3
 78
     8
 79
     2
140
4.0
141
0.0
143
0.0393701
146
0.71
147
1.5
172
     1
176
   256
177
   256
178
     7
179
     2
271
     2
272
     2
284
     8
288
     1
289
     2
340
36
341
37
342
37
371
    -1
372
    -1
  0
DIMSTYLE
105
35
330
34
100
AcDbSymbolTableRecord
100
AcDbDimStyleTableRecord
  2
PCD_AM_JIS
 70
     0
  3
P.C.D<>
  4
"
 41
3.0
 42
0.4999999999999997
 43
10.0
 44
1.0
 47
0.02
 48
0.02
 73
     0
 74
     0
 77
     3
 78
     8
 79
     2
140
4.0
141
0.0
143
0.0393701
146
0.71
147
1.5
172
     1
176
   256
177
   256
178
     7
271
     8
272
     8
283
     0
284
     8
289
     2
340
36
341
37
342
37
371
    -1
372
    -1
  0
ENDTAB
  0
TABLE
  2
BLOCK_RECORD
  5
1
330
0
100
AcDbSymbolTable
 70
    35
  0
BLOCK_RECORD
  5
2
102
{ACAD_XDICTIONARY
360
3
102
}
330
1
100
AcDbSymbolTableRecord
100
AcDbBlockTableRecord
  2
*Model_Space
340
10
  0
BLOCK_RECORD
  5
12
102
{ACAD_XDICTIONARY
360
13
102
}
330
1
100
AcDbSymbolTableRecord
100
AcDbBlockTableRecord
  2
*Paper_Space
340
17
  0
BLOCK_RECORD
  5
41
330
1
100
AcDbSymbolTableRecord
100
AcDbBlockTableRecord
  2
GENAXEH
340
0
  0
BLOCK_RECORD
  5
37
330
1
100
AcDbSymbolTableRecord
100
AcDbBlockTableRecord
  2
_Open30
340
0
102
{BLKREFS
331
312
331
313
331
326
331
327
331
332
331
333
331
33F
331
340
331
350
331
351
331
35F
331
360
331
36E
331
36F
331
37D
331
37E
331
38E
331
38F
331
39E
331
39F
331
3AB
331
3B7
331
3C2
331
3C3
331
3D1
331
3D2
331
3E4
331
3E5
331
3F3
331
3F4
331
402
331
403
331
411
331
412
331
420
102
}
  0
BLOCK_RECORD
  5
66
102
{ACAD_XDICTIONARY
360
67
102
}
330
1
100
AcDbSymbolTableRecord
100
AcDbBlockTableRecord
  2
表題覧_ver.1
340
0
310
2800000020000000200000000100080000000000000400000000000000000000000000000000000000000000000080000080000000808000800000008000800080800000C0C0C000C0DCC000F0CAA6000020400000206000002080000020A0000020C0000020E00000400000004020000040400000406000004080000040A0
310
000040C0000040E00000600000006020000060400000606000006080000060A0000060C0000060E00000800000008020000080400000806000008080000080A0000080C0000080E00000A0000000A0200000A0400000A0600000A0800000A0A00000A0C00000A0E00000C0000000C0200000C0400000C0600000C0800000C0
310
A00000C0C00000C0E00000E0000000E0200000E0400000E0600000E0800000E0A00000E0C00000E0E00040000000400020004000400040006000400080004000A0004000C0004000E00040200000402020004020400040206000402080004020A0004020C0004020E000404000004040200040404000404060004040800040
310
40A0004040C0004040E00040600000406020004060400040606000406080004060A0004060C0004060E00040800000408020004080400040806000408080004080A0004080C0004080E00040A0000040A0200040A0400040A0600040A0800040A0A00040A0C00040A0E00040C0000040C0200040C0400040C0600040C08000
310
40C0A00040C0C00040C0E00040E0000040E0200040E0400040E0600040E0800040E0A00040E0C00040E0E00080000000800020008000400080006000800080008000A0008000C0008000E00080200000802020008020400080206000802080008020A0008020C0008020E00080400000804020008040400080406000804080
310
008040A0008040C0008040E00080600000806020008060400080606000806080008060A0008060C0008060E00080800000808020008080400080806000808080008080A0008080C0008080E00080A0000080A0200080A0400080A0600080A0800080A0A00080A0C00080A0E00080C0000080C0200080C0400080C0600080C0
310
800080C0A00080C0C00080C0E00080E0000080E0200080E0400080E0600080E0800080E0A00080E0C00080E0E000C0000000C0002000C0004000C0006000C0008000C000A000C000C000C000E000C0200000C0202000C0204000C0206000C0208000C020A000C020C000C020E000C0400000C0402000C0404000C0406000C0
310
408000C040A000C040C000C040E000C0600000C0602000C0604000C0606000C0608000C060A000C060C000C060E000C0800000C0802000C0804000C0806000C0808000C080A000C080C000C080E000C0A00000C0A02000C0A04000C0A06000C0A08000C0A0A000C0A0C000C0A0E000C0C00000C0C02000C0C04000C0C06000
310
C0C08000C0C0A000F0FBFF00A4A0A000808080000000FF0000FF000000FFFF00FF000000FF00FF00FFFF0000FFFFFF0000000000000000000000000000000000000000000000000000000000000000000000000000000000000000000000000000000000000000000000000000000000000000000000000000000000000000
310
00000000000000000000000000000000000000000000000000000000000000000000000000000000000000000000000000000000000000000000000000000000000000000000000000000000000000000000000000000000000000000000000000000000000000000000000000000000000000000000000000000000000000
310
00000000000000000000000000000000000000000000000000000000000000000000000000000000000000000000000000000000000000000000000000000000000000000000000000000000000000000000000000000000000000000000000000000000000000000000000000000000000000000000000000000000000000
310
00000000000000000000000000000000000000000000000000000000000000000000000000000000000000000000000000000000000000000000000000000000000000000000000000000000000000000000000000FFFFFFFFFF00000000000000000000FFFFFFFFFFFFFFFFFFFFFFFFFF00000000FFFFFFFFFF0000000000
310
0000000000FFFFFFFFFFFFFFFFFFFFFFFF0000000000FFFFFFFFFF0000000000000000000000000000000000000000000000000000FFFFFFFFFFFF0000FFFFFF00000000000000FFFFFFFFFF000000000000000000FFFFFFFFFFFF000000000000000000000000FFFFFFFFFF00000000000000000000000000000000000000
310
0000000000FFFFFFFFFFFF00FFFFFFFFFFFFFFFF0000000000000000000000000000000000000000000000000000000000000000000000000000000000000000000000000000000000000000000000000000000000000000000000000000000000000000000000000000000000000000000000000000000000000000000000
310
00000000000000000000000000000000000000000000000000000000000000000000000000000000000000000000000000000000000000000000000000000000000000000000000000000000000000000000000000000000000000000000000000000000000000000000000000000000000000000000000000000000000000
310
00000000000000000000000000000000000000000000000000000000000000000000000000000000000000000000000000000000000000000000000000000000000000000000000000000000000000000000000000000000000000000000000000000000000000000000000000000000000000000000000000000000000000
310
0000000000000000000000000000000000000000000000000000000000000000000000000000000000000000000000000000000000000000
102
{BLKREFS
331
65
102
}
1001
ACAD
1000
DesignCenter Data
1002
{
1070
     1
1070
     4
1002
}
  0
BLOCK_RECORD
  5
82
102
{ACAD_XDICTIONARY
360
83
102
}
330
1
100
AcDbSymbolTableRecord
100
AcDbBlockTableRecord
  2
流用枠1-A
340
0
102
{BLKREFS
331
81
331
96
102
}
1001
ACAD
1000
DesignCenter Data
1002
{
1070
     1
1070
     4
1002
}
  0
BLOCK_RECORD
  5
13E
330
1
100
AcDbSymbolTableRecord
100
AcDbBlockTableRecord
  2
B04005A
340
0
102
{BLKREFS
331
13D
102
}
  0
BLOCK_RECORD
  5
2F1
102
{ACAD_XDICTIONARY
360
2F2
102
}
330
1
100
AcDbSymbolTableRecord
100
AcDbBlockTableRecord
  2
BLT-M04C
340
0
102
{BLKREFS
331
2F0
331
302
102
}
  0
BLOCK_RECORD
  5
211
102
{ACAD_XDICTIONARY
360
212
102
}
330
1
100
AcDbSymbolTableRecord
100
AcDbBlockTableRecord
  2
ハンドル外観図-B
340
0
102
{BLKREFS
331
210
102
}
  0
BLOCK_RECORD
  5
123
102
{ACAD_XDICTIONARY
360
124
102
}
330
1
100
AcDbSymbolTableRecord
100
AcDbBlockTableRecord
  2
吊りフック（15P用)-B
340
0
310
2800000020000000200000000100080000000000000400000000000000000000000000000000000000000000000080000080000000808000800000008000800080800000C0C0C000C0DCC000F0CAA6000020400000206000002080000020A0000020C0000020E00000400000004020000040400000406000004080000040A0
310
000040C0000040E00000600000006020000060400000606000006080000060A0000060C0000060E00000800000008020000080400000806000008080000080A0000080C0000080E00000A0000000A0200000A0400000A0600000A0800000A0A00000A0C00000A0E00000C0000000C0200000C0400000C0600000C0800000C0
310
A00000C0C00000C0E00000E0000000E0200000E0400000E0600000E0800000E0A00000E0C00000E0E00040000000400020004000400040006000400080004000A0004000C0004000E00040200000402020004020400040206000402080004020A0004020C0004020E000404000004040200040404000404060004040800040
310
40A0004040C0004040E00040600000406020004060400040606000406080004060A0004060C0004060E00040800000408020004080400040806000408080004080A0004080C0004080E00040A0000040A0200040A0400040A0600040A0800040A0A00040A0C00040A0E00040C0000040C0200040C0400040C0600040C08000
310
40C0A00040C0C00040C0E00040E0000040E0200040E0400040E0600040E0800040E0A00040E0C00040E0E00080000000800020008000400080006000800080008000A0008000C0008000E00080200000802020008020400080206000802080008020A0008020C0008020E00080400000804020008040400080406000804080
310
008040A0008040C0008040E00080600000806020008060400080606000806080008060A0008060C0008060E00080800000808020008080400080806000808080008080A0008080C0008080E00080A0000080A0200080A0400080A0600080A0800080A0A00080A0C00080A0E00080C0000080C0200080C0400080C0600080C0
310
800080C0A00080C0C00080C0E00080E0000080E0200080E0400080E0600080E0800080E0A00080E0C00080E0E000C0000000C0002000C0004000C0006000C0008000C000A000C000C000C000E000C0200000C0202000C0204000C0206000C0208000C020A000C020C000C020E000C0400000C0402000C0404000C0406000C0
310
408000C040A000C040C000C040E000C0600000C0602000C0604000C0606000C0608000C060A000C060C000C060E000C0800000C0802000C0804000C0806000C0808000C080A000C080C000C080E000C0A00000C0A02000C0A04000C0A06000C0A08000C0A0A000C0A0C000C0A0E000C0C00000C0C02000C0C04000C0C06000
310
C0C08000C0C0A000F0FBFF00A4A0A000808080000000FF0000FF000000FFFF00FF000000FF00FF00FFFF0000FFFFFF00000000000000000000000000000000000000000000000000000000000000000000000000000000000000000000000000000000FFFF0000000000000000000000000000000000000000000000000000
310
00000000FFFDFDFD0000000000000000000000000000000000000000000000000000FDFDFDFD00FD0000000000000000000000000000000000000000000000000000FD00FFFF00FD0000000000000000000000000000000000000000000000000000FDFDFDFD00FD0000000000000000000000000000000000000000000000
310
0000000000FFFFFDFD000000000000000000000000000000000000000000000000000000FF00FF00000000000000000000000000000000000000000000000000000000FF00FF00000000000000000000000000000000000000000000000000000000FF00FF0000000000000000000000000000000000000000000000000000
310
0000FF00FF00000000000000000000000000000000000000000000000000000000FF00FF00000000000000000000000000000000000000000000000000000000FFFFFF00000000000000000000000000000000000000000000000000000000FFFF0000000000000000000000000000000000000000000000000000000000FF
310
FF0000000000000000000000000000000000000000000000000000000000FFFF000000000000000000000000000000000000000000000000000000000000FFFF0000000000000000000000000000000000000000000000000000000000FFFF000000000000000000000000000000000000000000000000000000000000FFFF
310
000000000000000000000000000000000000000000000000000000000000FFFF000000000000000000000000000000000000000000000000000000000000FFFF000000000000000000000000000000000000000000000000000000000000FFFF000000000000000000000000000000000000000000000000000000000000FF
310
FF000000000000000000000000000000000000000000000000000000000000FFFF000000000000000000000000000000000000000000000000000000000000FFFF000000000000000000000000000000000000000000000000000000000000FFFF000000000000000000000000000000000000000000000000000000000000
310
FFFF000000000000000000000000000000000000000000000000000000000000FFFF000000000000000000000000000000000000000000000000000000000000FFFF000000000000000000000000000000000000000000000000000000000000FFFF0000000000000000000000000000000000000000000000000000000000
310
00FFFF0000000000000000000000000000000000000000000000000000000000000000000000000000000000000000000000000000000000
102
{BLKREFS
331
177
331
122
102
}
1001
ACAD
1000
DesignCenter Data
1002
{
1070
     1
1070
     4
1002
}
  0
BLOCK_RECORD
  5
17A
102
{ACAD_XDICTIONARY
360
17B
102
}
330
1
100
AcDbSymbolTableRecord
100
AcDbBlockTableRecord
  2
HFT-015M50-P1_側面図-A
340
0
102
{BLKREFS
331
178
102
}
  0
BLOCK_RECORD
  5
A1
102
{ACAD_XDICTIONARY
360
A2
102
}
330
1
100
AcDbSymbolTableRecord
100
AcDbBlockTableRecord
  2
配布先表
340
0
102
{BLKREFS
331
A0
102
}
  0
BLOCK_RECORD
  5
B3
102
{ACAD_XDICTIONARY
360
B4
102
}
330
1
100
AcDbSymbolTableRecord
100
AcDbBlockTableRecord
  2
普通公差&規格表
340
0
102
{BLKREFS
331
B2
102
}
  0
BLOCK_RECORD
  5
9C
102
{ACAD_XDICTIONARY
360
9D
102
}
330
1
100
AcDbSymbolTableRecord
100
AcDbBlockTableRecord
  2
WAKUA3_ver.1
340
0
310
2800000020000000200000000100080000000000000400000000000000000000000000000000000000000000000080000080000000808000800000008000800080800000C0C0C000C0DCC000F0CAA6000020400000206000002080000020A0000020C0000020E00000400000004020000040400000406000004080000040A0
310
000040C0000040E00000600000006020000060400000606000006080000060A0000060C0000060E00000800000008020000080400000806000008080000080A0000080C0000080E00000A0000000A0200000A0400000A0600000A0800000A0A00000A0C00000A0E00000C0000000C0200000C0400000C0600000C0800000C0
310
A00000C0C00000C0E00000E0000000E0200000E0400000E0600000E0800000E0A00000E0C00000E0E00040000000400020004000400040006000400080004000A0004000C0004000E00040200000402020004020400040206000402080004020A0004020C0004020E000404000004040200040404000404060004040800040
310
40A0004040C0004040E00040600000406020004060400040606000406080004060A0004060C0004060E00040800000408020004080400040806000408080004080A0004080C0004080E00040A0000040A0200040A0400040A0600040A0800040A0A00040A0C00040A0E00040C0000040C0200040C0400040C0600040C08000
310
40C0A00040C0C00040C0E00040E0000040E0200040E0400040E0600040E0800040E0A00040E0C00040E0E00080000000800020008000400080006000800080008000A0008000C0008000E00080200000802020008020400080206000802080008020A0008020C0008020E00080400000804020008040400080406000804080
310
008040A0008040C0008040E00080600000806020008060400080606000806080008060A0008060C0008060E00080800000808020008080400080806000808080008080A0008080C0008080E00080A0000080A0200080A0400080A0600080A0800080A0A00080A0C00080A0E00080C0000080C0200080C0400080C0600080C0
310
800080C0A00080C0C00080C0E00080E0000080E0200080E0400080E0600080E0800080E0A00080E0C00080E0E000C0000000C0002000C0004000C0006000C0008000C000A000C000C000C000E000C0200000C0202000C0204000C0206000C0208000C020A000C020C000C020E000C0400000C0402000C0404000C0406000C0
310
408000C040A000C040C000C040E000C0600000C0602000C0604000C0606000C0608000C060A000C060C000C060E000C0800000C0802000C0804000C0806000C0808000C080A000C080C000C080E000C0A00000C0A02000C0A04000C0A06000C0A08000C0A0A000C0A0C000C0A0E000C0C00000C0C02000C0C04000C0C06000
310
C0C08000C0C0A000F0FBFF00A4A0A000808080000000FF0000FF000000FFFF00FF000000FF00FF00FFFF0000FFFFFF0000000000000000000000000000000000000000000000000000000000000000000000000000000000000000000000000000000000000000000000000000000000000000000000000000000000000000
310
000000000000000000000000000000000000000000000000000000000000000000000000000000000000000000000000000000000000000000000000000000000000000000000000000000000000000000000000000000000000000000000000000000000000000000000000000000000000FEFEFEFEFEFEFEFEFEFEFEFEFE
310
FEFEFEFEFEFEFEFEFEFEFEFEFEFEFEFEFE0000FE0000000000000000000000000000FEFDFDFEFEFEFDFDFEA7A7FEFEFEFE0000FE0000000000000000000000000000FEFDFDA7A7FEFEFEA7FEFEFEFEFEFE0000FE00000000000000000000000000000000000000000000FEA7FDA7A7FEFE0000FE0000000000000000000000
310
0000000000000000000000000000000000FD0000FE00000000000000000000000000000000000000000000000000000000FD0000FE00000000000000000000000000000000000000000000000000000000FD0000FE00000000000000000000000000000000000000000000000000000000FD0000FE00000000000000000000
310
000000000000000000000000000000000000FD0000FE00000000000000000000000000000000000000000000000000000000FD0000FE00000000000000000000000000000000000000000000000000000000FD0000FE00000000000000000000000000000000000000000000000000000000FD0000FE000000000000000000
310
00000000000000000000000000000000000000FD0000FE00000000000000000000000000000000000000000000000000000000FD0000FE00000000000000000000000000000000000000000000000000000000FD0000FE00000000000000000000000000000000000000000000000000000000FD0000FE0000000000000000
310
0000000000000000000000000000000000000000FD0000FE00000000000000000000000000000000000000000000000000000000FD0000FE00000000000000000000000000000000000000000000000000000000FD0000FEFEFEFEFEFEFEFEFEFEFEFEFEFEFEFEFEFEFEFEFEFEFEFEFEFEFEFEFEFD00000000000000000000
310
00000000000000000000000000000000000000000000000000000000000000000000000000000000000000000000000000000000000000000000000000000000000000000000000000000000000000000000000000000000000000000000000000000000000000000000000000000000000000000000000000000000000000
310
0000000000000000000000000000000000000000000000000000000000000000000000000000000000000000000000000000000000000000
102
{BLKREFS
331
9B
102
}
  0
BLOCK_RECORD
  5
D8
330
1
100
AcDbSymbolTableRecord
100
AcDbBlockTableRecord
  2
WAKUA3
340
0
310
2800000020000000200000000100080000000000000400000000000000000000000000000000000000000000000080000080000000808000800000008000800080800000C0C0C000C0DCC000F0CAA6000020400000206000002080000020A0000020C0000020E00000400000004020000040400000406000004080000040A0
310
000040C0000040E00000600000006020000060400000606000006080000060A0000060C0000060E00000800000008020000080400000806000008080000080A0000080C0000080E00000A0000000A0200000A0400000A0600000A0800000A0A00000A0C00000A0E00000C0000000C0200000C0400000C0600000C0800000C0
310
A00000C0C00000C0E00000E0000000E0200000E0400000E0600000E0800000E0A00000E0C00000E0E00040000000400020004000400040006000400080004000A0004000C0004000E00040200000402020004020400040206000402080004020A0004020C0004020E000404000004040200040404000404060004040800040
310
40A0004040C0004040E00040600000406020004060400040606000406080004060A0004060C0004060E00040800000408020004080400040806000408080004080A0004080C0004080E00040A0000040A0200040A0400040A0600040A0800040A0A00040A0C00040A0E00040C0000040C0200040C0400040C0600040C08000
310
40C0A00040C0C00040C0E00040E0000040E0200040E0400040E0600040E0800040E0A00040E0C00040E0E00080000000800020008000400080006000800080008000A0008000C0008000E00080200000802020008020400080206000802080008020A0008020C0008020E00080400000804020008040400080406000804080
310
008040A0008040C0008040E00080600000806020008060400080606000806080008060A0008060C0008060E00080800000808020008080400080806000808080008080A0008080C0008080E00080A0000080A0200080A0400080A0600080A0800080A0A00080A0C00080A0E00080C0000080C0200080C0400080C0600080C0
310
800080C0A00080C0C00080C0E00080E0000080E0200080E0400080E0600080E0800080E0A00080E0C00080E0E000C0000000C0002000C0004000C0006000C0008000C000A000C000C000C000E000C0200000C0202000C0204000C0206000C0208000C020A000C020C000C020E000C0400000C0402000C0404000C0406000C0
310
408000C040A000C040C000C040E000C0600000C0602000C0604000C0606000C0608000C060A000C060C000C060E000C0800000C0802000C0804000C0806000C0808000C080A000C080C000C080E000C0A00000C0A02000C0A04000C0A06000C0A08000C0A0A000C0A0C000C0A0E000C0C00000C0C02000C0C04000C0C06000
310
C0C08000C0C0A000F0FBFF00A4A0A000808080000000FF0000FF000000FFFF00FF000000FF00FF00FFFF0000FFFFFF0000000000000000000000000000000000000000000000000000000000000000000000000000000000000000000000000000000000000000000000000000000000000000000000000000000000000000
310
000000000000000000000000000000000000000000000000000000000000000000000000000000000000000000000000000000000000000000000000000000000000000000000000000000000000000000000000000000000000000000000000000000000000000000000000000000000000FEFEFEFEFEFEFEFEFEFEFEFEFE
310
FEFEFEFEFEFEFEFEFEFEFEFEFEFEFEFEFE0000FE00000000000000000000000000000000000000FEFDFDFEA7A7FEFEFEFE0000FE00000000000000000000000000000000000000FEFEFEA7FEFEFEFEFEFE0000FE00000000000000000000000000000000000000000000FEA7FDA7A7FEFE0000FE0000000000000000000000
310
0000000000000000000000000000000000FD0000FE00000000000000000000000000000000000000000000000000000000FD0000FE00000000000000000000000000000000000000000000000000000000FD0000FE00000000000000000000000000000000000000000000000000000000FD0000FE00000000000000000000
310
000000000000000000000000000000000000FD0000FE00000000000000000000000000000000000000000000000000000000FD0000FE00000000000000000000000000000000000000000000000000000000FD0000FE00000000000000000000000000000000000000000000000000000000FD0000FE000000000000000000
310
00000000000000000000000000000000000000FD0000FE00000000000000000000000000000000000000000000000000000000FD0000FE00000000000000000000000000000000000000000000000000000000FD0000FE00000000000000000000000000000000000000000000000000000000FD0000FE0000000000000000
310
0000000000000000000000000000000000000000FD0000FE00000000000000000000000000000000000000000000000000000000FD0000FE00000000000000000000000000000000000000000000000000000000FD0000FEFEFEFEFEFEFEFEFEFEFEFEFEFEFEFEFEFEFEFEFEFEFEFEFEFEFEFEFEFD00000000000000000000
310
00000000000000000000000000000000000000000000000000000000000000000000000000000000000000000000000000000000000000000000000000000000000000000000000000000000000000000000000000000000000000000000000000000000000000000000000000000000000000000000000000000000000000
310
0000000000000000000000000000000000000000000000000000000000000000000000000000000000000000000000000000000000000000
102
{BLKREFS
331
D7
102
}
1001
ACAD
1000
DesignCenter Data
1002
{
1070
     1
1070
     4
1002
}
  0
BLOCK_RECORD
  5
30D
330
1
100
AcDbSymbolTableRecord
100
AcDbBlockTableRecord
  2
*D13
340
0
  0
BLOCK_RECORD
  5
31E
330
1
100
AcDbSymbolTableRecord
100
AcDbBlockTableRecord
  2
*D14
340
0
  0
BLOCK_RECORD
  5
32D
330
1
100
AcDbSymbolTableRecord
100
AcDbBlockTableRecord
  2
*D15
340
0
  0
BLOCK_RECORD
  5
33A
330
1
100
AcDbSymbolTableRecord
100
AcDbBlockTableRecord
  2
*D16
340
0
  0
BLOCK_RECORD
  5
349
330
1
100
AcDbSymbolTableRecord
100
AcDbBlockTableRecord
  2
*D17
340
0
  0
BLOCK_RECORD
  5
35A
330
1
100
AcDbSymbolTableRecord
100
AcDbBlockTableRecord
  2
*D18
340
0
  0
BLOCK_RECORD
  5
369
330
1
100
AcDbSymbolTableRecord
100
AcDbBlockTableRecord
  2
*D19
340
0
  0
BLOCK_RECORD
  5
378
330
1
100
AcDbSymbolTableRecord
100
AcDbBlockTableRecord
  2
*D20
340
0
  0
BLOCK_RECORD
  5
387
330
1
100
AcDbSymbolTableRecord
100
AcDbBlockTableRecord
  2
*D21
340
0
  0
BLOCK_RECORD
  5
399
330
1
100
AcDbSymbolTableRecord
100
AcDbBlockTableRecord
  2
*D22
340
0
  0
BLOCK_RECORD
  5
3A6
330
1
100
AcDbSymbolTableRecord
100
AcDbBlockTableRecord
  2
*D23
340
0
  0
BLOCK_RECORD
  5
3B2
330
1
100
AcDbSymbolTableRecord
100
AcDbBlockTableRecord
  2
*D24
340
0
  0
BLOCK_RECORD
  5
3BD
330
1
100
AcDbSymbolTableRecord
100
AcDbBlockTableRecord
  2
*D25
340
0
  0
BLOCK_RECORD
  5
3CA
330
1
100
AcDbSymbolTableRecord
100
AcDbBlockTableRecord
  2
*D26
340
0
  0
BLOCK_RECORD
  5
3DF
330
1
100
AcDbSymbolTableRecord
100
AcDbBlockTableRecord
  2
*D27
340
0
  0
BLOCK_RECORD
  5
3EE
330
1
100
AcDbSymbolTableRecord
100
AcDbBlockTableRecord
  2
*D28
340
0
  0
BLOCK_RECORD
  5
3FD
330
1
100
AcDbSymbolTableRecord
100
AcDbBlockTableRecord
  2
*D29
340
0
  0
BLOCK_RECORD
  5
40C
330
1
100
AcDbSymbolTableRecord
100
AcDbBlockTableRecord
  2
*D30
340
0
  0
BLOCK_RECORD
  5
41B
330
1
100
AcDbSymbolTableRecord
100
AcDbBlockTableRecord
  2
*D31
340
0
  0
BLOCK_RECORD
  5
42A
102
{ACAD_XDICTIONARY
360
42B
102
}
330
1
100
AcDbSymbolTableRecord
100
AcDbBlockTableRecord
  2
風船フォーマット1
340
0
310
2800000020000000200000000100080000000000000400000000000000000000000000000000000000000000000080000080000000808000800000008000800080800000C0C0C000C0DCC000F0CAA6000020400000206000002080000020A0000020C0000020E00000400000004020000040400000406000004080000040A0
310
000040C0000040E00000600000006020000060400000606000006080000060A0000060C0000060E00000800000008020000080400000806000008080000080A0000080C0000080E00000A0000000A0200000A0400000A0600000A0800000A0A00000A0C00000A0E00000C0000000C0200000C0400000C0600000C0800000C0
310
A00000C0C00000C0E00000E0000000E0200000E0400000E0600000E0800000E0A00000E0C00000E0E00040000000400020004000400040006000400080004000A0004000C0004000E00040200000402020004020400040206000402080004020A0004020C0004020E000404000004040200040404000404060004040800040
310
40A0004040C0004040E00040600000406020004060400040606000406080004060A0004060C0004060E00040800000408020004080400040806000408080004080A0004080C0004080E00040A0000040A0200040A0400040A0600040A0800040A0A00040A0C00040A0E00040C0000040C0200040C0400040C0600040C08000
310
40C0A00040C0C00040C0E00040E0000040E0200040E0400040E0600040E0800040E0A00040E0C00040E0E00080000000800020008000400080006000800080008000A0008000C0008000E00080200000802020008020400080206000802080008020A0008020C0008020E00080400000804020008040400080406000804080
310
008040A0008040C0008040E00080600000806020008060400080606000806080008060A0008060C0008060E00080800000808020008080400080806000808080008080A0008080C0008080E00080A0000080A0200080A0400080A0600080A0800080A0A00080A0C00080A0E00080C0000080C0200080C0400080C0600080C0
310
800080C0A00080C0C00080C0E00080E0000080E0200080E0400080E0600080E0800080E0A00080E0C00080E0E000C0000000C0002000C0004000C0006000C0008000C000A000C000C000C000E000C0200000C0202000C0204000C0206000C0208000C020A000C020C000C020E000C0400000C0402000C0404000C0406000C0
310
408000C040A000C040C000C040E000C0600000C0602000C0604000C0606000C0608000C060A000C060C000C060E000C0800000C0802000C0804000C0806000C0808000C080A000C080C000C080E000C0A00000C0A02000C0A04000C0A06000C0A08000C0A0A000C0A0C000C0A0E000C0C00000C0C02000C0C04000C0C06000
310
C0C08000C0C0A000F0FBFF00A4A0A000808080000000FF0000FF000000FFFF00FF000000FF00FF00FFFF0000FFFFFF00000000000000000000000000000000000000000000000000000000000000000000000000000000000000000000000000000000000000000000000000000000000000000000000000000000000000F9
310
F9F9F9F9000000000000000000000000000000000000000000F9F9F9F9F9F90000000000F9F9000000000000000000000000000000000000F900000000000000000000000000F9F900000000000000000000000000000000F9000000000000000000000000000000F9F900000000000000000000000000F900000000000000
310
0000000000000000000000F9F900000000000000000000F90000000000000000000000000000000000000000F9000000000000000000F900000000000000000000000000000000000000000000F90000000000000000F9000000000000000000000000FF000000000000000000F900000000000000F9000000000000000000
310
00000000FF00000000000000000000F90000000000F90000000000000000000000000000FF00000000000000000000F90000000000F90000000000000000000000000000FF00000000000000000000F90000000000F90000000000000000000000000000FF0000000000000000000000F900000000F9000000000000000000
310
0000000000FF0000000000000000000000F900000000F90000000000000000000000000000FF000000000000000000000000F9000000F90000000000000000000000000000FF000000000000000000000000F9000000F90000000000000000000000000000FF000000000000000000000000F9000000F90000000000000000
310
000000000000FF0000000000000000000000F900000000F90000000000000000000000000000FF0000000000000000000000F900000000F90000000000000000000000FFFF00FF00000000000000000000F9000000000000F9000000000000000000000000FFFF00000000000000000000F900000000000000F90000000000
310
00000000000000FF000000000000000000F90000000000000000F900000000000000000000000000000000000000000000F9000000000000000000F90000000000000000000000000000000000000000F90000000000000000000000F900000000000000000000000000000000000000F9000000000000000000000000F900
310
000000000000000000000000000000F9F900000000000000000000000000F90000000000000000000000000000F9F900000000000000000000000000000000F9F9F9F9F900000000000000F9F90000000000000000000000000000000000000000000000F9F9F9F9F9F9F90000000000000000000000000000000000000000
310
0000000000000000000000000000000000000000000000000000000000000000000000000000000000000000000000000000000000000000
102
{BLKREFS
331
429
102
}
1001
ACAD
1000
DesignCenter Data
1002
{
1070
     1
1070
     4
1002
}
  0
BLOCK_RECORD
  5
261
330
1
100
AcDbSymbolTableRecord
100
AcDbBlockTableRecord
  2
HFT-015M50-P1_正面図-A
340
0
102
{BLKREFS
331
260
102
}
  0
BLOCK_RECORD
  5
45D
330
1
100
AcDbSymbolTableRecord
100
AcDbBlockTableRecord
  2
_ACMOPEN15
340
0
  0
ENDTAB
  0
ENDSEC
  0
SECTION
  2
BLOCKS
  0
BLOCK
  5
5
330
2
100
AcDbEntity
  8
0
 62
     0
100
AcDbBlockBegin
  2
*Model_Space
 70
     0
 10
0.0
 20
0.0
 30
0.0
  3
*Model_Space
  1

  0
ENDBLK
  5
F
330
2
100
AcDbEntity
  8
0
 62
     0
100
AcDbBlockEnd
  0
BLOCK
  5
15
330
12
100
AcDbEntity
 67
     1
  8
0
 62
     0
100
AcDbBlockBegin
  2
*Paper_Space
 70
     0
 10
0.0
 20
0.0
 30
0.0
  3
*Paper_Space
  1

  0
ENDBLK
  5
16
330
12
100
AcDbEntity
 67
     1
  8
0
 62
     0
100
AcDbBlockEnd
  0
BLOCK
  5
42
330
41
100
AcDbEntity
  8
0
 62
     0
100
AcDbBlockBegin
  2
GENAXEH
 70
     0
 10
0.0
 20
0.0
 30
0.0
  3
GENAXEH
  1

  0
LINE
  5
43
330
41
100
AcDbEntity
  8
0
100
AcDbLine
 10
-1.0
 20
0.0
 30
0.0
 11
1.0
 21
0.0
 31
0.0
  0
ENDBLK
  5
44
330
41
100
AcDbEntity
  8
0
 62
     0
100
AcDbBlockEnd
  0
BLOCK
  5
38
330
37
100
AcDbEntity
  8
0
 62
     0
100
AcDbBlockBegin
  2
_Open30
 70
     0
 10
0.0
 20
0.0
 30
0.0
  3
_Open30
  1

  0
LINE
  5
39
330
37
100
AcDbEntity
  8
0
  6
ByBlock
 62
     7
370
    -2
100
AcDbLine
 10
-1.0
 20
0.2679491900000244
 30
0.0
 11
0.0
 21
0.0
 31
0.0
  0
LINE
  5
3A
330
37
100
AcDbEntity
  8
0
  6
ByBlock
 62
     7
370
    -2
100
AcDbLine
 10
0.0
 20
0.0
 30
0.0
 11
-1.0
 21
-0.2679491900000244
 31
0.0
  0
LINE
  5
3B
330
37
100
AcDbEntity
  8
0
  6
ByBlock
 62
     0
370
    -2
100
AcDbLine
 10
0.0
 20
0.0
 30
0.0
 11
-1.0
 21
0.0
 31
0.0
  0
ENDBLK
  5
3C
330
37
100
AcDbEntity
  8
0
 62
     0
100
AcDbBlockEnd
  0
BLOCK
  5
69
330
66
100
AcDbEntity
  8
0
100
AcDbBlockBegin
  2
表題覧_ver.1
 70
     2
 10
0.0
 20
0.0
 30
0.0
  3
表題覧_ver.1
  1

  0
ATTDEF
  5
6A
330
66
100
AcDbEntity
  8
0
100
AcDbText
 10
-73.10399192270904
 20
27.54999999999782
 30
0.0
 40
4.0
  1
AAAA
 41
1.646590909090915
  7
K1
 72
     5
 11
-48.95399192270895
 21
27.54999999999782
 31
0.0
100
AcDbAttributeDefinition
  3
JOB_No?
  2
JOB_NO
 70
     4
  0
ATTDEF
  5
6B
330
66
100
AcDbEntity
  8
A4WAKU
100
AcDbText
 10
-56.74219840503115
 20
17.54999999999779
 30
0.0
 40
6.0
  1
DDDD
 41
0.8
  7
K1
 72
     4
 11
-47.94219840503115
 21
20.54999999999779
 31
0.0
100
AcDbAttributeDefinition
  3
2.TITLE?
  2
TITLE
 70
     4
  0
ATTDEF
  5
6F
330
66
100
AcDbEntity
  8
A4WAKU
100
AcDbText
 10
-68.07175800089066
 20
3.499999999997726
 30
0.0
 40
6.0
  1
CCCC
 41
2.806363636363637
  7
K1
 72
     5
 11
-6.331758000890658
 21
3.499999999997726
 31
0.0
100
AcDbAttributeDefinition
  3
3.DRAWING_No?
  2
DRAWING_NO.
 70
     4
  0
ATTDEF
  5
70
330
66
100
AcDbEntity
  8
A4WAKU
100
AcDbText
 10
-110.9421984050312
 20
17.04999999999779
 30
0.0
 40
3.0
  1
1/1
 41
1.981874999999988
  7
K1
 72
     5
 11
-100.3721984050313
 21
17.04999999999779
 31
0.0
100
AcDbAttributeDefinition
  3
4.SCALE?
  2
SCALE
 70
     4
  0
ATTDEF
  5
71
330
66
100
AcDbEntity
  8
A4WAKU
100
AcDbText
 10
-143.1840859713084
 20
18.65999999999781
 30
0.0
 40
3.5
  1
SS400
  7
K1
 72
     2
 11
-127.2396415268639
 21
18.65999999999781
 31
0.0
100
AcDbAttributeDefinition
  3
7.MATERIAL?
  2
MATERIAL
 70
     4
  0
ATTDEF
  5
72
330
66
100
AcDbEntity
  8
0
100
AcDbText
 10
-35.2555555555569
 20
27.49999999999787
 30
0.0
 40
4.0
  1
1
 41
0.8
  7
K1
 72
     4
 11
-34.90000000000134
 21
29.49999999999787
 31
0.0
100
AcDbAttributeDefinition
  3
6.KAZU?
  2
AMT
 70
     4
  0
ATTDEF
  5
73
330
66
100
AcDbEntity
  8
A4WAKU
100
AcDbText
 10
-134.7063081935306
 20
9.829999999997824
 30
0.0
 40
3.5
  1
黒染
  7
K1
 72
     2
 11
-127.2396415268639
 21
9.829999999997824
 31
0.0
100
AcDbAttributeDefinition
  3
7.REMARK?
  2
REMARK
 70
     4
  0
ATTDEF
  5
74
330
66
100
AcDbEntity
  8
0
100
AcDbText
 10
-26.20399192270895
 20
27.5499999999978
 30
0.0
 40
4.0
  1
BBBB
 41
1.646590909090915
  7
K1
 72
     5
 11
-2.05399192270886
 21
27.5499999999978
 31
0.0
100
AcDbAttributeDefinition
  3
DATE?
  2
DATE
 70
     4
  0
ATTDEF
  5
75
330
66
100
AcDbEntity
  8
A4WAKU
100
AcDbText
 10
-140.7922955427447
 20
0.9999999999978115
 30
0.0
 40
3.5
  1
0.00
  7
K1
 72
     2
 11
-130.2922955427447
 21
0.9999999999978115
 31
0.0
100
AcDbAttributeDefinition
  3
7.WEIGHT?
  2
WEIGHT
 70
     4
  0
ENDBLK
  5
76
330
66
100
AcDbEntity
  8
0
100
AcDbBlockEnd
  0
BLOCK
  5
84
330
82
100
AcDbEntity
  8
0
 62
     0
100
AcDbBlockBegin
  2
流用枠1-A
 70
     2
 10
0.0
 20
0.0
 30
0.0
  3
流用枠1-A
  1

  0
LWPOLYLINE
  5
85
330
82
100
AcDbEntity
  8
0
 62
     4
100
AcDbPolyline
 90
        3
 70
     0
 43
0.0
 10
0.0
 20
0.0
 10
0.0
 20
8.999999999999971
 10
74.89999999999963
 20
8.999999999999971
  0
TEXT
  5
86
330
82
100
AcDbEntity
  8
0
 62
    11
100
AcDbText
 10
0.6999999999998181
 20
6.349999999999937
 30
0.0
 40
2.0
  1
ＪＯＢ　ＮＯ．工事記号
 41
0.5412371134020617
  7
K1
 72
     5
 11
14.69999999999982
 21
6.349999999999937
 31
0.0
100
AcDbText
  0
ATTDEF
  5
87
330
82
100
AcDbEntity
  8
0
100
AcDbText
 10
1.469999999999799
 20
1.049999999999926
 30
0.0
 40
4.0
  1

 41
1.646590909090915
  7
K1
 72
     5
 11
25.61999999999989
 21
1.049999999999926
 31
0.0
100
AcDbAttributeDefinition
  3
JOB_No?
  2
AAAA
 70
     4
  0
LINE
  5
88
330
82
100
AcDbEntity
  8
0
 62
     6
100
AcDbLine
 10
46.90000000000009
 20
-0.0000000000000284
 30
0.0
 11
46.90000000000009
 21
8.999999999999971
 31
0.0
  0
ATTDEF
  5
89
330
82
100
AcDbEntity
  8
0
100
AcDbText
 10
40.0
 20
2.999999999999971
 30
0.0
 40
4.0
  1

 41
0.8
  7
K1
 72
     4
 11
40.0
 21
2.999999999999971
 31
0.0
100
AcDbAttributeDefinition
  3
6.KAZU?
  2
1
 70
     4
  0
TEXT
  5
8A
330
82
100
AcDbEntity
  8
A3WAKU
 62
    11
100
AcDbText
 10
28.69999999999982
 20
6.349999999999937
 30
0.0
 40
2.0
  1
ＡＭＴ.所要数（個）
 41
0.670212765957447
  7
K1
 72
     5
 11
42.69999999999981
 21
6.349999999999937
 31
0.0
100
AcDbText
  0
LINE
  5
8E
330
82
100
AcDbEntity
  8
0
 62
     6
100
AcDbLine
 10
28.0
 20
-0.0000000000000284
 30
0.0
 11
28.0
 21
8.999999999999971
 31
0.0
  0
TEXT
  5
8F
330
82
100
AcDbEntity
  8
A3WAKU
 62
    11
100
AcDbText
 10
47.5999999999999
 20
6.349999999999937
 30
0.0
 40
2.0
  1
DATE.
 41
0.7297297297297299
  7
K1
 72
     5
 11
53.59999999999991
 21
6.349999999999937
 31
0.0
100
AcDbText
  0
ATTDEF
  5
90
330
82
100
AcDbEntity
  8
0
100
AcDbText
 10
48.36999999999989
 20
1.049999999999897
 30
0.0
 40
4.0
  1

 41
1.646590909090915
  7
K1
 72
     5
 11
72.51999999999998
 21
1.049999999999897
 31
0.0
100
AcDbAttributeDefinition
  3
DATE?
  2
BBBB
 70
     4
  0
ENDBLK
  5
91
330
82
100
AcDbEntity
  8
0
 62
     0
100
AcDbBlockEnd
  0
BLOCK
  5
13F
330
13E
100
AcDbEntity
  8
K-1
100
AcDbBlockBegin
  2
B04005A
 70
     2
 10
0.0
 20
0.0
 30
0.0
  3
B04005A
  1

  0
ATTDEF
  5
140
330
13E
100
AcDbEntity
  8
KIKI
  6
ByBlock
 62
     0
100
AcDbText
 10
-2.0
 20
2.0
 30
0.0
 40
0.1
  1
.
 41
0.8
  7
K1
100
AcDbAttributeDefinition
  3
M4X5
  2
M4
 70
    13
  0
POLYLINE
  5
144
330
13E
100
AcDbEntity
  8
KIKI
  6
ByBlock
 62
     0
100
AcDb2dPolyline
 66
     1
 10
0.0
 20
0.0
 30
0.0
  0
VERTEX
  5
145
330
144
100
AcDbEntity
  8
KIKI
  6
ByBlock
 62
     0
100
AcDbVertex
100
AcDb2dVertex
 10
-3.5
 20
0.0
 30
0.0
  0
VERTEX
  5
146
330
144
100
AcDbEntity
  8
KIKI
  6
ByBlock
 62
     0
100
AcDbVertex
100
AcDb2dVertex
 10
-3.5
 20
3.600000000000022
 30
0.0
  0
VERTEX
  5
147
330
144
100
AcDbEntity
  8
KIKI
  6
ByBlock
 62
     0
100
AcDbVertex
100
AcDb2dVertex
 10
-3.100000000000363
 20
4.0
 30
0.0
  0
VERTEX
  5
148
330
144
100
AcDbEntity
  8
KIKI
  6
ByBlock
 62
     0
100
AcDbVertex
100
AcDb2dVertex
 10
3.099999999999454
 20
4.0
 30
0.0
  0
VERTEX
  5
149
330
144
100
AcDbEntity
  8
KIKI
  6
ByBlock
 62
     0
100
AcDbVertex
100
AcDb2dVertex
 10
3.5
 20
3.600000000000022
 30
0.0
  0
VERTEX
  5
14A
330
144
100
AcDbEntity
  8
KIKI
  6
ByBlock
 62
     0
100
AcDbVertex
100
AcDb2dVertex
 10
3.5
 20
0.0
 30
0.0
  0
SEQEND
  5
14B
330
144
100
AcDbEntity
  8
KIKI
  6
ByBlock
 62
     0
  0
POLYLINE
  5
14C
330
13E
100
AcDbEntity
  8
KIKI
  6
ByBlock
 62
     0
100
AcDb2dPolyline
 66
     1
 10
0.0
 20
0.0
 30
0.0
  0
VERTEX
  5
14D
330
14C
100
AcDbEntity
  8
KIKI
  6
ByBlock
 62
     0
100
AcDbVertex
100
AcDb2dVertex
 10
-3.5
 20
3.600000000000022
 30
0.0
  0
VERTEX
  5
14E
330
14C
100
AcDbEntity
  8
KIKI
  6
ByBlock
 62
     0
100
AcDbVertex
100
AcDb2dVertex
 10
3.5
 20
3.600000000000022
 30
0.0
  0
SEQEND
  5
14F
330
14C
100
AcDbEntity
  8
KIKI
  6
ByBlock
 62
     0
  0
ENDBLK
  5
150
330
13E
100
AcDbEntity
  8
K-1
100
AcDbBlockEnd
  0
BLOCK
  5
2F3
330
2F1
100
AcDbEntity
  8
0
 62
     0
100
AcDbBlockBegin
  2
BLT-M04C
 70
     2
 10
0.0
 20
0.0
 30
0.0
  3
BLT-M04C
  1

  0
CIRCLE
  5
2F4
330
2F1
100
AcDbEntity
  8
KIKI
  6
ByBlock
 62
     0
100
AcDbCircle
 10
0.0
 20
0.0
 30
0.0
 40
3.5
  0
POLYLINE
  5
2F5
330
2F1
100
AcDbEntity
  8
KIKI
  6
ByBlock
 62
     0
100
AcDb2dPolyline
 66
     1
 10
0.0
 20
0.0
 30
0.0
 70
     1
  0
VERTEX
  5
2F6
330
2F5
100
AcDbEntity
  8
KIKI
  6
ByBlock
 62
     0
100
AcDbVertex
100
AcDb2dVertex
 10
-1.5
 20
-0.8660254037844481
 30
0.0
 50
90.0
  0
VERTEX
  5
2F7
330
2F5
100
AcDbEntity
  8
KIKI
  6
ByBlock
 62
     0
100
AcDbVertex
100
AcDb2dVertex
 10
0.0
 20
-1.732050807568867
 30
0.0
 50
90.0
  0
VERTEX
  5
2F8
330
2F5
100
AcDbEntity
  8
KIKI
  6
ByBlock
 62
     0
100
AcDbVertex
100
AcDb2dVertex
 10
1.5
 20
-0.8660254037844481
 30
0.0
 50
90.0
  0
VERTEX
  5
2F9
330
2F5
100
AcDbEntity
  8
KIKI
  6
ByBlock
 62
     0
100
AcDbVertex
100
AcDb2dVertex
 10
1.5
 20
0.8660254037844481
 30
0.0
 50
90.0
  0
VERTEX
  5
2FA
330
2F5
100
AcDbEntity
  8
KIKI
  6
ByBlock
 62
     0
100
AcDbVertex
100
AcDb2dVertex
 10
0.0
 20
1.732050807568867
 30
0.0
 50
90.0
  0
VERTEX
  5
2FB
330
2F5
100
AcDbEntity
  8
KIKI
  6
ByBlock
 62
     0
100
AcDbVertex
100
AcDb2dVertex
 10
-1.5
 20
0.8660254037844481
 30
0.0
 50
90.0
  0
SEQEND
  5
2FC
330
2F5
100
AcDbEntity
  8
KIKI
  6
ByBlock
 62
     0
  0
ATTDEF
  5
2FD
330
2F1
100
AcDbEntity
  8
KIKI
  6
ByBlock
 62
     0
100
AcDbText
 10
-1.800000000000011
 20
0.9000000000000056
 30
0.0
 40
0.1
  1

 50
90.0
  7
K
100
AcDbAttributeDefinition
  3

  2
M4
 70
    13
  0
ENDBLK
  5
2FF
330
2F1
100
AcDbEntity
  8
0
 62
     0
100
AcDbBlockEnd
  0
BLOCK
  5
214
330
211
100
AcDbEntity
  8
0
100
AcDbBlockBegin
  2
ハンドル外観図-B
 70
     0
 10
0.0
 20
0.0
 30
0.0
  3
ハンドル外観図-B
  1

  0
CIRCLE
  5
215
330
211
100
AcDbEntity
  8
K-1
  6
ByBlock
 62
     0
370
    25
100
AcDbCircle
 10
24.19829893242422
 20
131.9999999993783
 30
0.0
 40
4.25
  0
CIRCLE
  5
216
330
211
100
AcDbEntity
  8
K-1
  6
ByBlock
 62
     0
370
    25
100
AcDbCircle
 10
-35.30170106758942
 20
131.9999999993765
 30
0.0
 40
4.25
  0
ARC
  5
217
330
211
100
AcDbEntity
  8
K-1
  6
ByBlock
 62
     0
100
AcDbCircle
 10
-26.99418699964918
 20
3.36360940474924
 30
0.0
 40
9.0
100
AcDbArc
 50
307.2660444507638
 51
87.16041159309565
  0
LINE
  5
218
330
211
100
AcDbEntity
  8
K-1
  6
ByBlock
 62
     0
100
AcDbLine
 10
-55.80170106758306
 20
112.200000000628
 30
0.0
 11
-54.74005562036928
 21
112.2000000006273
 31
0.0
  0
LWPOLYLINE
  5
219
330
211
100
AcDbEntity
  8
K-1
  6
ByBlock
 62
     0
370
    25
100
AcDbPolyline
 90
        4
 70
     1
 43
0.0
 10
-21.80170106758942
 20
121.0000000018799
 10
-29.80170106758578
 20
121.0000000018785
 42
-0.9999999999999998
 10
-29.80170106760033
 20
127.0000000018785
 10
-21.80170106757669
 20
127.0000000018776
 42
-0.9999999999999998
  0
LINE
  5
21A
330
211
100
AcDbEntity
  8
K-1
  6
ByBlock
 62
     0
100
AcDbLine
 10
52.19829893241694
 20
127.9999999993802
 30
0.0
 11
52.19829893243058
 21
120.352653960796
 31
0.0
  0
LINE
  5
21B
330
211
100
AcDbEntity
  8
K-1
  6
ByBlock
 62
     0
370
    25
100
AcDbLine
 10
-23.39984810407532
 20
23.29049395502693
 30
0.0
 11
-35.64188083768931
 21
76.31656339285973
 31
0.0
  0
LINE
  5
21C
330
211
100
AcDbEntity
  8
K-1
  6
ByBlock
 62
     0
100
AcDbLine
 10
52.19829893241694
 20
127.9999999993802
 30
0.0
 11
52.19829893240512
 21
136.9999999993811
 31
0.0
  0
LINE
  5
21D
330
211
100
AcDbEntity
  8
K-1
  6
ByBlock
 62
     0
370
    25
100
AcDbLine
 10
-49.80170106759215
 20
87.51729889415992
 30
0.0
 11
-49.8017010675785
 21
89.75378874940725
 31
0.0
  0
LINE
  5
21E
330
211
100
AcDbEntity
  8
K-1
  6
ByBlock
 62
     0
370
    25
100
AcDbLine
 10
-57.80170106758214
 20
114.2000000006285
 30
0.0
 11
-57.8017010675785
 21
129.4999999993752
 31
0.0
  0
LINE
  5
21F
330
211
100
AcDbEntity
  8
K-1
  6
ByBlock
 62
     0
100
AcDbLine
 10
-24.62019382531617
 20
-4.341204441677291
 30
0.0
 11
21.6657705664893
 21
3.820259908705338
 31
0.0
  0
LINE
  5
220
330
211
100
AcDbEntity
  8
K-1
  6
ByBlock
 62
     0
370
    25
100
AcDbLine
 10
51.69829893240785
 20
137.499999999382
 30
0.0
 11
-57.30170106758487
 21
137.4999999993811
 31
0.0
  0
ARC
  5
221
330
211
100
AcDbEntity
  8
K-1
  6
ByBlock
 62
     0
370
    25
100
AcDbCircle
 10
51.69829893240967
 20
136.9999999993829
 30
0.0
 40
0.5
100
AcDbArc
 50
0.0000000000521102
 51
90.0
  0
LINE
  5
222
330
211
100
AcDbEntity
  8
K-1
  6
ByBlock
 62
     0
370
    25
100
AcDbLine
 10
12.62062390255596
 20
113.3740420193203
 30
0.0
 11
52.19829893243058
 21
120.352653960796
 31
0.0
  0
LINE
  5
223
330
211
100
AcDbEntity
  8
K-1
  6
ByBlock
 62
     0
100
AcDbLine
 10
-57.8017010675785
 20
129.4999999993752
 30
0.0
 11
-57.80170106758487
 21
136.9999999993829
 31
0.0
  0
ARC
  5
224
330
211
100
AcDbEntity
  8
K-1
  6
ByBlock
 62
     0
100
AcDbCircle
 10
-57.30170106759397
 20
136.9999999993847
 30
0.0
 40
0.5
100
AcDbArc
 50
90.0
 51
180.0
  0
CIRCLE
  5
225
330
211
100
AcDbEntity
  8
K-1
  6
ByBlock
 62
     0
100
AcDbCircle
 10
24.19829893240148
 20
131.9999999993783
 30
0.0
 40
2.25
  0
CIRCLE
  5
226
330
211
100
AcDbEntity
  8
K-1
  6
ByBlock
 62
     0
100
AcDbCircle
 10
-35.30170106758851
 20
131.9999999993774
 30
0.0
 40
2.25
  0
LINE
  5
227
330
211
100
AcDbEntity
  8
K-1
  6
ByBlock
 62
     0
370
    25
100
AcDbLine
 10
23.2880897171799
 20
6.13717177006265
 30
0.0
 11
20.73470268744586
 21
20.61814921029827
 31
0.0
  0
ARC
  5
228
330
211
100
AcDbEntity
  8
K-1
  6
ByBlock
 62
     0
100
AcDbCircle
 10
-26.00937924663867
 20
3.537257582416032
 30
0.0
 40
8.0
100
AcDbArc
 50
130.0000000000209
 51
280.0000000000052
  0
LINE
  5
229
330
211
100
AcDbEntity
  8
K-1
  6
ByBlock
 62
     0
370
    25
100
AcDbLine
 10
-43.64909970886674
 20
83.91513037954201
 30
0.0
 11
-47.32264560058502
 21
84.56287563512296
 31
0.0
  0
ARC
  5
22A
330
211
100
AcDbEntity
  8
K-1
  6
ByBlock
 62
     0
100
AcDbCircle
 10
-46.80170106759852
 20
87.51729889416173
 30
0.0
 40
3.0
100
AcDbArc
 50
180.0
 51
259.9999999999948
  0
LINE
  5
22B
330
211
100
AcDbEntity
  8
K-1
  6
ByBlock
 62
     6
100
AcDbLine
 10
-57.80170106759943
 20
118.9999999993765
 30
0.0
 11
-54.8017010675776
 21
118.9999999993763
 31
0.0
  0
LINE
  5
22C
330
211
100
AcDbEntity
  8
K-1
  6
ByBlock
 62
     6
100
AcDbLine
 10
2.19829893241058
 20
118.9999999993756
 30
0.0
 11
52.19829893241239
 21
127.8163490347974
 31
0.0
  0
ARC
  5
22D
330
211
100
AcDbEntity
  8
K-1
  6
ByBlock
 62
     0
100
AcDbCircle
 10
-65.80170106758941
 20
98.00000000062802
 30
0.0
 40
18.0
100
AcDbArc
 50
332.7339555493606
 51
52.0817973435526
  0
CIRCLE
  5
22E
330
211
100
AcDbEntity
  8
K-1
  6
ByBlock
 62
     0
100
AcDbCircle
 10
-51.8017010675776
 20
118.9999999993792
 30
0.0
 40
3.0
  0
LINE
  5
22F
330
211
100
AcDbEntity
  8
K-1
  6
ByBlock
 62
     6
100
AcDbLine
 10
-57.8017010675785
 20
126.9999999993774
 30
0.0
 11
2.198298932405123
 21
126.9999999993779
 31
0.0
  0
LINE
  5
230
330
211
100
AcDbEntity
  8
K-1
  6
ByBlock
 62
     6
100
AcDbLine
 10
2.198298932405123
 20
126.9999999993779
 30
0.0
 11
20.53064276999339
 21
129.8527230553893
 31
0.0
  0
ARC
  5
231
330
211
100
AcDbEntity
  8
K-1
  6
ByBlock
 62
     0
370
    25
100
AcDbCircle
 10
-45.38558148554057
 20
74.06705284942018
 30
0.0
 40
10.0
100
AcDbArc
 50
13.0000000000266
 51
79.99999999999484
  0
ARC
  5
232
330
211
100
AcDbEntity
  8
K-1
  6
ByBlock
 62
     0
100
AcDbCircle
 10
-30.98666941620923
 20
20.24733186617959
 30
0.0
 40
8.0
100
AcDbArc
 50
310.0000000000209
 51
10.00000000021942
  0
LINE
  5
233
330
211
100
AcDbEntity
  8
K-1
  6
ByBlock
 62
     0
370
    25
100
AcDbLine
 10
-23.10820739213068
 20
21.63651728754167
 30
0.0
 11
-23.39984810407532
 21
23.29049395502693
 31
0.0
  0
LINE
  5
234
330
211
100
AcDbEntity
  8
K-1
  6
ByBlock
 62
     0
370
    25
100
AcDbLine
 10
-25.8443685387274
 20
14.11897632122964
 30
0.0
 11
-31.15168012413779
 21
9.665613127367123
 31
0.0
  0
LINE
  5
235
330
211
100
AcDbEntity
  8
K-1
  6
ByBlock
 62
     6
370
    25
100
AcDbLine
 10
20.58708953455789
 20
21.4553050005311
 30
0.0
 11
20.50971887451851
 21
21.89409581826112
 31
0.0
  0
ARC
  5
236
330
211
100
AcDbEntity
  8
K-1
  6
ByBlock
 62
     0
100
AcDbCircle
 10
-147.1912062944311
 20
40.05248559163078
 30
0.0
 40
160.0
100
AcDbArc
 50
358.8873100836182
 51
20.47637507234677
  0
ARC
  5
237
330
211
100
AcDbEntity
  8
K-1
  6
ByBlock
 62
     0
100
AcDbCircle
 10
14.87805021222539
 20
100.5715412301615
 30
0.0
 40
13.0
100
AcDbArc
 50
100.0000000000051
 51
200.4763750723468
  0
LINE
  5
238
330
211
100
AcDbEntity
  8
K-1
  6
ByBlock
 62
     6
100
AcDbLine
 10
20.1653303966541
 20
22.31855242457186
 30
0.0
 11
20.50971887450851
 21
21.89409581825839
 31
0.0
  0
ARC
  5
239
330
211
100
AcDbEntity
  8
K-1
  6
ByBlock
 62
     0
100
AcDbCircle
 10
15.81066392238426
 20
19.74990832196226
 30
0.0
 40
5.0
100
AcDbArc
 50
10.00000000000269
 51
39.0546041007617
  0
ARC
  5
23A
330
211
100
AcDbEntity
  8
K-1
  6
ByBlock
 62
     0
100
AcDbCircle
 10
23.42095641481501
 20
34.17749969901115
 30
0.0
 40
10.0
100
AcDbArc
 50
190.0000000000151
 51
219.0546041007617
  0
LINE
  5
23B
330
211
100
AcDbEntity
  8
K-1
  6
ByBlock
 62
     0
100
AcDbLine
 10
15.65549788619591
 20
27.87689228065028
 30
0.0
 11
19.69339318669426
 21
22.90021203114293
 31
0.0
  0
LINE
  5
23C
330
211
100
AcDbEntity
  8
K-1
  6
ByBlock
 62
     0
370
    25
100
AcDbLine
 10
13.57287888470364
 20
32.44101792232596
 30
0.0
 11
12.77862342301705
 21
36.94546448228221
 31
0.0
  0
ARC
  5
23D
330
211
100
AcDbEntity
  8
K-1
  6
ByBlock
 62
     0
370
    25
100
AcDbCircle
 10
21.31847421115526
 20
5.789875414729294
 30
0.0
 40
2.0
100
AcDbArc
 50
280.0000000000052
 51
9.999999999977831
  0
LINE
  5
23E
330
211
100
AcDbEntity
  8
K-1
  6
ByBlock
 62
     6
100
AcDbLine
 10
-4.520312955928602
 20
26.61946538488951
 30
0.0
 11
14.35922219221811
 21
29.94843681475186
 31
0.0
  0
LINE
  5
23F
330
211
100
AcDbEntity
  8
K-1
  6
ByBlock
 62
     6
100
AcDbLine
 10
23.28808971717899
 20
6.13717177006174
 30
0.0
 11
-19.3460066921325
 21
-1.380369725023001
 31
0.0
  0
LINE
  5
240
330
211
100
AcDbEntity
  8
K-1
  6
ByBlock
 62
     0
100
AcDbLine
 10
-26.54832806858849
 20
12.35255872119296
 30
0.0
 11
-26.72892046967081
 21
13.37674912221837
 31
0.0
  0
LINE
  5
241
330
211
100
AcDbEntity
  8
K-1
  6
ByBlock
 62
     6
100
AcDbLine
 10
-49.8017010675785
 20
126.9999999993774
 30
0.0
 11
-49.80170106758487
 21
137.4999999993811
 31
0.0
  0
LINE
  5
242
330
211
100
AcDbEntity
  8
K-1
  6
ByBlock
 62
     6
100
AcDbLine
 10
28.34501253313101
 20
131.0687286566915
 30
0.0
 11
52.1982989324224
 21
134.7805737254812
 31
0.0
  0
LINE
  5
243
330
211
100
AcDbEntity
  8
K-1
  6
ByBlock
 62
     6
100
AcDbLine
 10
-46.80170106758033
 20
118.9999999993795
 30
0.0
 11
2.19829893241058
 21
118.9999999993756
 31
0.0
  0
ARC
  5
244
330
211
100
AcDbEntity
  8
K-1
  6
ByBlock
 62
     0
370
    25
100
AcDbCircle
 10
-55.80170106758214
 20
114.200000000628
 30
0.0
 40
2.0
100
AcDbArc
 50
179.999999999987
 51
269.9999999999479
  0
CIRCLE
  5
245
330
211
100
AcDbEntity
  8
K-1
  6
ByBlock
 62
     0
100
AcDbCircle
 10
-51.80170106758033
 20
118.9999999993426
 30
0.0
 40
1.25
  0
LINE
  5
246
330
211
100
AcDbEntity
  8
K-1
  6
ByBlock
 62
     6
100
AcDbLine
 10
2.198298932405123
 20
126.9999999993774
 30
0.0
 11
2.19829893241058
 21
118.9999999993752
 31
0.0
  0
LINE
  5
247
330
211
100
AcDbEntity
  8
K-1
  6
ByBlock
 62
     6
100
AcDbLine
 10
20.34153103368135
 20
21.86443976409441
 30
0.0
 11
-26.44541443245453
 21
13.61463893348195
 31
0.0
  0
ARC
  5
248
330
211
100
AcDbEntity
  8
K-1
  6
ByBlock
 62
     6
370
    25
100
AcDbCircle
 10
-35.80170106757942
 20
100.0000000006366
 30
0.0
 40
9.999999999999886
100
AcDbArc
 50
277.7591642306519
 51
79.5390343140601
  0
LINE
  5
249
330
211
100
AcDbEntity
  8
K-1
  6
ByBlock
 62
     6
370
    25
100
AcDbLine
 10
-49.80170106758942
 20
88.00000000062619
 30
0.0
 11
-34.45160693175149
 21
90.0915568421783
 31
0.0
  0
LINE
  5
24A
330
211
100
AcDbEntity
  8
K-1
  6
ByBlock
 62
     6
370
    25
100
AcDbLine
 10
-44.10104027737998
 20
111.7013649695693
 30
0.0
 11
-33.98604492755476
 21
109.833788323617
 31
0.0
  0
ARC
  5
24B
330
211
100
AcDbEntity
  8
K-1
  6
ByBlock
 62
     6
370
    25
100
AcDbCircle
 10
-49.54800869745486
 20
82.20000000062738
 30
0.0
 40
30.0
100
AcDbArc
 50
79.5390343140601
 51
84.74758521865481
  0
ARC
  5
24C
330
211
100
AcDbEntity
  8
K-1
  6
ByBlock
 62
     6
370
    25
100
AcDbCircle
 10
-41.80170106758033
 20
116.3613382312103
 30
0.0
 40
5.0
100
AcDbArc
 50
180.0
 51
259.5390343140601
  0
LWPOLYLINE
  5
24D
330
211
100
AcDbEntity
  8
K-1
  6
ByBlock
 62
     0
370
    25
100
AcDbPolyline
 90
        5
 70
     0
 43
0.0
 10
-46.80170106758033
 20
107.0736942529104
 10
-46.80170106758033
 20
118.9999999993795
 42
0.4142135623708708
 10
-51.80170106758033
 20
123.9999999993415
 10
-55.88649144068949
 20
123.9999999993415
 10
-54.10766833544676
 20
120.9189880033839
  0
ENDBLK
  5
24E
330
211
100
AcDbEntity
  8
0
100
AcDbBlockEnd
  0
BLOCK
  5
126
330
123
100
AcDbEntity
  8
0
 62
     3
370
    25
100
AcDbBlockBegin
  2
吊りフック（15P用)-B
 70
     0
 10
0.0
 20
0.0
 30
0.0
  3
吊りフック（15P用)-B
  1

  0
LINE
  5
127
330
123
100
AcDbEntity
  8
K-1
  6
ByBlock
 62
     0
370
    25
100
AcDbLine
 10
18.99999999993383
 20
-45.00000000000068
 30
0.0
 11
20.59999999993392
 21
-45.00000000000068
 31
0.0
  0
POLYLINE
  5
128
330
123
100
AcDbEntity
  8
K-1
  6
HIDDEN
 62
     3
100
AcDb2dPolyline
 66
     1
 10
0.0
 20
0.0
 30
0.0
  0
VERTEX
  5
12A
330
128
100
AcDbEntity
  8
K-1
  6
HIDDEN
 62
     3
100
AcDbVertex
100
AcDb2dVertex
 10
20.59999999993392
 20
-42.00000000000113
 30
0.0
  0
VERTEX
  5
12B
330
128
100
AcDbEntity
  8
K-1
  6
HIDDEN
 62
     3
100
AcDbVertex
100
AcDb2dVertex
 10
15.99999999993389
 20
-42.00000000000113
 30
0.0
  0
VERTEX
  5
12C
330
128
100
AcDbEntity
  8
K-1
  6
HIDDEN
 62
     3
100
AcDbVertex
100
AcDb2dVertex
 10
15.59999999993391
 20
-41.60000000000059
 30
0.0
  0
VERTEX
  5
12D
330
128
100
AcDbEntity
  8
K-1
  6
HIDDEN
 62
     3
100
AcDbVertex
100
AcDb2dVertex
 10
15.59999999993391
 20
-38.40000000000078
 30
0.0
  0
VERTEX
  5
12E
330
128
100
AcDbEntity
  8
K-1
  6
HIDDEN
 62
     3
100
AcDbVertex
100
AcDb2dVertex
 10
15.99999999993389
 20
-38.00000000000114
 30
0.0
  0
VERTEX
  5
12F
330
128
100
AcDbEntity
  8
K-1
  6
HIDDEN
 62
     3
100
AcDbVertex
100
AcDb2dVertex
 10
20.59999999993392
 20
-38.00000000000114
 30
0.0
  0
SEQEND
  5
130
330
128
100
AcDbEntity
  8
K-1
  6
HIDDEN
 62
     3
  0
POLYLINE
  5
131
330
123
100
AcDbEntity
  8
K-1
  6
HIDDEN
 62
     3
100
AcDb2dPolyline
 66
     1
 10
0.0
 20
0.0
 30
0.0
  0
VERTEX
  5
132
330
131
100
AcDbEntity
  8
K-1
  6
HIDDEN
 62
     3
100
AcDbVertex
100
AcDb2dVertex
 10
20.59999999993392
 20
-41.60000000000059
 30
0.0
  0
VERTEX
  5
133
330
131
100
AcDbEntity
  8
K-1
  6
HIDDEN
 62
     3
100
AcDbVertex
100
AcDb2dVertex
 10
15.59999999993391
 20
-41.60000000000059
 30
0.0
  0
SEQEND
  5
134
330
131
100
AcDbEntity
  8
K-1
  6
HIDDEN
 62
     3
  0
POLYLINE
  5
135
330
123
100
AcDbEntity
  8
K-1
  6
HIDDEN
 62
     3
100
AcDb2dPolyline
 66
     1
 10
0.0
 20
0.0
 30
0.0
  0
VERTEX
  5
136
330
135
100
AcDbEntity
  8
K-1
  6
HIDDEN
 62
     3
100
AcDbVertex
100
AcDb2dVertex
 10
20.59999999993392
 20
-38.40000000000078
 30
0.0
  0
VERTEX
  5
137
330
135
100
AcDbEntity
  8
K-1
  6
HIDDEN
 62
     3
100
AcDbVertex
100
AcDb2dVertex
 10
15.59999999993391
 20
-38.40000000000078
 30
0.0
  0
SEQEND
  5
138
330
135
100
AcDbEntity
  8
K-1
  6
HIDDEN
 62
     3
  0
POLYLINE
  5
139
330
123
100
AcDbEntity
  8
K-1
  6
HIDDEN
 62
     3
100
AcDb2dPolyline
 66
     1
 10
0.0
 20
0.0
 30
0.0
  0
VERTEX
  5
13A
330
139
100
AcDbEntity
  8
K-1
  6
HIDDEN
 62
     3
100
AcDbVertex
100
AcDb2dVertex
 10
15.99999999993389
 20
-38.00000000000114
 30
0.0
  0
VERTEX
  5
13B
330
139
100
AcDbEntity
  8
K-1
  6
HIDDEN
 62
     3
100
AcDbVertex
100
AcDb2dVertex
 10
15.99999999993389
 20
-42.00000000000113
 30
0.0
  0
SEQEND
  5
13C
330
139
100
AcDbEntity
  8
K-1
  6
HIDDEN
 62
     3
  0
INSERT
  5
13D
330
123
100
AcDbEntity
  8
K-1
  6
ByBlock
 62
     6
100
AcDbBlockReference
 66
     1
  2
B04005A
 10
20.59999999993392
 20
-40.00000000000113
 30
0.0
 50
270.0
  0
ATTRIB
  5
151
330
13D
100
AcDbEntity
  8
KIKI
  6
ByBlock
 62
     0
100
AcDbText
 10
22.59999999993392
 20
-38.00000000000114
 30
0.0
 40
0.1
  1
.
 50
270.0
 41
0.8000000000000001
  7
K1
100
AcDbAttribute
  2
M4
 70
    13
  0
SEQEND
  5
152
330
13D
100
AcDbEntity
  8
K-1
  6
ByBlock
 62
     6
  0
LINE
  5
153
330
123
100
AcDbEntity
  8
K-1
  6
ByBlock
 62
     0
370
    25
100
AcDbLine
 10
0.0
 20
11.0
 30
0.0
 11
1.600000000000022
 21
11.0
 31
0.0
  0
LINE
  5
154
330
123
100
AcDbEntity
  8
K-1
  6
ByBlock
 62
     0
370
    25
100
AcDbLine
 10
1.600000000000022
 20
11.0
 30
0.0
 11
1.600000000000022
 21
-13.80466811948963
 31
0.0
  0
ARC
  5
155
330
123
100
AcDbEntity
  8
K-1
  6
ByBlock
 62
     0
370
    25
100
AcDbCircle
 10
4.599999999999909
 20
-13.80466811948963
 30
0.0
 40
3.0
100
AcDbArc
 50
180.0
 51
224.9999999999931
  0
LINE
  5
156
330
123
100
AcDbEntity
  8
K-1
  6
ByBlock
 62
     0
370
    25
100
AcDbLine
 10
1.599999999999965
 20
8.0
 30
0.0
 11
0.0
 21
8.0
 31
0.0
  0
LINE
  5
157
330
123
100
AcDbEntity
  8
K-1
  6
ByBlock
 62
     0
370
    25
100
AcDbLine
 10
1.599999999999965
 20
-8.0
 30
0.0
 11
0.0000000000001137
 21
-8.0
 31
0.0
  0
ARC
  5
158
330
123
100
AcDbEntity
  8
K-1
  6
ByBlock
 62
     0
370
    25
100
AcDbCircle
 10
15.59999999993397
 20
-36.11837661840832
 30
0.0
 40
5.0
100
AcDbArc
 50
0.0
 51
44.99999999999309
  0
LINE
  5
159
330
123
100
AcDbEntity
  8
K-1
  6
ByBlock
 62
     0
370
    25
100
AcDbLine
 10
20.59999999993392
 20
-36.11837661840832
 30
0.0
 11
20.59999999993392
 21
-45.00000000000068
 31
0.0
  0
LINE
  5
15A
330
123
100
AcDbEntity
  8
K-1
  6
ByBlock
 62
     0
370
    25
100
AcDbLine
 10
19.13553390586674
 20
-32.58284271247544
 30
0.0
 11
2.478679656440192
 21
-15.92598846304963
 31
0.0
  0
LINE
  5
15B
330
123
100
AcDbEntity
  8
K-1
  6
ByBlock
 62
     6
370
    25
100
AcDbLine
 10
1.599999999999909
 20
-14.39430185935316
 30
0.0
 11
1.599999999999909
 21
-15.04730880660918
 31
0.0
  0
LINE
  5
15C
330
123
100
AcDbEntity
  8
K-1
  6
ByBlock
 62
     6
370
    25
100
AcDbLine
 10
2.053804521393544
 20
-15.5011133280027
 30
0.0
 11
1.599999999999909
 21
-15.04730880660918
 31
0.0
  0
LINE
  5
15D
330
123
100
AcDbEntity
  8
K-1
  6
HIDDEN
 62
     3
370
    25
100
AcDbLine
 10
20.59999999993392
 20
-42.25000000000068
 30
0.0
 11
18.99999999993383
 21
-42.25000000000068
 31
0.0
  0
LINE
  5
15E
330
123
100
AcDbEntity
  8
K-1
  6
HIDDEN
 62
     3
370
    25
100
AcDbLine
 10
20.59999999993392
 20
-37.75000000000068
 30
0.0
 11
18.99999999993383
 21
-37.75000000000068
 31
0.0
  0
LINE
  5
15F
330
123
100
AcDbEntity
  8
K-1
  6
HIDDEN
 62
     3
370
    25
100
AcDbLine
 10
0.0000000000001137
 20
-7.750000000000682
 30
0.0
 11
1.600000000000022
 21
-7.750000000000682
 31
0.0
  0
LINE
  5
160
330
123
100
AcDbEntity
  8
K-1
  6
HIDDEN
 62
     3
370
    25
100
AcDbLine
 10
0.0000000000001137
 20
-12.25000000000068
 30
0.0
 11
1.600000000000022
 21
-12.25000000000068
 31
0.0
  0
LINE
  5
161
330
123
100
AcDbEntity
  8
K-1
  6
ByBlock
 62
     0
370
    25
100
AcDbLine
 10
-0.0000000000000568
 20
11.0
 30
0.0
 11
0.0000000000000568
 21
-13.63898269454057
 31
0.0
  0
LINE
  5
162
330
123
100
AcDbEntity
  8
K-1
  6
ByBlock
 62
     0
370
    25
100
AcDbLine
 10
18.12132034349344
 20
-33.83137084989903
 30
0.0
 11
1.464466094067347
 21
-17.17451660047345
 31
0.0
  0
LINE
  5
163
330
123
100
AcDbEntity
  8
K-1
  6
ByBlock
 62
     0
370
    25
100
AcDbLine
 10
18.99999999993383
 20
-35.95269119345881
 30
0.0
 11
18.99999999993389
 21
-45.00000000000068
 31
0.0
  0
ARC
  5
164
330
123
100
AcDbEntity
  8
K-1
  6
ByBlock
 62
     0
370
    25
100
AcDbCircle
 10
5.000000000000056
 20
-13.63898269454057
 30
0.0
 40
5.0
100
AcDbArc
 50
180.0
 51
224.9999999999931
  0
ARC
  5
165
330
123
100
AcDbEntity
  8
K-1
  6
ByBlock
 62
     0
370
    25
100
AcDbCircle
 10
15.99999999993383
 20
-35.95269119345881
 30
0.0
 40
3.0
100
AcDbArc
 50
0.0
 51
44.99999999999309
  0
ENDBLK
  5
166
330
123
100
AcDbEntity
  8
0
 62
     3
370
    25
100
AcDbBlockEnd
  0
BLOCK
  5
17D
330
17A
100
AcDbEntity
  8
0
 62
     0
100
AcDbBlockBegin
  2
HFT-015M50-P1_側面図-A
 70
     0
 10
0.0
 20
0.0
 30
0.0
  3
HFT-015M50-P1_側面図-A
  1

  0
LINE
  5
17E
330
17A
100
AcDbEntity
  8
K-1
  6
ByBlock
 62
     0
100
AcDbLine
 10
79.0
 20
21.99999999875036
 30
0.0
 11
-20.50000000000046
 21
21.99999999875036
 31
0.0
  0
LINE
  5
17F
330
17A
100
AcDbEntity
  8
K-1
  6
ByBlock
 62
     0
100
AcDbLine
 10
-20.50000000000046
 20
21.99999999875036
 30
0.0
 11
-21.00000000000045
 21
21.49999999875035
 31
0.0
  0
LINE
  5
180
330
17A
100
AcDbEntity
  8
K-1
  6
ByBlock
 62
     0
100
AcDbLine
 10
-21.00000000000045
 20
21.49999999875035
 30
0.0
 11
-21.00000000000091
 21
-14.50000000124373
 31
0.0
  0
LINE
  5
181
330
17A
100
AcDbEntity
  8
K-1
  6
ByBlock
 62
     0
100
AcDbLine
 10
-21.00000000000045
 20
20.99999999875081
 30
0.0
 11
-22.00000000000045
 21
20.99999999875081
 31
0.0
  0
LINE
  5
182
330
17A
100
AcDbEntity
  8
K-1
  6
CENTER
 62
     2
100
AcDbLine
 10
-0.0000000000004547
 20
27.46762846824413
 30
0.0
 11
0.0
 21
-0.0000000012485089
 31
0.0
  0
LINE
  5
183
330
17A
100
AcDbEntity
  8
K-1
  6
HIDDEN
 62
     3
370
    25
100
AcDbLine
 10
-106.7500000000004
 20
-3.358757211884949
 30
0.0
 11
-106.7500000000004
 21
3.358757209387704
 31
0.0
  0
LINE
  5
184
330
17A
100
AcDbEntity
  8
K-1
  6
HIDDEN
 62
     3
370
    25
100
AcDbLine
 10
-110.2500000000004
 20
-3.358757211884949
 30
0.0
 11
-110.2500000000004
 21
3.358757209387704
 31
0.0
  0
LINE
  5
185
330
17A
100
AcDbEntity
  8
K-1
  6
ByBlock
 62
     0
100
AcDbLine
 10
-113.2783121635134
 20
-5.750000001248508
 30
0.0
 11
-114.0000000000004
 21
-4.500000001248508
 31
0.0
  0
LINE
  5
186
330
17A
100
AcDbEntity
  8
K-1
  6
ByBlock
 62
     0
100
AcDbLine
 10
-114.0000000000004
 20
-4.500000001248508
 30
0.0
 11
-114.0000000000004
 21
4.499999998751491
 31
0.0
  0
LINE
  5
187
330
17A
100
AcDbEntity
  8
K-1
  6
ByBlock
 62
     0
100
AcDbLine
 10
-113.2783121635134
 20
-0.7667020427186344
 30
0.0
 11
-113.2783121635134
 21
0.7667020402213894
 31
0.0
  0
LINE
  5
188
330
17A
100
AcDbEntity
  8
K-1
  6
ByBlock
 62
     0
100
AcDbLine
 10
-113.2783121635134
 20
-0.7667020427186344
 30
0.0
 11
-103.0000000000004
 21
-0.7667020427186344
 31
0.0
  0
LINE
  5
189
330
17A
100
AcDbEntity
  8
K-1
  6
ByBlock
 62
     0
100
AcDbLine
 10
-103.0000000000004
 20
-0.7667020427186344
 30
0.0
 11
-103.0000000000004
 21
-5.750000001248508
 31
0.0
  0
LINE
  5
18A
330
17A
100
AcDbEntity
  8
K-1
  6
ByBlock
 62
     0
100
AcDbLine
 10
-113.2783121635134
 20
0.7667020402213894
 30
0.0
 11
-103.0000000000004
 21
0.7667020402213894
 31
0.0
  0
LINE
  5
18B
330
17A
100
AcDbEntity
  8
K-1
  6
ByBlock
 62
     0
100
AcDbLine
 10
-103.0000000000004
 20
0.7667020402213894
 30
0.0
 11
-103.0000000000004
 21
5.749999998751491
 31
0.0
  0
LINE
  5
18C
330
17A
100
AcDbEntity
  8
K-1
  6
ByBlock
 62
     0
100
AcDbLine
 10
-102.7500000000004
 20
-6.000000001248508
 30
0.0
 11
-93.00000000000045
 21
-6.000000001248736
 31
0.0
  0
LINE
  5
18D
330
17A
100
AcDbEntity
  8
K-1
  6
ByBlock
 62
     0
370
    25
100
AcDbLine
 10
-103.0000000000004
 20
-5.750000001248508
 30
0.0
 11
-113.2783121635134
 21
-5.750000001248508
 31
0.0
  0
LINE
  5
18E
330
17A
100
AcDbEntity
  8
K-1
  6
ByBlock
 62
     0
100
AcDbLine
 10
-102.7500000000004
 20
-6.000000001248508
 30
0.0
 11
-103.0000000000004
 21
-5.750000001248508
 31
0.0
  0
ARC
  5
18F
330
17A
100
AcDbEntity
  8
K-1
  6
ByBlock
 62
     0
100
AcDbCircle
 10
-108.1904291087553
 20
-3.258351021983799
 30
0.0
 40
5.66523332394777
100
AcDbArc
 50
153.907985225521
 51
206.0920147744933
  0
LINE
  5
190
330
17A
100
AcDbEntity
  8
K-1
  6
ByBlock
 62
     0
370
    25
100
AcDbLine
 10
-103.0000000000004
 20
5.749999998751491
 30
0.0
 11
-113.2783121635134
 21
5.749999998751491
 31
0.0
  0
LINE
  5
191
330
17A
100
AcDbEntity
  8
K-1
  6
ByBlock
 62
     0
100
AcDbLine
 10
-102.7500000000004
 20
5.999999998751491
 30
0.0
 11
-103.0000000000004
 21
5.749999998751491
 31
0.0
  0
ARC
  5
192
330
17A
100
AcDbEntity
  8
K-1
  6
ByBlock
 62
     0
100
AcDbCircle
 10
-108.1904291087553
 20
3.258351019486553
 30
0.0
 40
5.66523332394777
100
AcDbArc
 50
153.9079852255067
 51
206.092014774479
  0
LINE
  5
193
330
17A
100
AcDbEntity
  8
K-1
  6
ByBlock
 62
     0
100
AcDbLine
 10
-113.2783121635134
 20
5.749999998751491
 30
0.0
 11
-114.0000000000004
 21
4.499999998751491
 31
0.0
  0
LINE
  5
194
330
17A
100
AcDbEntity
  8
K-1
  6
ByBlock
 62
     0
100
AcDbLine
 10
-102.7500000000004
 20
5.999999998751491
 30
0.0
 11
-92.99999999999954
 21
5.999999998751491
 31
0.0
  0
LINE
  5
195
330
17A
100
AcDbEntity
  8
K-1
  6
ByBlock
 62
     6
100
AcDbLine
 10
-102.7500000000004
 20
-6.000000001248508
 30
0.0
 11
-102.7500000000004
 21
5.999999998751491
 31
0.0
  0
LINE
  5
196
330
17A
100
AcDbEntity
  8
K-1
  6
ByBlock
 62
     6
100
AcDbLine
 10
-113.2783121635134
 20
-0.7667020427186344
 30
0.0
 11
-109.7371762556099
 21
-2.483572970552131
 31
0.0
  0
LINE
  5
197
330
17A
100
AcDbEntity
  8
K-1
  6
ByBlock
 62
     6
100
AcDbLine
 10
-106.8995836510948
 20
-3.859340626589755
 30
0.0
 11
-103.0000000000004
 21
-5.750000001248508
 31
0.0
  0
LINE
  5
198
330
17A
100
AcDbEntity
  8
K-1
  6
ByBlock
 62
     6
100
AcDbLine
 10
-103.0000000000004
 20
-0.7667020427186344
 30
0.0
 11
-107.0093038768764
 21
-2.71055775627633
 31
0.0
  0
LINE
  5
199
330
17A
100
AcDbEntity
  8
K-1
  6
ByBlock
 62
     6
100
AcDbLine
 10
-109.8923603881198
 20
-4.108367960739087
 30
0.0
 11
-113.2783121635125
 21
-5.750000001251009
 31
0.0
  0
ELLIPSE
  5
19A
330
17A
100
AcDbEntity
  8
K-1
  6
ByBlock
 62
     0
100
AcDbEllipse
 10
-108.5000000000004
 20
-3.358757211884949
 30
0.0
 11
-1.75
 21
0.0
 31
0.0
210
0.0
220
0.0
230
-1.0
 40
0.7071067811863421
 41
0.0
 42
6.283185307179586
  0
ELLIPSE
  5
19B
330
17A
100
AcDbEntity
  8
K-1
  6
HIDDEN
 62
     3
100
AcDbEllipse
 10
-108.5000000000004
 20
3.358757209387704
 30
0.0
 11
-1.75
 21
0.0
 31
0.0
210
0.0
220
0.0
230
1.0
 40
0.7071067811863421
 41
0.0
 42
6.283185307179586
  0
LINE
  5
19C
330
17A
100
AcDbEntity
  8
K-1
  6
ByBlock
 62
     6
100
AcDbLine
 10
-113.2783121635134
 20
0.7667020402216167
 30
0.0
 11
-103.0000000000004
 21
5.749999998751491
 31
0.0
  0
LINE
  5
19D
330
17A
100
AcDbEntity
  8
K-1
  6
ByBlock
 62
     6
100
AcDbLine
 10
-103.0000000000004
 20
0.7667020402216167
 30
0.0
 11
-113.2783121635125
 21
5.749999998753764
 31
0.0
  0
LINE
  5
19E
330
17A
100
AcDbEntity
  8
K-1
  6
ByBlock
 62
     0
100
AcDbLine
 10
-21.99999999999954
 20
-14.50000000124964
 30
0.0
 11
-21.99999999999954
 21
21.59999999875004
 31
0.0
  0
LINE
  5
19F
330
17A
100
AcDbEntity
  8
K-1
  6
ByBlock
 62
     0
370
    25
100
AcDbLine
 10
-33.83506425633687
 20
21.89999999875022
 30
0.0
 11
-22.29999999999973
 21
21.89999999874999
 31
0.0
  0
LINE
  5
1A0
330
17A
100
AcDbEntity
  8
K-1
  6
HIDDEN
 62
     3
370
    25
100
AcDbLine
 10
-45.05000000000018
 20
19.10165265836758
 30
0.0
 11
-45.05000000000018
 21
16.99999999875035
 31
0.0
  0
LINE
  5
1A1
330
17A
100
AcDbEntity
  8
K-1
  6
HIDDEN
 62
     3
370
    25
100
AcDbLine
 10
-40.94999999999981
 20
20.59393061885885
 30
0.0
 11
-40.94999999999981
 21
16.99999999875035
 31
0.0
  0
LINE
  5
1A2
330
17A
100
AcDbEntity
  8
K-1
  6
HIDDEN
 62
     3
370
    25
100
AcDbLine
 10
-40.94999999999981
 20
16.99999999875035
 30
0.0
 11
-45.05000000000018
 21
16.99999999875035
 31
0.0
  0
LINE
  5
1A3
330
17A
100
AcDbEntity
  8
K-1
  6
ByBlock
 62
     0
370
    25
100
AcDbLine
 10
-50.00000000000046
 20
-16.59979246303965
 30
0.0
 11
-50.0
 21
17.29999999875053
 31
0.0
  0
LINE
  5
1A4
330
17A
100
AcDbEntity
  8
K-1
  6
ByBlock
 62
     0
370
    25
100
AcDbLine
 10
-40.67546712284911
 20
20.69385241446912
 30
0.0
 11
-50.0
 21
17.29999999875053
 31
0.0
  0
ARC
  5
1A5
330
17A
100
AcDbEntity
  8
K-1
  6
ByBlock
 62
     0
370
    25
100
AcDbCircle
 10
-49.0
 20
16.59979246054081
 30
0.0
 40
1.0
100
AcDbArc
 50
109.999999999989
 51
180.0
  0
ARC
  5
1A6
330
17A
100
AcDbEntity
  8
K-1
  6
ByBlock
 62
     0
370
    25
100
AcDbCircle
 10
-33.83506425633732
 20
1.899999998750445
 30
0.0
 40
20.0
100
AcDbArc
 50
90.0
 51
109.999999999989
  0
LINE
  5
1A7
330
17A
100
AcDbEntity
  8
K-1
  6
ByBlock
 62
     0
370
    25
100
AcDbLine
 10
-33.83506425633641
 20
-21.90000000124928
 30
0.0
 11
-30.99999999999818
 21
-21.90000000125861
 31
0.0
  0
LINE
  5
1A8
330
17A
100
AcDbEntity
  8
K-1
  6
HIDDEN
 62
     3
370
    25
100
AcDbLine
 10
-45.05000000000018
 20
-19.10165266086664
 30
0.0
 11
-45.05000000000018
 21
-17.00000000124942
 31
0.0
  0
LINE
  5
1A9
330
17A
100
AcDbEntity
  8
K-1
  6
HIDDEN
 62
     3
370
    25
100
AcDbLine
 10
-40.94999999999981
 20
-20.59393062135769
 30
0.0
 11
-40.94999999999981
 21
-17.00000000124942
 31
0.0
  0
LINE
  5
1AA
330
17A
100
AcDbEntity
  8
K-1
  6
HIDDEN
 62
     3
370
    25
100
AcDbLine
 10
-40.94999999999981
 20
-17.00000000124942
 30
0.0
 11
-45.05000000000018
 21
-17.00000000124942
 31
0.0
  0
LINE
  5
1AB
330
17A
100
AcDbEntity
  8
K-1
  6
ByBlock
 62
     0
370
    25
100
AcDbLine
 10
-40.67546712284911
 20
-20.69385241696819
 30
0.0
 11
-49.34202014332595
 21
-17.53948508382564
 31
0.0
  0
ARC
  5
1AC
330
17A
100
AcDbEntity
  8
K-1
  6
ByBlock
 62
     0
370
    25
100
AcDbCircle
 10
-49.00000000000045
 20
-16.59979246303965
 30
0.0
 40
1.0
100
AcDbArc
 50
180.0
 51
250.0000000000109
  0
ARC
  5
1AD
330
17A
100
AcDbEntity
  8
K-1
  6
ByBlock
 62
     0
370
    25
100
AcDbCircle
 10
-33.83506425633732
 20
-1.900000001249281
 30
0.0
 40
20.0
100
AcDbArc
 50
250.0000000000109
 51
270.0
  0
ARC
  5
1AE
330
17A
100
AcDbEntity
  8
K-1
  6
ByBlock
 62
     0
370
    25
100
AcDbCircle
 10
-22.29999999999973
 20
21.59999999875004
 30
0.0
 40
0.3
100
AcDbArc
 50
0.0
 51
90.0
  0
LINE
  5
1AF
330
17A
100
AcDbEntity
  8
K-1
  6
ByBlock
 62
     0
100
AcDbLine
 10
78.99999999999909
 20
-20.60000000124933
 30
0.0
 11
78.99999999999955
 21
-24.00000000125078
 31
0.0
  0
LINE
  5
1B0
330
17A
100
AcDbEntity
  8
K-1
  6
CENTER
 62
     2
100
AcDbLine
 10
27.70339214180277
 20
-157.1137441967155
 30
0.0
 11
0.0
 21
-0.0000000012494183
 31
0.0
  0
LINE
  5
1B1
330
17A
100
AcDbEntity
  8
K-1
  6
ByBlock
 62
     0
100
AcDbLine
 10
-92.9999999999991
 20
-12.30000000124983
 30
0.0
 11
-93.00000000000091
 21
12.29999999875122
 31
0.0
  0
LINE
  5
1B2
330
17A
100
AcDbEntity
  8
K-1
  6
ByBlock
 62
     0
100
AcDbLine
 10
-89.25735931288182
 20
14.79999999875144
 30
0.0
 11
-79.29999999999927
 21
14.79999999875031
 31
0.0
  0
ARC
  5
1B3
330
17A
100
AcDbEntity
  8
K-1
  6
ByBlock
 62
     0
100
AcDbCircle
 10
-79.29999999999927
 20
14.49999999875035
 30
0.0
 40
0.3
100
AcDbArc
 50
359.9999999997394
 51
90.0
  0
LINE
  5
1B4
330
17A
100
AcDbEntity
  8
K-1
  6
ByBlock
 62
     0
100
AcDbLine
 10
-78.99999999999909
 20
14.49999999874899
 30
0.0
 11
-78.99999999999909
 21
-14.50000000124805
 31
0.0
  0
LINE
  5
1B5
330
17A
100
AcDbEntity
  8
K-1
  6
ByBlock
 62
     0
100
AcDbLine
 10
-91.37867965644137
 20
13.92132034231099
 30
0.0
 11
-93.00000000000091
 21
12.29999999875122
 31
0.0
  0
ARC
  5
1B6
330
17A
100
AcDbEntity
  8
K-1
  6
ByBlock
 62
     0
100
AcDbCircle
 10
-89.25735931288182
 20
11.79999999875144
 30
0.0
 40
3.0
100
AcDbArc
 50
90.0
 51
135.0000000000088
  0
LINE
  5
1B7
330
17A
100
AcDbEntity
  8
K-1
  6
ByBlock
 62
     0
100
AcDbLine
 10
-89.25735931288135
 20
-14.80000000124823
 30
0.0
 11
-79.29999999999927
 21
-14.80000000124937
 31
0.0
  0
ARC
  5
1B8
330
17A
100
AcDbEntity
  8
K-1
  6
ByBlock
 62
     0
100
AcDbCircle
 10
-79.29999999999927
 20
-14.50000000124942
 30
0.0
 40
0.3
100
AcDbArc
 50
270.0
 51
0.000000000260551
  0
LINE
  5
1B9
330
17A
100
AcDbEntity
  8
K-1
  6
ByBlock
 62
     0
100
AcDbLine
 10
-91.37867965644137
 20
-13.92132034480778
 30
0.0
 11
-92.9999999999991
 21
-12.30000000124983
 31
0.0
  0
ARC
  5
1BA
330
17A
100
AcDbEntity
  8
K-1
  6
ByBlock
 62
     0
100
AcDbCircle
 10
-89.25735931288135
 20
-11.80000000124823
 30
0.0
 40
3.0
100
AcDbArc
 50
224.9999999999912
 51
270.0
  0
LINE
  5
1BB
330
17A
100
AcDbEntity
  8
K-1
  6
ByBlock
100
AcDbLine
 10
78.99999999999545
 20
-24.00000000124715
 30
0.0
 11
78.99999999999682
 21
-31.64734603982947
 31
0.0
  0
LINE
  5
1BC
330
17A
100
AcDbEntity
  8
K-1
  6
ByBlock
 62
     6
100
AcDbLine
 10
78.99999999999545
 20
-24.00000000124715
 30
0.0
 11
78.99999999998454
 21
-15.00000000124441
 31
0.0
  0
ARC
  5
1BD
330
17A
100
AcDbEntity
  8
K-1
  6
ByBlock
 62
     6
370
    25
100
AcDbCircle
 10
78.49999999998726
 20
-15.00000000124328
 30
0.0
 40
0.5
100
AcDbArc
 50
0.0000000000521102
 51
90.0
  0
LINE
  5
1BE
330
17A
100
AcDbEntity
  8
K-1
  6
CENTER
 62
     2
100
AcDbLine
 10
-10.49493346374629
 20
-51.99999999999909
 30
0.0
 11
-34.8739944746867
 21
-51.99999999999909
 31
0.0
  0
LINE
  5
1BF
330
17A
100
AcDbEntity
  8
K-1
  6
ByBlock
 62
     6
100
AcDbLine
 10
-32.01724650762071
 20
-64.0
 30
0.0
 11
-23.00000000000955
 21
-64.0
 31
0.0
  0
LINE
  5
1C0
330
17A
100
AcDbEntity
  8
K-1
  6
ByBlock
 62
     6
100
AcDbLine
 10
-32.01724650762071
 20
-40.0
 30
0.0
 11
-27.68629150102197
 21
-40.0
 31
0.0
  0
ARC
  5
1C1
330
17A
100
AcDbEntity
  8
K-1
  6
ByBlock
 62
     6
100
AcDbCircle
 10
-60.99999999999955
 20
-52.00000000000023
 30
0.0
 40
30.0
100
AcDbArc
 50
339.2164404041182
 51
20.78355959588176
  0
ARC
  5
1C2
330
17A
100
AcDbEntity
  8
K-1
  6
ByBlock
 62
     6
100
AcDbCircle
 10
-32.01724650762071
 20
-63.0
 30
0.0
 40
1.0
100
AcDbArc
 50
159.2164404041182
 51
270.0
  0
ARC
  5
1C3
330
17A
100
AcDbEntity
  8
K-1
  6
ByBlock
 62
     6
100
AcDbCircle
 10
-32.01724650762071
 20
-41.0
 30
0.0
 40
1.0
100
AcDbArc
 50
90.0
 51
200.7835595958818
  0
CIRCLE
  5
1C4
330
17A
100
AcDbEntity
  8
K-1
  6
ByBlock
 62
     6
100
AcDbCircle
 10
-5.000000000000454
 20
11.9999999987499
 30
0.0
 40
2.0
  0
CIRCLE
  5
1C5
330
17A
100
AcDbEntity
  8
K-1
  6
ByBlock
 62
     0
100
AcDbCircle
 10
-5.000000000000454
 20
11.9999999987499
 30
0.0
 40
1.6
  0
CIRCLE
  5
1C6
330
17A
100
AcDbEntity
  8
K-1
  6
ByBlock
 62
     6
100
AcDbCircle
 10
35.0
 20
11.9999999987499
 30
0.0
 40
2.0
  0
CIRCLE
  5
1C7
330
17A
100
AcDbEntity
  8
K-1
  6
ByBlock
 62
     0
100
AcDbCircle
 10
35.0
 20
11.9999999987499
 30
0.0
 40
1.6
  0
CIRCLE
  5
1C8
330
17A
100
AcDbEntity
  8
K-1
  6
ByBlock
 62
     6
100
AcDbCircle
 10
14.99999999999954
 20
11.9999999987499
 30
0.0
 40
2.0
  0
CIRCLE
  5
1C9
330
17A
100
AcDbEntity
  8
K-1
  6
ByBlock
 62
     0
100
AcDbCircle
 10
14.99999999999954
 20
11.9999999987499
 30
0.0
 40
1.6
  0
LINE
  5
1CA
330
17A
100
AcDbEntity
  8
K-1
  6
HIDDEN
 62
     3
100
AcDbLine
 10
90.03345836994958
 20
-22.74851642265867
 30
0.0
 11
81.9999999999959
 21
-22.75000000125761
 31
0.0
  0
LINE
  5
1CB
330
17A
100
AcDbEntity
  8
K-1
  6
HIDDEN
 62
     3
100
AcDbLine
 10
81.9999999999959
 20
-22.75000000125761
 30
0.0
 11
81.9999999999959
 21
-16.2500000012576
 31
0.0
  0
LINE
  5
1CC
330
17A
100
AcDbEntity
  8
K-1
  6
HIDDEN
 62
     3
100
AcDbLine
 10
81.9999999999959
 20
-16.2500000012576
 30
0.0
 11
95.53157316087164
 21
-16.2500000012576
 31
0.0
  0
ARC
  5
1CD
330
17A
100
AcDbEntity
  8
K-1
  6
ByBlock
 62
     0
100
AcDbCircle
 10
101.0
 20
15.87101018545695
 30
0.0
 40
3.0
100
AcDbArc
 50
0.0
 51
90.0
  0
LINE
  5
1CE
330
17A
100
AcDbEntity
  8
K-1
  6
PHANTOM
 62
     5
100
AcDbLine
 10
101.0
 20
18.87101018545695
 30
0.0
 11
88.99999999999909
 21
18.87101018545672
 31
0.0
  0
LINE
  5
1CF
330
17A
100
AcDbEntity
  8
K-1
  6
ByBlock
 62
     0
100
AcDbLine
 10
88.99999999999909
 20
18.87101018545672
 30
0.0
 11
88.99999999999909
 21
16.37101018545718
 31
0.0
  0
LINE
  5
1D0
330
17A
100
AcDbEntity
  8
K-1
  6
ByBlock
 62
     0
100
AcDbLine
 10
88.99999999999909
 20
16.37101018545718
 30
0.0
 11
101.0
 21
16.37101018545741
 31
0.0
  0
ARC
  5
1D1
330
17A
100
AcDbEntity
  8
K-1
  6
ByBlock
 62
     0
100
AcDbCircle
 10
101.0
 20
13.37101018545741
 30
0.0
 40
3.0
100
AcDbArc
 50
28.95502437186087
 51
90.0
  0
ARC
  5
1D2
330
17A
100
AcDbEntity
  8
K-1
  6
ByBlock
 62
     0
100
AcDbCircle
 10
103.8000000000002
 20
14.92020352394047
 30
0.0
 40
0.2
100
AcDbArc
 50
208.9550243718606
 51
0.0
  0
LWPOLYLINE
  5
1D3
330
17A
100
AcDbEntity
  8
K-1
  6
ByBlock
 62
     0
370
    25
100
AcDbPolyline
 90
        6
 70
     1
 43
0.0
 10
-15.0
 20
10.9999999987499
 42
0.4142135623730816
 10
-10.0
 20
5.999999998749899
 10
40.0
 20
5.999999998749899
 42
0.4142135623730886
 10
45.0
 20
10.9999999987499
 10
45.0
 20
14.66287829745169
 10
-15.00000000000045
 20
14.66287829745169
  0
LINE
  5
1D4
330
17A
100
AcDbEntity
  8
K-1
  6
ByBlock
 62
     0
100
AcDbLine
 10
79.00000000000182
 20
21.99999999851275
 30
0.0
 11
81.00000000000182
 21
21.99999999851275
 31
0.0
  0
LINE
  5
1D5
330
17A
100
AcDbEntity
  8
K-1
  6
ByBlock
 62
     0
100
AcDbLine
 10
104.0000000000018
 20
17.49999999851343
 30
0.0
 11
104.0000000000009
 21
-18.59402182306485
 31
0.0
  0
ARC
  5
1D6
330
17A
100
AcDbEntity
  8
K-1
  6
ByBlock
 62
     0
100
AcDbCircle
 10
101.0000000000009
 20
-18.59402182306462
 30
0.0
 40
3.0
100
AcDbArc
 50
295.1422822816186
 51
0.0
  0
LINE
  5
1D7
330
17A
100
AcDbEntity
  8
K-1
  6
ByBlock
 62
     6
100
AcDbLine
 10
100.5000000000009
 20
17.99999999851366
 30
0.0
 11
89.0000000000009
 21
17.9999999985132
 31
0.0
  0
LINE
  5
1D8
330
17A
100
AcDbEntity
  8
K-1
  6
ByBlock
 62
     0
100
AcDbLine
 10
101.0000000000018
 20
20.49999999851366
 30
0.0
 11
83.00000000000181
 21
20.4999999985132
 31
0.0
  0
ARC
  5
1D9
330
17A
100
AcDbEntity
  8
K-1
  6
ByBlock
 62
     0
100
AcDbCircle
 10
101.0000000000018
 20
17.49999999851366
 30
0.0
 40
3.0
100
AcDbArc
 50
0.0
 51
90.0
  0
ARC
  5
1DA
330
17A
100
AcDbEntity
  8
K-1
  6
ByBlock
 62
     0
100
AcDbCircle
 10
101.0000000000018
 20
15.87101018545672
 30
0.0
 40
3.0
100
AcDbArc
 50
0.0
 51
90.0
  0
ARC
  5
1DB
330
17A
100
AcDbEntity
  8
K-1
  6
ByBlock
 62
     6
100
AcDbCircle
 10
100.5000000000009
 20
17.49999999851366
 30
0.0
 40
0.5
100
AcDbArc
 50
0.0
 51
90.0
  0
LINE
  5
1DC
330
17A
100
AcDbEntity
  8
K-1
  6
ByBlock
 62
     0
370
    25
100
AcDbLine
 10
83.00000000000181
 20
20.4999999985132
 30
0.0
 11
81.00000000000182
 21
21.99999999851275
 31
0.0
  0
LINE
  5
1DD
330
17A
100
AcDbEntity
  8
K-1
  6
ByBlock
 62
     0
370
    25
100
AcDbLine
 10
81.00000000000273
 20
-31.29469207865282
 30
0.0
 11
79.00000000000273
 21
-31.64734604006981
 31
0.0
  0
LINE
  5
1DE
330
17A
100
AcDbEntity
  8
K-1
  6
ByBlock
 62
     0
100
AcDbLine
 10
79.00000000000182
 20
21.99999999851275
 30
0.0
 11
79.00000000000182
 21
-31.64734604006981
 31
0.0
  0
LINE
  5
1DF
330
17A
100
AcDbEntity
  8
K-1
  6
HIDDEN
 62
     3
100
AcDbLine
 10
82.00000000000182
 20
-17.80000000125255
 30
0.0
 11
79.00000000000182
 21
-17.80000000125255
 31
0.0
  0
LINE
  5
1E0
330
17A
100
AcDbEntity
  8
K-1
  6
HIDDEN
 62
     3
100
AcDbLine
 10
82.00000000000182
 20
-21.20000000125265
 30
0.0
 11
79.00000000000182
 21
-21.20000000125265
 31
0.0
  0
LINE
  5
1E1
330
17A
100
AcDbEntity
  8
K-1
  6
ByBlock
 62
     0
370
    25
100
AcDbLine
 10
81.00000000000273
 20
21.99999999851275
 30
0.0
 11
81.00000000000273
 21
-31.29469207865282
 31
0.0
  0
LINE
  5
1E2
330
17A
100
AcDbEntity
  8
K-1
  6
ByBlock
 62
     0
100
AcDbLine
 10
81.00000000000273
 20
-10.89724736007565
 30
0.0
 11
79.00000000000182
 21
-10.89724736007565
 31
0.0
  0
LINE
  5
1E3
330
17A
100
AcDbEntity
  8
K-1
  6
ByBlock
 62
     0
100
AcDbLine
 10
81.00000000000273
 20
-14.30908802249178
 30
0.0
 11
79.00000000000182
 21
-14.30908802249178
 31
0.0
  0
LINE
  5
1E4
330
17A
100
AcDbEntity
  8
K-1
  6
ByBlock
 62
     0
100
AcDbLine
 10
81.00000000000273
 20
-17.57208023655994
 30
0.0
 11
79.00000000000182
 21
-17.57208023655994
 31
0.0
  0
LINE
  5
1E5
330
17A
100
AcDbEntity
  8
K-1
  6
ByBlock
 62
     0
100
AcDbLine
 10
102.2746027558487
 20
-21.30978834741654
 30
0.0
 11
81.00000000000273
 21
-31.29469207865282
 31
0.0
  0
LINE
  5
1E6
330
17A
100
AcDbEntity
  8
K-1
  6
ByBlock
 62
     6
100
AcDbLine
 10
83.00000000000181
 20
20.4999999985132
 30
0.0
 11
83.00000000000181
 21
-0.0000000012494183
 31
0.0
  0
LINE
  5
1E7
330
17A
100
AcDbEntity
  8
K-1
  6
ByBlock
 62
     6
100
AcDbLine
 10
101.0000000000009
 20
17.49999999851366
 30
0.0
 11
101.0000000000018
 21
16.37101018545718
 31
0.0
  0
LINE
  5
1E8
330
17A
100
AcDbEntity
  8
K-1
  6
ByBlock
 62
     0
100
AcDbLine
 10
101.0000000000018
 20
18.87101018545672
 30
0.0
 11
89.0000000000009
 21
18.87101018545672
 31
0.0
  0
LINE
  5
1E9
330
17A
100
AcDbEntity
  8
K-1
  6
ByBlock
 62
     0
100
AcDbLine
 10
89.0000000000009
 20
18.87101018545672
 30
0.0
 11
89.0000000000009
 21
16.37101018545718
 31
0.0
  0
LINE
  5
1EA
330
17A
100
AcDbEntity
  8
K-1
  6
ByBlock
 62
     0
100
AcDbLine
 10
89.0000000000009
 20
16.37101018545718
 30
0.0
 11
101.0000000000018
 21
16.37101018545718
 31
0.0
  0
LINE
  5
1EB
330
17A
100
AcDbEntity
  8
K-1
  6
ByBlock
 62
     0
100
AcDbLine
 10
101.0000000000018
 20
13.71843409510711
 30
0.0
 11
89.0000000000009
 21
13.71843409510688
 31
0.0
  0
LINE
  5
1EC
330
17A
100
AcDbEntity
  8
K-1
  6
ByBlock
 62
     0
100
AcDbLine
 10
89.0000000000009
 20
13.71843409510688
 30
0.0
 11
89.0000000000009
 21
9.622673873661142
 31
0.0
  0
LINE
  5
1ED
330
17A
100
AcDbEntity
  8
K-1
  6
ByBlock
 62
     0
100
AcDbLine
 10
89.0000000000009
 20
9.622673873661142
 30
0.0
 11
101.0000000000009
 21
9.622673873661597
 31
0.0
  0
LINE
  5
1EE
330
17A
100
AcDbEntity
  8
K-1
  6
ByBlock
 62
     0
100
AcDbLine
 10
101.0000000000009
 20
5.995237106998047
 30
0.0
 11
89.0000000000009
 21
5.995237106998047
 31
0.0
  0
LINE
  5
1EF
330
17A
100
AcDbEntity
  8
K-1
  6
ByBlock
 62
     0
100
AcDbLine
 10
89.0000000000009
 20
5.995237106998047
 30
0.0
 11
89.0000000000009
 21
1.07119834193736
 31
0.0
  0
LINE
  5
1F0
330
17A
100
AcDbEntity
  8
K-1
  6
ByBlock
 62
     0
100
AcDbLine
 10
89.0000000000009
 20
1.07119834193736
 30
0.0
 11
101.0000000000009
 21
1.07119834193736
 31
0.0
  0
LINE
  5
1F1
330
17A
100
AcDbEntity
  8
K-1
  6
ByBlock
 62
     0
100
AcDbLine
 10
101.0000000000018
 20
-2.851373944934948
 30
0.0
 11
89.0000000000009
 21
-2.851373944934948
 31
0.0
  0
LINE
  5
1F2
330
17A
100
AcDbEntity
  8
K-1
  6
ByBlock
 62
     0
100
AcDbLine
 10
89.0000000000009
 20
-2.851373944934948
 30
0.0
 11
89.0000000000009
 21
-7.681003076379965
 31
0.0
  0
LINE
  5
1F3
330
17A
100
AcDbEntity
  8
K-1
  6
ByBlock
 62
     0
100
AcDbLine
 10
89.0000000000009
 20
-7.681003076379965
 30
0.0
 11
101.0000000000018
 21
-7.681003076379965
 31
0.0
  0
ARC
  5
1F4
330
17A
100
AcDbEntity
  8
K-1
  6
ByBlock
 62
     0
100
AcDbCircle
 10
101.0000000000018
 20
13.37101018545718
 30
0.0
 40
3.0
100
AcDbArc
 50
28.95502437186087
 51
90.0
  0
ARC
  5
1F5
330
17A
100
AcDbEntity
  8
K-1
  6
ByBlock
 62
     0
100
AcDbCircle
 10
103.800000000002
 20
14.92020352394024
 30
0.0
 40
0.2
100
AcDbArc
 50
208.9550243718606
 51
0.0
  0
LINE
  5
1F6
330
17A
100
AcDbEntity
  8
K-1
  6
ByBlock
 62
     6
100
AcDbLine
 10
101.0000000000009
 20
13.71843409510711
 30
0.0
 11
101.0000000000009
 21
9.622673873661597
 31
0.0
  0
LINE
  5
1F7
330
17A
100
AcDbEntity
  8
K-1
  6
ByBlock
 62
     6
100
AcDbLine
 10
101.0000000000009
 20
5.995237106998047
 30
0.0
 11
101.0000000000009
 21
1.07119834193736
 31
0.0
  0
LINE
  5
1F8
330
17A
100
AcDbEntity
  8
K-1
  6
ByBlock
 62
     6
100
AcDbLine
 10
101.0000000000018
 20
-2.851373944934948
 30
0.0
 11
101.0000000000018
 21
-7.681003076379965
 31
0.0
  0
ARC
  5
1F9
330
17A
100
AcDbEntity
  8
K-1
  6
ByBlock
 62
     0
100
AcDbCircle
 10
101.0
 20
10.71843409510711
 30
0.0
 40
3.0
100
AcDbArc
 50
0.0
 51
90.0
  0
ARC
  5
1FA
330
17A
100
AcDbEntity
  8
K-1
  6
ByBlock
 62
     0
100
AcDbCircle
 10
101.0000000000009
 20
4.57119834193736
 30
0.0
 40
3.5
100
AcDbArc
 50
270.0
 51
328.997280866158
  0
ARC
  5
1FB
330
17A
100
AcDbEntity
  8
K-1
  6
ByBlock
 62
     0
100
AcDbCircle
 10
101.0000000000009
 20
2.495237106998047
 30
0.0
 40
3.5
100
AcDbArc
 50
31.00271913384191
 51
90.0
  0
ARC
  5
1FC
330
17A
100
AcDbEntity
  8
K-1
  6
ByBlock
 62
     0
100
AcDbCircle
 10
101.0000000000009
 20
-6.351373944934948
 30
0.0
 40
3.5
100
AcDbArc
 50
31.00271913384191
 51
90.0
  0
ARC
  5
1FD
330
17A
100
AcDbEntity
  8
K-1
  6
ByBlock
 62
     0
100
AcDbCircle
 10
101.0000000000009
 20
-4.181003076379965
 30
0.0
 40
3.5
100
AcDbArc
 50
270.0
 51
328.997280866158
  0
LINE
  5
1FE
330
17A
100
AcDbEntity
  8
K-1
  6
ByBlock
 62
     0
100
AcDbLine
 10
101.0000000000018
 20
9.622673873661597
 30
0.0
 11
102.88355689528
 21
9.401844438537409
 31
0.0
  0
ARC
  5
1FF
330
17A
100
AcDbEntity
  8
K-1
  6
ByBlock
 62
     0
100
AcDbCircle
 10
103.0000000000009
 20
10.39504180228869
 30
0.0
 40
1.0
100
AcDbArc
 50
263.3131318813218
 51
0.0
  0
ELLIPSE
  5
200
330
17A
100
AcDbEntity
  8
K-1
  6
ByBlock
 62
     0
370
    25
100
AcDbEllipse
 10
93.00000000000091
 20
-19.5000000012551
 30
0.0
 11
-10.95814167901441
 21
-0.9587131702246956
 31
0.0
210
0.0
220
0.0
230
-1.0
 40
0.2832438023466669
 41
0.0
 42
6.283185307179586
  0
CIRCLE
  5
201
330
17A
100
AcDbEntity
  8
K-1
  6
ByBlock
 62
     0
370
    25
100
AcDbCircle
 10
-43.0
 20
-0.0000000012496457
 30
0.0
 40
2.049999999999999
  0
LINE
  5
202
330
17A
100
AcDbEntity
  8
K-1
  6
ByBlock
 62
     6
370
    25
100
AcDbLine
 10
-37.36160387050586
 20
21.58663298536612
 30
0.0
 11
-37.36160387050586
 21
-21.58663298786496
 31
0.0
  0
LINE
  5
203
330
17A
100
AcDbEntity
  8
K-1
  6
ByBlock
 62
     6
370
    25
100
AcDbLine
 10
-90.50000000000091
 20
14.53053916212479
 30
0.0
 11
-90.50000000000091
 21
-14.53053916462159
 31
0.0
  0
LINE
  5
204
330
17A
100
AcDbEntity
  8
K-1
  6
ByBlock
 62
     0
100
AcDbLine
 10
-72.28941916244366
 20
16.24999999875035
 30
0.0
 11
-50.00000000000046
 21
16.24999999875058
 31
0.0
  0
LINE
  5
205
330
17A
100
AcDbEntity
  8
K-1
  6
ByBlock
 62
     0
100
AcDbLine
 10
-78.00000000000091
 20
-14.50000000124964
 30
0.0
 11
-78.00000000000091
 21
14.49999999875035
 31
0.0
  0
LINE
  5
206
330
17A
100
AcDbEntity
  8
K-1
  6
ByBlock
 62
     0
100
AcDbLine
 10
-72.28941916244366
 20
-16.25000000124919
 30
0.0
 11
-50.00000000000091
 21
-16.25000000124942
 31
0.0
  0
LINE
  5
207
330
17A
100
AcDbEntity
  8
K-1
  6
ByBlock
 62
     0
100
AcDbLine
 10
-78.00000000000091
 20
13.99999999875035
 30
0.0
 11
-78.99999999999909
 21
13.99999999875035
 31
0.0
  0
LINE
  5
208
330
17A
100
AcDbEntity
  8
K-1
  6
ByBlock
 62
     0
370
    25
100
AcDbLine
 10
-78.00000000000091
 20
14.49999999875035
 30
0.0
 11
-77.28941916244366
 21
14.91025403659478
 31
0.0
  0
ARC
  5
209
330
17A
100
AcDbEntity
  8
K-1
  6
ByBlock
 62
     0
100
AcDbCircle
 10
-72.28941916244366
 20
6.249999998748535
 30
0.0
 40
10.0
100
AcDbArc
 50
90.0
 51
119.9999999999952
  0
LINE
  5
20A
330
17A
100
AcDbEntity
  8
K-1
  6
ByBlock
 62
     0
100
AcDbLine
 10
-78.00000000000091
 20
-14.00000000124964
 30
0.0
 11
-78.99999999999909
 21
-14.00000000124964
 31
0.0
  0
LINE
  5
20B
330
17A
100
AcDbEntity
  8
K-1
  6
ByBlock
 62
     0
370
    25
100
AcDbLine
 10
-78.00000000000091
 20
-14.50000000124964
 30
0.0
 11
-77.28941916244366
 21
-14.9102540390943
 31
0.0
  0
ARC
  5
20C
330
17A
100
AcDbEntity
  8
K-1
  6
ByBlock
 62
     0
100
AcDbCircle
 10
-72.28941916244366
 20
-6.250000001247826
 30
0.0
 40
10.0
100
AcDbArc
 50
240.0000000000048
 51
270.0
  0
LINE
  5
20D
330
17A
100
AcDbEntity
  8
K-1
  6
ByBlock
 62
     6
370
    25
100
AcDbLine
 10
-18.29999999999927
 20
10.08166652763452
 30
0.0
 11
-14.91494289242837
 21
10.0816665276343
 31
0.0
  0
LINE
  5
20E
330
17A
100
AcDbEntity
  8
K-1
  6
ByBlock
 62
     6
370
    25
100
AcDbLine
 10
44.91494289242791
 20
10.08166652763452
 30
0.0
 11
79.00000000000182
 21
10.08166652763452
 31
0.0
  0
LINE
  5
20F
330
17A
100
AcDbEntity
  8
K-1
  6
ByBlock
 62
     6
370
    25
100
AcDbLine
 10
79.00000000000182
 20
-10.08166653013609
 30
0.0
 11
-18.30000000000018
 21
-10.08166653013495
 31
0.0
  0
INSERT
  5
210
330
17A
100
AcDbEntity
  8
K-1
  6
ByBlock
 62
     0
100
AcDbBlockReference
  2
ハンドル外観図-B
 10
26.80170106758578
 20
-152.0000000006269
 30
0.0
  0
SPLINE
  5
24F
330
17A
100
AcDbEntity
  8
K-1
  6
ByBlock
 62
     6
100
AcDbSpline
210
0.0
220
0.0
230
1.0
 70
  1064
 71
     3
 72
     9
 73
     5
 74
     3
 42
0.000000001
 43
0.0000000001
 44
0.0000000001
 40
0.0
 40
0.0
 40
0.0
 40
0.0
 40
31.2652511008161
 40
48.73774070494589
 40
48.73774070494589
 40
48.73774070494589
 40
48.73774070494589
 10
37.63674002557673
 20
-39.07313360282501
 30
0.0
 10
22.9115652067591
 20
-42.24066326918249
 30
0.0
 10
-0.0427283583355678
 20
-47.17835716635783
 30
0.0
 10
15.17296046495072
 20
-60.43705798962125
 30
0.0
 10
20.62778789312415
 20
-65.19030483586312
 30
0.0
 11
37.63674002557673
 21
-39.07313360282501
 31
0.0
 11
9.169002996671224
 21
-51.99999999999045
 31
0.0
 11
20.62778789312415
 21
-65.19030483586312
 31
0.0
  0
ARC
  5
250
330
17A
100
AcDbEntity
  8
K-1
  6
ByBlock
 62
     6
100
AcDbCircle
 10
2.627787893118693
 20
-96.3672193720995
 30
0.0
 40
36.0
100
AcDbArc
 50
7.218151962105197
 51
60.00000000000483
  0
CIRCLE
  5
251
330
17A
100
AcDbEntity
  8
K-1
  6
ByBlock
 62
     6
100
AcDbCircle
 10
-0.1924859320715768
 20
-148.636390595878
 30
0.0
 40
3.500000000000002
  0
CIRCLE
  5
252
330
17A
100
AcDbEntity
  8
K-1
  6
ByBlock
 62
     6
100
AcDbCircle
 10
10.99999999999909
 20
-19.9999999987483
 30
0.0
 40
4.0
  0
ARC
  5
253
330
17A
100
AcDbEntity
  8
K-1
  6
ByBlock
 62
     6
370
    25
100
AcDbCircle
 10
3.699999999912506
 20
-0.0000000012516921
 30
0.0
 40
24.1999999999129
100
AcDbArc
 50
155.3800226712941
 51
204.6199773287059
  0
LINE
  5
254
330
17A
100
AcDbEntity
  8
K-1
  6
ByBlock
 62
     6
370
    25
100
AcDbLine
 10
-18.29999999999973
 20
-10.08166653013631
 30
0.0
 11
-18.30000000000018
 21
-14.50000000124578
 31
0.0
  0
LINE
  5
255
330
17A
100
AcDbEntity
  8
K-1
  6
ByBlock
 62
     6
370
    25
100
AcDbLine
 10
-18.30000000000018
 20
10.08166652763248
 30
0.0
 11
-18.30000000000018
 21
21.99999999875036
 31
0.0
  0
LINE
  5
256
330
17A
100
AcDbEntity
  8
K-1
  6
ByBlock
 62
     6
370
    25
100
AcDbLine
 10
-74.96891108675481
 20
15.88433043877126
 30
0.0
 11
-74.96891108675481
 21
-15.88433044127055
 31
0.0
  0
SPLINE
  5
257
330
17A
100
AcDbEntity
  8
K-1
  6
ByBlock
 62
     6
100
AcDbSpline
210
0.0
220
0.0
230
1.0
 70
     8
 71
     3
 72
     8
 73
     4
 74
     0
 42
0.000000001
 43
0.0000000001
 40
2.083023669349866
 40
2.083023669349866
 40
2.083023669349866
 40
2.083023669349866
 40
3.226331374274217
 40
3.226331374274217
 40
3.226331374274217
 40
3.226331374274217
 10
-25.2149044880216
 20
-39.81785271291006
 30
0.0
 10
-24.4897210852605
 20
-39.83008500501865
 30
0.0
 10
-23.57772120553
 20
-39.84969905947469
 30
0.0
 10
-22.37636702332839
 20
-39.88074649887494
 30
0.0
  0
SPLINE
  5
258
330
17A
100
AcDbEntity
  8
K-1
  6
ByBlock
 62
     6
370
    25
100
AcDbSpline
210
0.0
220
0.0
230
1.0
 70
     8
 71
     3
 72
     9
 73
     5
 74
     0
 42
0.000000001
 43
0.0000000001
 40
9.94739641081021
 40
9.94739641081021
 40
9.94739641081021
 40
9.94739641081021
 40
11.05856542595162
 40
15.53048239386054
 40
15.53048239386054
 40
15.53048239386054
 40
15.53048239386054
 10
-22.37636702332839
 20
-39.88074649887494
 30
0.0
 10
-22.1519832281765
 20
-40.18325934000109
 30
0.0
 10
-21.07917444745635
 20
-41.73115138356024
 30
0.0
 10
-20.47995794197504
 20
-43.50527533272201
 30
0.0
 10
-19.99999999999545
 20
-44.92630574771396
 30
0.0
  0
LINE
  5
259
330
17A
100
AcDbEntity
  8
K-1
  6
ByBlock
 62
     6
370
    25
100
AcDbLine
 10
-26.1980390271774
 20
-38.81799494490974
 30
0.0
 11
-26.1980390271774
 21
-35.75040042470277
 31
0.0
  0
ARC
  5
25A
330
17A
100
AcDbEntity
  8
K-1
  6
ByBlock
 62
     6
370
    25
100
AcDbCircle
 10
-25.19803902717922
 20
-38.81799494491156
 30
0.0
 40
1.0
100
AcDbArc
 50
179.9999999999088
 51
269.0336344576673
  0
LINE
  5
25B
330
17A
100
AcDbEntity
  8
K-1
  6
ByBlock
 62
     6
370
    25
100
AcDbLine
 10
7.8303109023459
 20
-27.00534418085386
 30
0.0
 11
-5.830310902351811
 21
-27.00534418085386
 31
0.0
  0
ARC
  5
25C
330
17A
100
AcDbEntity
  8
K-1
  6
PHANTOM
 62
     5
100
AcDbCircle
 10
-54.99999999999954
 20
-52.00000000000023
 30
0.0
 40
30.0
100
AcDbArc
 50
339.2164404041182
 51
20.78355959588176
  0
ARC
  5
25D
330
17A
100
AcDbEntity
  8
K-1
  6
PHANTOM
 62
     5
100
AcDbCircle
 10
-26.01724650762071
 20
-63.0
 30
0.0
 40
1.0
100
AcDbArc
 50
159.2164404041182
 51
270.0
  0
ARC
  5
25E
330
17A
100
AcDbEntity
  8
K-1
  6
PHANTOM
 62
     5
100
AcDbCircle
 10
-26.01724650762071
 20
-41.0
 30
0.0
 40
1.0
100
AcDbArc
 50
90.0
 51
200.7835595958818
  0
ENDBLK
  5
25F
330
17A
100
AcDbEntity
  8
0
 62
     0
100
AcDbBlockEnd
  0
BLOCK
  5
A4
330
A1
100
AcDbEntity
  8
0
 62
     0
100
AcDbBlockBegin
  2
配布先表
 70
     0
 10
0.0
 20
0.0
 30
0.0
  3
配布先表
  1

  0
LWPOLYLINE
  5
A5
330
A1
100
AcDbEntity
  8
0
 62
     6
100
AcDbPolyline
 90
        2
 70
     0
 43
0.0
 10
0.0
 20
21.24999999999997
 10
-12.0
 20
21.24999999999997
  0
LWPOLYLINE
  5
A6
330
A1
100
AcDbEntity
  8
0
 62
     6
100
AcDbPolyline
 90
        2
 70
     0
 43
0.0
 10
0.0
 20
15.99999999999997
 10
-12.0
 20
15.99999999999997
  0
LWPOLYLINE
  5
A7
330
A1
100
AcDbEntity
  8
0
 62
     6
100
AcDbPolyline
 90
        2
 70
     0
 43
0.0
 10
0.0
 20
10.99999999999994
 10
-12.0
 20
10.99999999999994
  0
LWPOLYLINE
  5
A8
330
A1
100
AcDbEntity
  8
0
 62
     6
100
AcDbPolyline
 90
        2
 70
     0
 43
0.0
 10
0.0
 20
5.499999999999971
 10
-12.0
 20
5.499999999999971
  0
LINE
  5
A9
330
A1
100
AcDbEntity
  8
0
 62
     6
100
AcDbLine
 10
-5.0
 20
21.24999999999997
 30
0.0
 11
-5.0
 21
-0.0000000000000142
 31
0.0
  0
TEXT
  5
AA
330
A1
100
AcDbEntity
  8
A3WAKU
 62
    11
100
AcDbText
 10
-11.0
 20
22.37499999999997
 30
0.0
 40
3.0
  1
配布先
  7
K1
 72
     4
 11
-6.0
 21
23.87499999999997
 31
0.0
100
AcDbText
  0
TEXT
  5
AB
330
A1
100
AcDbEntity
  8
A3WAKU
 62
    11
100
AcDbText
 10
-11.16666666666666
 20
17.37499999999997
 30
0.0
 40
2.5
  1
資材
  7
K1
 72
     4
 11
-8.5
 21
18.62499999999997
 31
0.0
100
AcDbText
  0
TEXT
  5
AC
330
A1
100
AcDbEntity
  8
A3WAKU
 62
    11
100
AcDbText
 10
-11.16666666666667
 20
12.24999999999994
 30
0.0
 40
2.5
  1
製造
  7
K1
 72
     4
 11
-8.5
 21
13.49999999999994
 31
0.0
100
AcDbText
  0
CIRCLE
  5
AD
330
A1
100
AcDbEntity
  8
A3WAKU
 62
    11
100
AcDbCircle
 10
-2.5
 20
18.62499999999997
 30
0.0
 40
1.25
  0
CIRCLE
  5
AE
330
A1
100
AcDbEntity
  8
A3WAKU
 62
    11
100
AcDbCircle
 10
-2.5
 20
13.49999999999994
 30
0.0
 40
1.25
  0
LINE
  5
AF
330
A1
100
AcDbEntity
  8
0
 62
     4
100
AcDbLine
 10
0.0
 20
26.5
 30
0.0
 11
-11.99999999999977
 21
26.5
 31
0.0
  0
LINE
  5
B0
330
A1
100
AcDbEntity
  8
0
 62
     4
100
AcDbLine
 10
-11.99999999999977
 20
-0.0000000000000142
 30
0.0
 11
-11.99999999999977
 21
26.49999999999999
 31
0.0
  0
ENDBLK
  5
B1
330
A1
100
AcDbEntity
  8
0
 62
     0
100
AcDbBlockEnd
  0
BLOCK
  5
B6
330
B3
100
AcDbEntity
  8
0
 62
     0
100
AcDbBlockBegin
  2
普通公差&規格表
 70
     0
 10
0.0
 20
0.0
 30
0.0
  3
普通公差&規格表
  1

  0
LINE
  5
B7
330
B3
100
AcDbEntity
  8
0
 62
     4
100
AcDbLine
 10
0.0
 20
26.50000000000003
 30
0.0
 11
-35.0
 21
26.50000000000003
 31
0.0
  0
LINE
  5
B8
330
B3
100
AcDbEntity
  8
0
 62
     4
100
AcDbLine
 10
-46.99999999999977
 20
26.50000000000003
 30
0.0
 11
-72.99999999999977
 21
26.50000000000003
 31
0.0
  0
LINE
  5
B9
330
B3
100
AcDbEntity
  8
0
 62
     4
100
AcDbLine
 10
-35.0
 20
0.0000000000000284
 30
0.0
 11
-35.0
 21
26.50000000000003
 31
0.0
  0
LINE
  5
BA
330
B3
100
AcDbEntity
  8
K-1
  6
ByBlock
 62
     6
100
AcDbLine
 10
-46.99999999999977
 20
21.24999999999992
 30
0.0
 11
-67.99999999999977
 21
21.24999999999992
 31
0.0
  0
LINE
  5
BB
330
B3
100
AcDbEntity
  8
K-1
  6
ByBlock
 62
     6
100
AcDbLine
 10
-46.99999999999977
 20
15.99999999999991
 30
0.0
 11
-67.99999999999977
 21
15.99999999999991
 31
0.0
  0
LINE
  5
BC
330
B3
100
AcDbEntity
  8
K-1
  6
ByBlock
 62
     6
100
AcDbLine
 10
-46.99999999999977
 20
11.10000000000005
 30
0.0
 11
-67.99999999999977
 21
11.10000000000005
 31
0.0
  0
LINE
  5
BD
330
B3
100
AcDbEntity
  8
K-1
  6
ByBlock
 62
     6
100
AcDbLine
 10
-46.99999999999977
 20
5.500000000000028
 30
0.0
 11
-67.99999999999977
 21
5.500000000000028
 31
0.0
  0
LINE
  5
BE
330
B3
100
AcDbEntity
  8
K-1
  6
ByBlock
 62
     6
100
AcDbLine
 10
-67.99999999999977
 20
0.0000000000000284
 30
0.0
 11
-67.99999999999977
 21
26.50000000000003
 31
0.0
  0
LINE
  5
BF
330
B3
100
AcDbEntity
  8
K-1
  6
ByBlock
 62
     6
100
AcDbLine
 10
-56.99999999999977
 20
26.50000000000003
 30
0.0
 11
-56.99999999999977
 21
0.0000000000000284
 31
0.0
  0
TEXT
  5
C0
330
B3
100
AcDbEntity
  8
K-1
  6
ByBlock
 62
     6
100
AcDbText
 10
-68.99999999999977
 20
1.560791195882899
 30
0.0
 40
3.0
  1
普通公差（単位mm）
 50
90.0
 41
0.7
  7
K1
100
AcDbText
  0
TEXT
  5
C1
330
B3
100
AcDbEntity
  8
K-1
  6
ByBlock
 62
     6
100
AcDbText
 10
-65.49999999999977
 20
21.84999999999994
 30
0.0
 40
1.8
  1
6 以下
 41
0.8
  7
K1
100
AcDbText
  0
TEXT
  5
C2
330
B3
100
AcDbEntity
  8
K-1
  6
ByBlock
 62
     6
100
AcDbText
 10
-65.99999999999977
 20
18.69999999999996
 30
0.0
 40
1.8
  1
6 を超え
 41
0.8
  7
K1
100
AcDbText
  0
TEXT
  5
C3
330
B3
100
AcDbEntity
  8
K-1
  6
ByBlock
 62
     6
100
AcDbText
 10
-65.99999999999977
 20
16.29999999999998
 30
0.0
 40
1.8
  1
30 以下
 41
0.8
  7
K1
100
AcDbText
  0
TEXT
  5
C4
330
B3
100
AcDbEntity
  8
K-1
  6
ByBlock
 62
     6
100
AcDbText
 10
-66.49999999999977
 20
13.80000000000009
 30
0.0
 40
1.8
  1
30 を超え
 41
0.8
  7
K1
100
AcDbText
  0
TEXT
  5
C5
330
B3
100
AcDbEntity
  8
K-1
  6
ByBlock
 62
     6
100
AcDbText
 10
-66.49999999999977
 20
11.40000000000012
 30
0.0
 40
1.8
  1
120 以下
 41
0.8
  7
K1
100
AcDbText
  0
TEXT
  5
C6
330
B3
100
AcDbEntity
  8
K-1
  6
ByBlock
 62
     6
100
AcDbText
 10
-66.49999999999977
 20
8.500000000000028
 30
0.0
 40
1.8
  1
120 を超え
 41
0.7
  7
K1
100
AcDbText
  0
TEXT
  5
C7
330
B3
100
AcDbEntity
  8
K-1
  6
ByBlock
 62
     6
100
AcDbText
 10
-66.49999999999977
 20
6.100000000000051
 30
0.0
 40
1.8
  1
400 以下
 41
0.7
  7
K1
100
AcDbText
  0
TEXT
  5
C8
330
B3
100
AcDbEntity
  8
K-1
  6
ByBlock
 62
     6
100
AcDbText
 10
-66.49999999999977
 20
2.900000000000005
 30
0.0
 40
1.8
  1
400 を超え
 41
0.7
  7
K1
100
AcDbText
  0
TEXT
  5
C9
330
B3
100
AcDbEntity
  8
K-1
  6
ByBlock
 62
     6
100
AcDbText
 10
-66.49999999999977
 20
0.5000000000000285
 30
0.0
 40
1.8
  1
1000 以下
 41
0.7
  7
K1
100
AcDbText
  0
TEXT
  5
CA
330
B3
100
AcDbEntity
  8
K-1
  6
ByBlock
 62
     6
100
AcDbText
 10
-55.99999999999977
 20
22.24999999999992
 30
0.0
 40
3.0
  1
\U+00B10.1
 41
0.8
  7
K1
100
AcDbText
  0
TEXT
  5
CB
330
B3
100
AcDbEntity
  8
K-1
  6
ByBlock
 62
     6
100
AcDbText
 10
-55.99999999999977
 20
16.99999999999991
 30
0.0
 40
3.0
  1
\U+00B10.2
 41
0.8
  7
K1
100
AcDbText
  0
TEXT
  5
CC
330
B3
100
AcDbEntity
  8
K-1
  6
ByBlock
 62
     6
100
AcDbText
 10
-55.99999999999977
 20
12.10000000000005
 30
0.0
 40
3.0
  1
\U+00B10.3
 41
0.8
  7
K1
100
AcDbText
  0
TEXT
  5
CD
330
B3
100
AcDbEntity
  8
K-1
  6
ByBlock
 62
     6
100
AcDbText
 10
-55.99999999999977
 20
6.500000000000028
 30
0.0
 40
3.0
  1
\U+00B10.5
 41
0.8
  7
K1
100
AcDbText
  0
TEXT
  5
CE
330
B3
100
AcDbEntity
  8
K-1
  6
ByBlock
 62
     6
100
AcDbText
 10
-55.99999999999977
 20
0.9000000000000056
 30
0.0
 40
3.0
  1
\U+00B10.8
 41
0.8
  7
K1
100
AcDbText
  0
TEXT
  5
CF
330
B3
100
AcDbEntity
  8
A3WAKU
  6
ByBlock
 62
    11
100
AcDbText
 10
-34.15579945824334
 20
5.918102299532819
 30
0.0
 40
2.0
  1
WEIGHT,　質量
 41
0.6
  7
K1
100
AcDbText
  0
TEXT
  5
D0
330
B3
100
AcDbEntity
  8
A3WAKU
  6
ByBlock
 62
    11
100
AcDbText
 10
-33.83638496479103
 20
14.877584418514
 30
0.0
 40
2.0
  1
REMARK,　摘要
 41
0.6
  7
K1
100
AcDbText
  0
TEXT
  5
D1
330
B3
100
AcDbEntity
  8
A3WAKU
  6
ByBlock
 62
    11
100
AcDbText
 10
-34.09838126990531
 20
23.65300136638916
 30
0.0
 40
2.0
  1
MATERIAL,　材料(規格)
 41
0.6
  7
K1
100
AcDbText
  0
LINE
  5
D2
330
B3
100
AcDbEntity
  8
0
  6
ByBlock
 62
     4
100
AcDbLine
 10
-35.0
 20
8.830000000000026
 30
0.0
 11
0.0
 21
8.829999999999998
 31
0.0
  0
LINE
  5
D3
330
B3
100
AcDbEntity
  8
0
  6
ByBlock
 62
     4
100
AcDbLine
 10
-35.0
 20
17.66000000000002
 30
0.0
 11
0.0
 21
17.66
 31
0.0
  0
LINE
  5
D4
330
B3
100
AcDbEntity
  8
0
 62
     4
100
AcDbLine
 10
-72.99999999999977
 20
0.0000000000000284
 30
0.0
 11
-72.99999999999977
 21
26.50000000000003
 31
0.0
  0
TEXT
  5
D5
330
B3
100
AcDbEntity
  8
K-1
  6
ByBlock
 62
     0
100
AcDbText
 10
-4.006592967263486
 20
1.295768965381455
 30
0.0
 40
2.0
  1
kg
 41
0.8
  7
K1
100
AcDbText
  0
ENDBLK
  5
D6
330
B3
100
AcDbEntity
  8
0
 62
     0
100
AcDbBlockEnd
  0
BLOCK
  5
9F
330
9C
100
AcDbEntity
  8
0
100
AcDbBlockBegin
  2
WAKUA3_ver.1
 70
     0
 10
0.0
 20
0.0
 30
0.0
  3
WAKUA3_ver.1
  1

  0
INSERT
  5
A0
330
9C
100
AcDbEntity
  8
0
  6
ByBlock
 62
     0
100
AcDbBlockReference
  2
配布先表
 10
247.9999999999982
 20
6.500000000001818
 30
0.0
  0
INSERT
  5
B2
330
9C
100
AcDbEntity
  8
0
  6
ByBlock
 62
     0
100
AcDbBlockReference
  2
普通公差&規格表
 10
282.9999999999982
 20
6.500000000001762
 30
0.0
  0
INSERT
  5
D7
330
9C
100
AcDbEntity
  8
K-1
  6
ByBlock
 62
     0
100
AcDbBlockReference
  2
WAKUA3
 10
0.0
 20
0.0
 30
0.0
  0
ENDBLK
  5
11F
330
9C
100
AcDbEntity
  8
0
100
AcDbBlockEnd
  0
BLOCK
  5
D9
330
D8
100
AcDbEntity
  8
0
 62
     0
100
AcDbBlockBegin
  2
WAKUA3
 70
     0
 10
0.0
 20
0.0
 30
0.0
  3
WAKUA3
  1

  0
POLYLINE
  5
DA
330
D8
100
AcDbEntity
  8
0
 62
     4
100
AcDb2dPolyline
 66
     1
 10
0.0
 20
0.0
 30
0.0
 70
     1
  0
VERTEX
  5
DB
330
DA
100
AcDbEntity
  8
0
 62
     4
100
AcDbVertex
100
AcDb2dVertex
 10
0.0
 20
285.0000000000004
 30
0.0
  0
VERTEX
  5
DC
330
DA
100
AcDbEntity
  8
0
 62
     4
100
AcDbVertex
100
AcDb2dVertex
 10
0.0
 20
6.50000000000216
 30
0.0
  0
VERTEX
  5
DD
330
DA
100
AcDbEntity
  8
0
 62
     4
100
AcDbVertex
100
AcDb2dVertex
 10
408.0
 20
6.50000000000216
 30
0.0
  0
VERTEX
  5
DE
330
DA
100
AcDbEntity
  8
0
 62
     4
100
AcDbVertex
100
AcDb2dVertex
 10
408.0
 20
285.0000000000004
 30
0.0
  0
SEQEND
  5
DF
330
DA
100
AcDbEntity
  8
0
 62
     4
  0
LWPOLYLINE
  5
E0
330
D8
100
AcDbEntity
  8
0
 62
     4
100
AcDbPolyline
 90
        3
 70
     0
 43
0.0
 10
333.0999999999985
 20
33.00000000000222
 10
333.0999999999985
 20
42.00000000000218
 10
407.9999999999982
 20
42.00000000000218
  0
TEXT
  5
E1
330
D8
100
AcDbEntity
  8
A3WAKU
 62
    11
100
AcDbText
 10
333.7999999999984
 20
39.35000000000215
 30
0.0
 40
2.0
  1
ＪＯＢ　ＮＯ．工事記号
 41
0.5412371134020617
  7
K1
 72
     5
 11
347.7999999999984
 21
39.35000000000215
 31
0.0
100
AcDbText
  0
LINE
  5
E2
330
D8
100
AcDbEntity
  8
0
 62
     6
100
AcDbLine
 10
379.9999999999986
 20
33.00000000000222
 30
0.0
 11
379.9999999999986
 21
42.00000000000222
 31
0.0
  0
TEXT
  5
E3
330
D8
100
AcDbEntity
  8
A3WAKU
 62
    11
100
AcDbText
 10
361.7999999999984
 20
39.34999999999997
 30
0.0
 40
2.0
  1
ＡＭＴ.所要数（個）
 41
0.6702127659574466
  7
K1
 72
     5
 11
375.7999999999984
 21
39.34999999999997
 31
0.0
100
AcDbText
  0
LINE
  5
E4
330
D8
100
AcDbEntity
  8
0
 62
     6
100
AcDbLine
 10
361.0999999999985
 20
33.0
 30
0.0
 11
361.0999999999985
 21
42.0
 31
0.0
  0
TEXT
  5
E5
330
D8
100
AcDbEntity
  8
A3WAKU
 62
    11
100
AcDbText
 10
380.6999999999984
 20
39.35000000000218
 30
0.0
 40
2.0
  1
DATE.
 41
0.7297297297297299
  7
K1
 72
     5
 11
386.6999999999984
 21
39.35000000000218
 31
0.0
100
AcDbText
  0
LINE
  5
E6
330
D8
100
AcDbEntity
  8
0
 62
     4
100
AcDbLine
 10
282.9999999999982
 20
22.50000000000216
 30
0.0
 11
407.9999999999982
 21
22.50000000000216
 31
0.0
  0
LINE
  5
E7
330
D8
100
AcDbEntity
  8
0
 62
     4
100
AcDbLine
 10
407.9999999999982
 20
33.00000000000222
 30
0.0
 11
282.9999999999982
 21
33.00000000000222
 31
0.0
  0
TEXT
  5
E8
330
D8
100
AcDbEntity
  8
A3WAKU
 62
    11
100
AcDbText
 10
334.3830353660719
 20
19.80000000000217
 30
0.0
 40
2.0
  1
ＤＲＡＷＩＮＧ　ＮＯ．図番
 41
0.6847826086956524
  7
K1
 72
     5
 11
355.3830353660719
 21
19.80000000000217
 31
0.0
100
AcDbText
  0
TEXT
  5
E9
330
D8
100
AcDbEntity
  8
A3WAKU
 62
    11
100
AcDbText
 10
311.6999999999984
 20
30.20000000000226
 30
0.0
 40
2.099999999999999
  1
ＴＩＴＬＥ．　図名
 41
0.6369426751592361
  7
K1
 72
     5
 11
325.6999999999985
 21
30.20000000000226
 31
0.0
100
AcDbText
  0
TEXT
  5
EA
330
D8
100
AcDbEntity
  8
A3WAKU
 62
    11
100
AcDbText
 10
283.9380182786479
 20
29.20851709987778
 30
0.0
 40
2.0
  1
３ＲＤ　ＡＮＧＬＥ　ＰＲＯＪＥＣＴ　第３角法
 41
0.4864278719904451
  7
K1
 72
     5
 11
309.3619817213485
 21
29.20851709987778
 31
0.0
100
AcDbText
  0
TEXT
  5
EB
330
D8
100
AcDbEntity
  8
A3WAKU
 62
    11
100
AcDbText
 10
283.9380182786479
 20
23.95851709987772
 30
0.0
 40
2.0
  1
ＳＣＡＬＥ
 41
0.7818055772304641
  7
K1
 72
     5
 11
292.5899999999984
 21
23.95851709987772
 31
0.0
100
AcDbText
  0
TEXT
  5
EC
330
D8
100
AcDbEntity
  8
A3WAKU
 62
    11
100
AcDbText
 10
316.7499999999982
 20
20.55000000000217
 30
0.0
 40
1.5
  1
ＡＰＰＲ\U+2019Ｄ．ＢＹ
 41
0.6019108280254658
  7
K1
 72
     5
 11
326.199999999998
 21
20.55000000000217
 31
0.0
100
AcDbText
  0
TEXT
  5
ED
330
D8
100
AcDbEntity
  8
A3WAKU
 62
    11
100
AcDbText
 10
283.3499999999981
 20
20.55000000000214
 30
0.0
 40
1.5
  1
ＤＥＳ．ＢＹ
 41
0.7815533980582479
  7
K1
 72
     5
 11
291.3999999999981
 21
20.55000000000214
 31
0.0
100
AcDbText
  0
TEXT
  5
EE
330
D8
100
AcDbEntity
  8
A3WAKU
 62
    11
100
AcDbText
 10
300.0499999999981
 20
20.55000000000217
 30
0.0
 40
1.5
  1
ＣＨＫ．ＢＹ
 41
0.7815533980582483
  7
K1
 72
     5
 11
308.0999999999981
 21
20.55000000000217
 31
0.0
100
AcDbText
  0
LINE
  5
EF
330
D8
100
AcDbEntity
  8
0
 62
     4
100
AcDbLine
 10
333.0999999999985
 20
22.50000000000216
 30
0.0
 11
333.0999999999985
 21
6.500000000002174
 31
0.0
  0
LINE
  5
F0
330
D8
100
AcDbEntity
  8
0
 62
     4
100
AcDbLine
 10
310.9999999999982
 20
22.50000000000216
 30
0.0
 11
310.9999999999982
 21
33.00000000000222
 31
0.0
  0
LINE
  5
F1
330
D8
100
AcDbEntity
  8
0
 62
     4
100
AcDbLine
 10
310.9999999999982
 20
27.75000000000222
 30
0.0
 11
282.9999999999982
 21
27.75000000000222
 31
0.0
  0
LINE
  5
F2
330
D8
100
AcDbEntity
  8
0
 62
     4
100
AcDbLine
 10
282.9999999999982
 20
6.500000000002188
 30
0.0
 11
282.9999999999982
 21
33.00000000000219
 31
0.0
  0
LINE
  5
F3
330
D8
100
AcDbEntity
  8
K-1
  6
ByBlock
 62
     6
100
AcDbLine
 10
316.3999999999983
 20
6.500000000002188
 30
0.0
 11
316.3999999999983
 21
22.50000000000216
 31
0.0
  0
LINE
  5
F4
330
D8
100
AcDbEntity
  8
K-1
  6
ByBlock
 62
     6
100
AcDbLine
 10
299.6999999999982
 20
6.500000000002188
 30
0.0
 11
299.6999999999982
 21
22.50000000000216
 31
0.0
  0
LINE
  5
F5
330
D8
100
AcDbEntity
  8
0
 62
     6
100
AcDbLine
 10
407.9999999999982
 20
255.0000000000022
 30
0.0
 11
406.9999999999981
 21
255.0000000000022
 31
0.0
  0
LINE
  5
F6
330
D8
100
AcDbEntity
  8
0
 62
     6
100
AcDbLine
 10
407.9999999999982
 20
249.0000000000022
 30
0.0
 11
406.9999999999981
 21
249.0000000000022
 31
0.0
  0
LINE
  5
F7
330
D8
100
AcDbEntity
  8
0
 62
     6
100
AcDbLine
 10
407.9999999999982
 20
243.0000000000022
 30
0.0
 11
406.9999999999981
 21
243.0000000000022
 31
0.0
  0
LINE
  5
F8
330
D8
100
AcDbEntity
  8
0
 62
     6
100
AcDbLine
 10
407.9999999999982
 20
237.0000000000022
 30
0.0
 11
406.9999999999981
 21
237.0000000000022
 31
0.0
  0
LINE
  5
F9
330
D8
100
AcDbEntity
  8
0
 62
     6
100
AcDbLine
 10
407.9999999999982
 20
231.0000000000022
 30
0.0
 11
406.9999999999981
 21
231.0000000000022
 31
0.0
  0
LINE
  5
FA
330
D8
100
AcDbEntity
  8
0
 62
     6
100
AcDbLine
 10
407.9999999999982
 20
225.0000000000022
 30
0.0
 11
406.9999999999981
 21
225.0000000000022
 31
0.0
  0
LINE
  5
FB
330
D8
100
AcDbEntity
  8
0
 62
     6
100
AcDbLine
 10
407.9999999999982
 20
219.0000000000022
 30
0.0
 11
406.9999999999981
 21
219.0000000000022
 31
0.0
  0
LINE
  5
FC
330
D8
100
AcDbEntity
  8
0
 62
     6
100
AcDbLine
 10
407.9999999999982
 20
213.0000000000022
 30
0.0
 11
406.9999999999981
 21
213.0000000000022
 31
0.0
  0
LINE
  5
FD
330
D8
100
AcDbEntity
  8
0
 62
     6
100
AcDbLine
 10
407.9999999999982
 20
207.0000000000022
 30
0.0
 11
406.9999999999981
 21
207.0000000000022
 31
0.0
  0
LINE
  5
FE
330
D8
100
AcDbEntity
  8
0
 62
     6
100
AcDbLine
 10
407.9999999999982
 20
201.0000000000022
 30
0.0
 11
406.9999999999981
 21
201.0000000000022
 31
0.0
  0
LINE
  5
FF
330
D8
100
AcDbEntity
  8
0
 62
     6
100
AcDbLine
 10
407.9999999999982
 20
195.0000000000022
 30
0.0
 11
406.9999999999981
 21
195.0000000000022
 31
0.0
  0
LINE
  5
100
330
D8
100
AcDbEntity
  8
0
 62
     6
100
AcDbLine
 10
407.9999999999982
 20
189.0000000000022
 30
0.0
 11
406.9999999999981
 21
189.0000000000022
 31
0.0
  0
LINE
  5
101
330
D8
100
AcDbEntity
  8
0
 62
     6
100
AcDbLine
 10
407.9999999999982
 20
183.0000000000022
 30
0.0
 11
406.9999999999981
 21
183.0000000000022
 31
0.0
  0
LINE
  5
102
330
D8
100
AcDbEntity
  8
0
 62
     6
100
AcDbLine
 10
407.9999999999982
 20
177.0000000000022
 30
0.0
 11
406.9999999999981
 21
177.0000000000022
 31
0.0
  0
LINE
  5
103
330
D8
100
AcDbEntity
  8
0
 62
     6
100
AcDbLine
 10
407.9999999999982
 20
171.0000000000022
 30
0.0
 11
406.9999999999981
 21
171.0000000000022
 31
0.0
  0
LINE
  5
104
330
D8
100
AcDbEntity
  8
0
 62
     6
100
AcDbLine
 10
407.9999999999982
 20
165.0000000000022
 30
0.0
 11
406.9999999999981
 21
165.0000000000022
 31
0.0
  0
LINE
  5
105
330
D8
100
AcDbEntity
  8
0
 62
     6
100
AcDbLine
 10
407.9999999999982
 20
159.0000000000022
 30
0.0
 11
406.9999999999981
 21
159.0000000000022
 31
0.0
  0
LINE
  5
106
330
D8
100
AcDbEntity
  8
0
 62
     6
100
AcDbLine
 10
407.9999999999982
 20
153.0000000000022
 30
0.0
 11
406.9999999999981
 21
153.0000000000022
 31
0.0
  0
LINE
  5
107
330
D8
100
AcDbEntity
  8
0
 62
     6
100
AcDbLine
 10
407.9999999999982
 20
147.0000000000022
 30
0.0
 11
406.9999999999981
 21
147.0000000000022
 31
0.0
  0
LINE
  5
108
330
D8
100
AcDbEntity
  8
0
 62
     6
100
AcDbLine
 10
407.9999999999982
 20
141.0000000000022
 30
0.0
 11
406.9999999999981
 21
141.0000000000022
 31
0.0
  0
LINE
  5
109
330
D8
100
AcDbEntity
  8
0
 62
     6
100
AcDbLine
 10
407.9999999999982
 20
123.0000000000022
 30
0.0
 11
406.9999999999981
 21
123.0000000000022
 31
0.0
  0
LINE
  5
10A
330
D8
100
AcDbEntity
  8
0
 62
     6
100
AcDbLine
 10
407.9999999999982
 20
117.0000000000022
 30
0.0
 11
406.9999999999981
 21
117.0000000000022
 31
0.0
  0
LINE
  5
10B
330
D8
100
AcDbEntity
  8
0
 62
     6
100
AcDbLine
 10
407.9999999999982
 20
111.0000000000022
 30
0.0
 11
406.9999999999981
 21
111.0000000000022
 31
0.0
  0
LINE
  5
10C
330
D8
100
AcDbEntity
  8
0
 62
     6
100
AcDbLine
 10
407.9999999999982
 20
105.0000000000022
 30
0.0
 11
406.9999999999981
 21
105.0000000000022
 31
0.0
  0
LINE
  5
10D
330
D8
100
AcDbEntity
  8
0
 62
     6
100
AcDbLine
 10
407.9999999999982
 20
99.00000000000222
 30
0.0
 11
406.9999999999981
 21
99.00000000000222
 31
0.0
  0
LINE
  5
10E
330
D8
100
AcDbEntity
  8
0
 62
     6
100
AcDbLine
 10
407.9999999999982
 20
93.00000000000222
 30
0.0
 11
406.9999999999981
 21
93.00000000000222
 31
0.0
  0
LINE
  5
10F
330
D8
100
AcDbEntity
  8
0
 62
     6
100
AcDbLine
 10
407.9999999999982
 20
87.00000000000221
 30
0.0
 11
406.9999999999981
 21
87.00000000000221
 31
0.0
  0
LINE
  5
110
330
D8
100
AcDbEntity
  8
0
 62
     6
100
AcDbLine
 10
407.9999999999982
 20
81.00000000000221
 30
0.0
 11
406.9999999999981
 21
81.00000000000221
 31
0.0
  0
LINE
  5
111
330
D8
100
AcDbEntity
  8
0
 62
     6
100
AcDbLine
 10
407.9999999999982
 20
75.00000000000222
 30
0.0
 11
406.9999999999981
 21
75.00000000000222
 31
0.0
  0
LINE
  5
112
330
D8
100
AcDbEntity
  8
0
 62
     6
100
AcDbLine
 10
407.9999999999982
 20
69.00000000000222
 30
0.0
 11
406.9999999999981
 21
69.00000000000222
 31
0.0
  0
LINE
  5
113
330
D8
100
AcDbEntity
  8
0
 62
     6
100
AcDbLine
 10
407.9999999999982
 20
63.00000000000221
 30
0.0
 11
406.9999999999981
 21
63.00000000000221
 31
0.0
  0
LINE
  5
114
330
D8
100
AcDbEntity
  8
0
 62
     6
100
AcDbLine
 10
407.9999999999982
 20
261.0000000000022
 30
0.0
 11
406.9999999999981
 21
261.0000000000022
 31
0.0
  0
LINE
  5
115
330
D8
100
AcDbEntity
  8
0
 62
     6
100
AcDbLine
 10
407.9999999999982
 20
267.0000000000022
 30
0.0
 11
406.9999999999981
 21
267.0000000000022
 31
0.0
  0
LINE
  5
116
330
D8
100
AcDbEntity
  8
0
 62
     6
100
AcDbLine
 10
407.9999999999982
 20
273.0000000000022
 30
0.0
 11
406.9999999999981
 21
273.0000000000022
 31
0.0
  0
LINE
  5
117
330
D8
100
AcDbEntity
  8
0
 62
     6
100
AcDbLine
 10
407.9999999999982
 20
279.0000000000022
 30
0.0
 11
406.9999999999981
 21
279.0000000000022
 31
0.0
  0
LINE
  5
118
330
D8
100
AcDbEntity
  8
0
 62
     6
100
AcDbLine
 10
407.9999999999982
 20
135.0000000000022
 30
0.0
 11
406.9999999999981
 21
135.0000000000022
 31
0.0
  0
LINE
  5
119
330
D8
100
AcDbEntity
  8
0
 62
     6
100
AcDbLine
 10
407.9999999999982
 20
129.0000000000022
 30
0.0
 11
406.9999999999981
 21
129.0000000000022
 31
0.0
  0
LINE
  5
11A
330
D8
100
AcDbEntity
  8
Sunpou
 62
     4
100
AcDbLine
 10
0.0
 20
0.0
 30
0.0
 11
407.9999999999995
 21
-0.000000000001819
 31
0.0
  0
ENDBLK
  5
11E
330
D8
100
AcDbEntity
  8
0
 62
     0
100
AcDbBlockEnd
  0
BLOCK
  5
30E
330
30D
100
AcDbEntity
  8
0
 62
     0
100
AcDbBlockBegin
  2
*D13
 70
     1
 10
0.0
 20
0.0
 30
0.0
  3
*D13
  1

  0
LINE
  5
30F
330
30D
100
AcDbEntity
  8
SUNPO
100
AcDbLine
 10
4.056146127432157
 20
-1537.303830776325
 30
0.0
 11
34.71040981068108
 21
-1537.303830776325
 31
0.0
  0
LINE
  5
310
330
30D
100
AcDbEntity
  8
SUNPO
100
AcDbLine
 10
5.056146127432157
 20
-1492.303830776325
 30
0.0
 11
34.71040981068109
 21
-1492.303830776325
 31
0.0
  0
LINE
  5
311
330
30D
100
AcDbEntity
  8
SUNPO
100
AcDbLine
 10
33.71040981068108
 20
-1534.303830776325
 30
0.0
 11
33.71040981068109
 21
-1495.303830776325
 31
0.0
  0
INSERT
  5
312
330
30D
100
AcDbEntity
  8
SUNPO
100
AcDbBlockReference
  2
_Open30
 10
33.71040981068108
 20
-1537.303830776325
 30
0.0
 41
3.0
 42
3.0
 43
3.0
 50
270.0
  0
INSERT
  5
313
330
30D
100
AcDbEntity
  8
SUNPO
100
AcDbBlockReference
  2
_Open30
 10
33.71040981068109
 20
-1492.303830776325
 30
0.0
 41
3.0
 42
3.0
 43
3.0
 50
90.0
  0
MTEXT
  5
314
330
30D
100
AcDbEntity
  8
SUNPO
 62
     7
100
AcDbMText
 10
30.21040981068133
 20
-1514.803830776325
 30
0.0
 40
4.0
 41
0.0
 71
     5
 72
     1
  1
\A1;45
  7
K1
 11
0.0000000000000001
 21
1.0
 31
0.0
 73
     1
 44
1.0
1001
ACAD
1000
MTEXTBEGIN
1070
    73
1070
     1
1070
    44
1040
1.0
1070
    74
1070
     0
1000
MTEXTEND
  0
POINT
  5
315
330
30D
100
AcDbEntity
  8
Defpoints
 62
     0
100
AcDbPoint
 10
3.056146127432157
 20
-1537.303830776325
 30
0.0
  0
POINT
  5
317
330
30D
100
AcDbEntity
  8
Defpoints
 62
     0
100
AcDbPoint
 10
4.056146127432157
 20
-1492.303830776325
 30
0.0
  0
POINT
  5
318
330
30D
100
AcDbEntity
  8
Defpoints
 62
     0
100
AcDbPoint
 10
33.71040981068109
 20
-1492.303830776325
 30
0.0
  0
ENDBLK
  5
319
330
30D
100
AcDbEntity
  8
0
 62
     0
100
AcDbBlockEnd
  0
BLOCK
  5
31F
330
31E
100
AcDbEntity
  8
0
 62
     0
100
AcDbBlockBegin
  2
*D14
 70
     1
 10
0.0
 20
0.0
 30
0.0
  3
*D14
  1

  0
LINE
  5
320
330
31E
100
AcDbEntity
  8
SUNPO
100
AcDbLine
 10
6.056146127431929
 20
-1532.303830776325
 30
0.0
 11
24.44637036447966
 21
-1532.303830776325
 31
0.0
  0
LINE
  5
321
330
31E
100
AcDbEntity
  8
SUNPO
100
AcDbLine
 10
4.056146127432157
 20
-1537.303830776325
 30
0.0
 11
24.44637036447966
 21
-1537.303830776325
 31
0.0
  0
LINE
  5
322
330
31E
100
AcDbEntity
  8
SUNPO
100
AcDbLine
 10
23.44637036447966
 20
-1529.303830776325
 30
0.0
 11
23.44637036447966
 21
-1526.303830776325
 31
0.0
  0
LINE
  5
323
330
31E
100
AcDbEntity
  8
SUNPO
100
AcDbLine
 10
23.44637036447966
 20
-1540.303830776325
 30
0.0
 11
23.44637036447966
 21
-1543.303830776326
 31
0.0
  0
MTEXT
  5
324
330
31E
100
AcDbEntity
  8
SUNPO
 62
     7
100
AcDbMText
 10
19.95213140576197
 20
-1541.809967017707
 30
0.0
 40
4.0
 41
0.0
 71
     5
 72
     1
  1
\A1;5
  7
K1
 11
0.0000000000000001
 21
1.0
 31
0.0
 73
     1
 44
1.0
1001
ACAD
1000
MTEXTBEGIN
1070
    73
1070
     1
1070
    44
1040
1.0
1070
    74
1070
     0
1000
MTEXTEND
  0
LINE
  5
325
330
31E
100
AcDbEntity
  8
SUNPO
100
AcDbLine
 10
23.44637036447966
 20
-1532.303830776325
 30
0.0
 11
23.44637036447966
 21
-1537.303830776325
 31
0.0
  0
INSERT
  5
326
330
31E
100
AcDbEntity
  8
SUNPO
100
AcDbBlockReference
  2
_Open30
 10
23.44637036447966
 20
-1532.303830776325
 30
0.0
 41
3.0
 42
3.0
 43
3.0
 50
270.0
  0
INSERT
  5
327
330
31E
100
AcDbEntity
  8
SUNPO
100
AcDbBlockReference
  2
_Open30
 10
23.44637036447966
 20
-1537.303830776325
 30
0.0
 41
3.0
 42
3.0
 43
3.0
 50
90.0
  0
POINT
  5
328
330
31E
100
AcDbEntity
  8
Defpoints
 62
     0
100
AcDbPoint
 10
5.056146127431929
 20
-1532.303830776325
 30
0.0
  0
POINT
  5
329
330
31E
100
AcDbEntity
  8
Defpoints
 62
     0
100
AcDbPoint
 10
3.056146127432157
 20
-1537.303830776325
 30
0.0
  0
POINT
  5
32A
330
31E
100
AcDbEntity
  8
Defpoints
 62
     0
100
AcDbPoint
 10
23.44637036447966
 20
-1537.303830776325
 30
0.0
  0
ENDBLK
  5
32B
330
31E
100
AcDbEntity
  8
0
 62
     0
100
AcDbBlockEnd
  0
BLOCK
  5
32E
330
32D
100
AcDbEntity
  8
0
 62
     0
100
AcDbBlockBegin
  2
*D15
 70
     1
 10
0.0
 20
0.0
 30
0.0
  3
*D15
  1

  0
LINE
  5
32F
330
32D
100
AcDbEntity
  8
SUNPO
100
AcDbLine
 10
4.056146127431929
 20
-1502.303830776326
 30
0.0
 11
24.44637036447967
 21
-1502.303830776326
 31
0.0
  0
LINE
  5
330
330
32D
100
AcDbEntity
  8
SUNPO
100
AcDbLine
 10
5.056146127432157
 20
-1492.303830776325
 30
0.0
 11
24.44637036447967
 21
-1492.303830776325
 31
0.0
  0
LINE
  5
331
330
32D
100
AcDbEntity
  8
SUNPO
100
AcDbLine
 10
23.44637036447966
 20
-1499.303830776326
 30
0.0
 11
23.44637036447967
 21
-1495.303830776325
 31
0.0
  0
INSERT
  5
332
330
32D
100
AcDbEntity
  8
SUNPO
100
AcDbBlockReference
  2
_Open30
 10
23.44637036447966
 20
-1502.303830776326
 30
0.0
 41
3.0
 42
3.0
 43
3.0
 50
270.0
  0
INSERT
  5
333
330
32D
100
AcDbEntity
  8
SUNPO
100
AcDbBlockReference
  2
_Open30
 10
23.44637036447967
 20
-1492.303830776325
 30
0.0
 41
3.0
 42
3.0
 43
3.0
 50
90.0
  0
MTEXT
  5
334
330
32D
100
AcDbEntity
  8
SUNPO
 62
     7
100
AcDbMText
 10
19.94637036447991
 20
-1497.303830776325
 30
0.0
 40
4.0
 41
0.0
 71
     5
 72
     1
  1
\A1;10
  7
K1
 11
0.0000000000000001
 21
1.0
 31
0.0
 73
     1
 44
1.0
1001
ACAD
1000
MTEXTBEGIN
1070
    73
1070
     1
1070
    44
1040
1.0
1070
    74
1070
     0
1000
MTEXTEND
  0
POINT
  5
335
330
32D
100
AcDbEntity
  8
Defpoints
 62
     0
100
AcDbPoint
 10
3.056146127431929
 20
-1502.303830776326
 30
0.0
  0
POINT
  5
336
330
32D
100
AcDbEntity
  8
Defpoints
 62
     0
100
AcDbPoint
 10
4.056146127432157
 20
-1492.303830776325
 30
0.0
  0
POINT
  5
337
330
32D
100
AcDbEntity
  8
Defpoints
 62
     0
100
AcDbPoint
 10
23.44637036447967
 20
-1492.303830776325
 30
0.0
  0
ENDBLK
  5
338
330
32D
100
AcDbEntity
  8
0
 62
     0
100
AcDbBlockEnd
  0
BLOCK
  5
33B
330
33A
100
AcDbEntity
  8
0
 62
     0
100
AcDbBlockBegin
  2
*D16
 70
     1
 10
0.0
 20
0.0
 30
0.0
  3
*D16
  1

  0
LINE
  5
33C
330
33A
100
AcDbEntity
  8
SUNPO
100
AcDbLine
 10
-27.94385387256784
 20
-1537.303830776325
 30
0.0
 11
-27.94385387256784
 21
-1562.383990173044
 31
0.0
  0
LINE
  5
33D
330
33A
100
AcDbEntity
  8
SUNPO
100
AcDbLine
 10
4.056146127432157
 20
-1537.303830776325
 30
0.0
 11
4.056146127432155
 21
-1562.383990173044
 31
0.0
  0
LINE
  5
33E
330
33A
100
AcDbEntity
  8
SUNPO
100
AcDbLine
 10
-24.94385387256784
 20
-1561.383990173044
 30
0.0
 11
1.056146127432155
 21
-1561.383990173044
 31
0.0
  0
INSERT
  5
33F
330
33A
100
AcDbEntity
  8
SUNPO
100
AcDbBlockReference
  2
_Open30
 10
-27.94385387256784
 20
-1561.383990173044
 30
0.0
 41
3.0
 42
3.0
 43
3.0
 50
180.0
  0
INSERT
  5
340
330
33A
100
AcDbEntity
  8
SUNPO
100
AcDbBlockReference
  2
_Open30
 10
4.056146127432155
 20
-1561.383990173044
 30
0.0
 41
3.0
 42
3.0
 43
3.0
  0
MTEXT
  5
341
330
33A
100
AcDbEntity
  8
SUNPO
 62
     7
100
AcDbMText
 10
-11.13529943446337
 20
-1557.883990173044
 30
0.0
 40
4.0
 41
0.0
 71
     5
 72
     1
  1
\A1;32
  7
K1
 73
     1
 44
1.0
1001
ACAD
1000
MTEXTBEGIN
1070
    73
1070
     1
1070
    44
1040
1.0
1070
    74
1070
     0
1000
MTEXTEND
  0
POINT
  5
342
330
33A
100
AcDbEntity
  8
Defpoints
 62
     0
100
AcDbPoint
 10
-27.94385387256784
 20
-1536.303830776325
 30
0.0
  0
POINT
  5
343
330
33A
100
AcDbEntity
  8
Defpoints
 62
     0
100
AcDbPoint
 10
4.056146127432157
 20
-1536.303830776325
 30
0.0
  0
POINT
  5
344
330
33A
100
AcDbEntity
  8
Defpoints
 62
     0
100
AcDbPoint
 10
4.056146127432155
 20
-1561.383990173044
 30
0.0
  0
ENDBLK
  5
345
330
33A
100
AcDbEntity
  8
0
 62
     0
100
AcDbBlockEnd
  0
BLOCK
  5
34A
330
349
100
AcDbEntity
  8
0
 62
     0
100
AcDbBlockBegin
  2
*D17
 70
     1
 10
0.0
 20
0.0
 30
0.0
  3
*D17
  1

  0
LINE
  5
34B
330
349
100
AcDbEntity
  8
SUNPO
100
AcDbLine
 10
-27.94385387256784
 20
-1537.303830776325
 30
0.0
 11
-27.94385387256784
 21
-1553.431061548022
 31
0.0
  0
LINE
  5
34C
330
349
100
AcDbEntity
  8
SUNPO
100
AcDbLine
 10
-21.94385387256807
 20
-1540.303830776325
 30
0.0
 11
-21.94385387256807
 21
-1553.431061548022
 31
0.0
  0
LINE
  5
34D
330
349
100
AcDbEntity
  8
SUNPO
100
AcDbLine
 10
-30.94385387256784
 20
-1552.431061548023
 30
0.0
 11
-33.94385387256785
 21
-1552.431061548023
 31
0.0
  0
LINE
  5
34E
330
349
100
AcDbEntity
  8
SUNPO
100
AcDbLine
 10
-18.94385387256807
 20
-1552.431061548023
 30
0.0
 11
-15.94385387256807
 21
-1552.431061548023
 31
0.0
  0
LINE
  5
34F
330
349
100
AcDbEntity
  8
SUNPO
100
AcDbLine
 10
-27.94385387256784
 20
-1552.431061548023
 30
0.0
 11
-21.94385387256807
 21
-1552.431061548023
 31
0.0
  0
INSERT
  5
350
330
349
100
AcDbEntity
  8
SUNPO
100
AcDbBlockReference
  2
_Open30
 10
-27.94385387256784
 20
-1552.431061548023
 30
0.0
 41
3.0
 42
3.0
 43
3.0
  0
INSERT
  5
351
330
349
100
AcDbEntity
  8
SUNPO
100
AcDbBlockReference
  2
_Open30
 10
-21.94385387256807
 20
-1552.431061548023
 30
0.0
 41
3.0
 42
3.0
 43
3.0
 50
180.0
  0
MTEXT
  5
352
330
349
100
AcDbEntity
  8
SUNPO
 62
     7
100
AcDbMText
 10
-24.94385387256796
 20
-1548.931061548023
 30
0.0
 40
4.0
 41
0.0
 71
     5
 72
     1
  1
\A1;6
  7
K1
 73
     1
 44
1.0
1001
ACAD
1000
MTEXTBEGIN
1070
    73
1070
     1
1070
    44
1040
1.0
1070
    74
1070
     0
1000
MTEXTEND
  0
POINT
  5
353
330
349
100
AcDbEntity
  8
Defpoints
 62
     0
100
AcDbPoint
 10
-27.94385387256784
 20
-1536.303830776325
 30
0.0
  0
POINT
  5
354
330
349
100
AcDbEntity
  8
Defpoints
 62
     0
100
AcDbPoint
 10
-21.94385387256807
 20
-1539.303830776326
 30
0.0
  0
POINT
  5
355
330
349
100
AcDbEntity
  8
Defpoints
 62
     0
100
AcDbPoint
 10
-21.94385387256807
 20
-1552.431061548023
 30
0.0
  0
ENDBLK
  5
356
330
349
100
AcDbEntity
  8
0
 62
     0
100
AcDbBlockEnd
  0
BLOCK
  5
35B
330
35A
100
AcDbEntity
  8
0
 62
     0
100
AcDbBlockBegin
  2
*D18
 70
     1
 10
0.0
 20
0.0
 30
0.0
  3
*D18
  1

  0
LINE
  5
35C
330
35A
100
AcDbEntity
  8
SUNPO
100
AcDbLine
 10
-21.94385387256807
 20
-1540.303830776325
 30
0.0
 11
-21.94385387256807
 21
-1553.431061548022
 31
0.0
  0
LINE
  5
35D
330
35A
100
AcDbEntity
  8
SUNPO
100
AcDbLine
 10
-1.94385387256807
 20
-1540.303830776325
 30
0.0
 11
-1.94385387256807
 21
-1553.431061548022
 31
0.0
  0
LINE
  5
35E
330
35A
100
AcDbEntity
  8
SUNPO
100
AcDbLine
 10
-18.94385387256807
 20
-1552.431061548023
 30
0.0
 11
-4.94385387256807
 21
-1552.431061548023
 31
0.0
  0
INSERT
  5
35F
330
35A
100
AcDbEntity
  8
SUNPO
100
AcDbBlockReference
  2
_Open30
 10
-21.94385387256807
 20
-1552.431061548023
 30
0.0
 41
3.0
 42
3.0
 43
3.0
 50
180.0
  0
INSERT
  5
360
330
35A
100
AcDbEntity
  8
SUNPO
100
AcDbBlockReference
  2
_Open30
 10
-1.94385387256807
 20
-1552.431061548023
 30
0.0
 41
3.0
 42
3.0
 43
3.0
  0
MTEXT
  5
361
330
35A
100
AcDbEntity
  8
SUNPO
 62
     7
100
AcDbMText
 10
-11.94385387256807
 20
-1548.931061548023
 30
0.0
 40
4.0
 41
0.0
 71
     5
 72
     1
  1
\A1;20
  7
K1
 73
     1
 44
1.0
1001
ACAD
1000
MTEXTBEGIN
1070
    73
1070
     1
1070
    44
1040
1.0
1070
    74
1070
     0
1000
MTEXTEND
  0
POINT
  5
362
330
35A
100
AcDbEntity
  8
Defpoints
 62
     0
100
AcDbPoint
 10
-21.94385387256807
 20
-1539.303830776326
 30
0.0
  0
POINT
  5
363
330
35A
100
AcDbEntity
  8
Defpoints
 62
     0
100
AcDbPoint
 10
-1.94385387256807
 20
-1539.303830776326
 30
0.0
  0
POINT
  5
364
330
35A
100
AcDbEntity
  8
Defpoints
 62
     0
100
AcDbPoint
 10
-1.94385387256807
 20
-1552.431061548023
 30
0.0
  0
ENDBLK
  5
365
330
35A
100
AcDbEntity
  8
0
 62
     0
100
AcDbBlockEnd
  0
BLOCK
  5
36A
330
369
100
AcDbEntity
  8
0
 62
     0
100
AcDbBlockBegin
  2
*D19
 70
     1
 10
0.0
 20
0.0
 30
0.0
  3
*D19
  1

  0
LINE
  5
36B
330
369
100
AcDbEntity
  8
SUNPO
100
AcDbLine
 10
-196.1900267297549
 20
-1480.303830776325
 30
0.0
 11
-196.1900267297549
 21
-1471.398237838586
 31
0.0
  0
LINE
  5
36C
330
369
100
AcDbEntity
  8
SUNPO
100
AcDbLine
 10
-177.190026729821
 20
-1527.256521969784
 30
0.0
 11
-177.190026729821
 21
-1471.398237838586
 31
0.0
  0
LINE
  5
36D
330
369
100
AcDbEntity
  8
SUNPO
100
AcDbLine
 10
-193.1900267297549
 20
-1472.398237838586
 30
0.0
 11
-180.190026729821
 21
-1472.398237838586
 31
0.0
  0
INSERT
  5
36E
330
369
100
AcDbEntity
  8
SUNPO
100
AcDbBlockReference
  2
_Open30
 10
-196.1900267297549
 20
-1472.398237838586
 30
0.0
 41
3.0
 42
3.0
 43
3.0
 50
180.0
  0
INSERT
  5
36F
330
369
100
AcDbEntity
  8
SUNPO
100
AcDbBlockReference
  2
_Open30
 10
-177.190026729821
 20
-1472.398237838586
 30
0.0
 41
3.0
 42
3.0
 43
3.0
  0
MTEXT
  5
370
330
369
100
AcDbEntity
  8
SUNPO
 62
     7
100
AcDbMText
 10
-186.690026729788
 20
-1468.898237838586
 30
0.0
 40
4.0
 41
0.0
 71
     5
 72
     1
  1
\A1;19
  7
K1
 73
     1
 44
1.0
1001
ACAD
1000
MTEXTBEGIN
1070
    73
1070
     1
1070
    44
1040
1.0
1070
    74
1070
     0
1000
MTEXTEND
  0
POINT
  5
371
330
369
100
AcDbEntity
  8
Defpoints
 62
     0
100
AcDbPoint
 10
-196.1900267297549
 20
-1481.303830776325
 30
0.0
  0
POINT
  5
372
330
369
100
AcDbEntity
  8
Defpoints
 62
     0
100
AcDbPoint
 10
-177.190026729821
 20
-1528.256521969784
 30
0.0
  0
POINT
  5
373
330
369
100
AcDbEntity
  8
Defpoints
 62
     0
100
AcDbPoint
 10
-177.190026729821
 20
-1472.398237838586
 30
0.0
  0
ENDBLK
  5
374
330
369
100
AcDbEntity
  8
0
 62
     0
100
AcDbBlockEnd
  0
BLOCK
  5
379
330
378
100
AcDbEntity
  8
0
 62
     0
100
AcDbBlockBegin
  2
*D20
 70
     1
 10
0.0
 20
0.0
 30
0.0
  3
*D20
  1

  0
LINE
  5
37A
330
378
100
AcDbEntity
  8
SUNPO
100
AcDbLine
 10
-196.1900267297549
 20
-1480.303830776325
 30
0.0
 11
-196.1900267297549
 21
-1462.178948147668
 31
0.0
  0
LINE
  5
37B
330
378
100
AcDbEntity
  8
SUNPO
100
AcDbLine
 10
-175.5900267298209
 20
-1527.422207394733
 30
0.0
 11
-175.5900267298209
 21
-1462.178948147668
 31
0.0
  0
LINE
  5
37C
330
378
100
AcDbEntity
  8
SUNPO
100
AcDbLine
 10
-193.1900267297549
 20
-1463.178948147668
 30
0.0
 11
-178.5900267298209
 21
-1463.178948147668
 31
0.0
  0
INSERT
  5
37D
330
378
100
AcDbEntity
  8
SUNPO
100
AcDbBlockReference
  2
_Open30
 10
-196.1900267297549
 20
-1463.178948147668
 30
0.0
 41
3.0
 42
3.0
 43
3.0
 50
180.0
  0
INSERT
  5
37E
330
378
100
AcDbEntity
  8
SUNPO
100
AcDbBlockReference
  2
_Open30
 10
-175.5900267298209
 20
-1463.178948147668
 30
0.0
 41
3.0
 42
3.0
 43
3.0
  0
MTEXT
  5
37F
330
378
100
AcDbEntity
  8
SUNPO
 62
     7
100
AcDbMText
 10
-185.8900267297879
 20
-1459.678948147668
 30
0.0
 40
4.0
 41
0.0
 71
     5
 72
     1
  1
\A1;20.6
  7
K1
 73
     1
 44
1.0
1001
ACAD
1000
MTEXTBEGIN
1070
    73
1070
     1
1070
    44
1040
1.0
1070
    74
1070
     0
1000
MTEXTEND
  0
POINT
  5
380
330
378
100
AcDbEntity
  8
Defpoints
 62
     0
100
AcDbPoint
 10
-196.1900267297549
 20
-1481.303830776325
 30
0.0
  0
POINT
  5
381
330
378
100
AcDbEntity
  8
Defpoints
 62
     0
100
AcDbPoint
 10
-175.5900267298209
 20
-1528.422207394733
 30
0.0
  0
POINT
  5
382
330
378
100
AcDbEntity
  8
Defpoints
 62
     0
100
AcDbPoint
 10
-175.5900267298209
 20
-1463.178948147668
 30
0.0
  0
ENDBLK
  5
383
330
378
100
AcDbEntity
  8
0
 62
     0
100
AcDbBlockEnd
  0
BLOCK
  5
388
330
387
100
AcDbEntity
  8
0
 62
     0
100
AcDbBlockBegin
  2
*D21
 70
     1
 10
0.0
 20
0.0
 30
0.0
  3
*D21
  1

  0
LINE
  5
389
330
387
100
AcDbEntity
  8
SUNPO
100
AcDbLine
 10
-177.190026729821
 20
-1527.256521969784
 30
0.0
 11
-177.190026729821
 21
-1471.398237838586
 31
0.0
  0
LINE
  5
38A
330
387
100
AcDbEntity
  8
SUNPO
100
AcDbLine
 10
-175.5900267298209
 20
-1527.422207394733
 30
0.0
 11
-175.5900267298209
 21
-1471.398237838586
 31
0.0
  0
LINE
  5
38B
330
387
100
AcDbEntity
  8
SUNPO
100
AcDbLine
 10
-180.190026729821
 20
-1472.398237838586
 30
0.0
 11
-183.190026729821
 21
-1472.398237838586
 31
0.0
  0
LINE
  5
38C
330
387
100
AcDbEntity
  8
SUNPO
100
AcDbLine
 10
-172.5900267298209
 20
-1472.398237838586
 30
0.0
 11
-158.5900267298209
 21
-1472.398237838586
 31
0.0
  0
LINE
  5
38D
330
387
100
AcDbEntity
  8
SUNPO
100
AcDbLine
 10
-177.190026729821
 20
-1472.398237838586
 30
0.0
 11
-175.5900267298209
 21
-1472.398237838586
 31
0.0
  0
INSERT
  5
38E
330
387
100
AcDbEntity
  8
SUNPO
100
AcDbBlockReference
  2
_Open30
 10
-177.190026729821
 20
-1472.398237838586
 30
0.0
 41
3.0
 42
3.0
 43
3.0
  0
INSERT
  5
38F
330
387
100
AcDbEntity
  8
SUNPO
100
AcDbBlockReference
  2
_Open30
 10
-175.5900267298209
 20
-1472.398237838586
 30
0.0
 41
3.0
 42
3.0
 43
3.0
 50
180.0
  0
MTEXT
  5
390
330
387
100
AcDbEntity
  8
SUNPO
 62
     7
100
AcDbMText
 10
-164.0900267298209
 20
-1468.898237838586
 30
0.0
 40
4.0
 41
0.0
 71
     5
 72
     1
  1
\A1;t1.6
  7
K1
 73
     1
 44
1.0
1001
ACAD
1000
MTEXTBEGIN
1070
    73
1070
     1
1070
    44
1040
1.0
1070
    74
1070
     0
1000
MTEXTEND
  0
POINT
  5
391
330
387
100
AcDbEntity
  8
Defpoints
 62
     0
100
AcDbPoint
 10
-177.190026729821
 20
-1528.256521969784
 30
0.0
  0
POINT
  5
392
330
387
100
AcDbEntity
  8
Defpoints
 62
     0
100
AcDbPoint
 10
-175.5900267298209
 20
-1528.422207394733
 30
0.0
  0
POINT
  5
393
330
387
100
AcDbEntity
  8
Defpoints
 62
     0
100
AcDbPoint
 10
-175.5900267298209
 20
-1472.398237838586
 30
0.0
  0
ENDBLK
  5
394
330
387
100
AcDbEntity
  8
0
 62
     0
100
AcDbBlockEnd
  0
BLOCK
  5
39A
330
399
100
AcDbEntity
  8
0
 62
     0
100
AcDbBlockBegin
  2
*D22
 70
     1
 10
0.0
 20
0.0
 30
0.0
  3
*D22
  1

  0
LINE
  5
39B
330
399
100
AcDbEntity
  8
SUNPO
100
AcDbLine
 10
-196.1900267297549
 20
-1480.303830776325
 30
0.0
 11
-196.1900267297549
 21
-1462.178948147668
 31
0.0
  0
LINE
  5
39C
330
399
100
AcDbEntity
  8
SUNPO
100
AcDbLine
 10
-216.8007150888987
 20
-1526.803830776326
 30
0.0
 11
-216.8007150888987
 21
-1462.178948147668
 31
0.0
  0
LINE
  5
39D
330
399
100
AcDbEntity
  8
SUNPO
100
AcDbLine
 10
-199.1900267297549
 20
-1463.178948147668
 30
0.0
 11
-213.8007150888987
 21
-1463.178948147668
 31
0.0
  0
INSERT
  5
39E
330
399
100
AcDbEntity
  8
SUNPO
100
AcDbBlockReference
  2
_Open30
 10
-196.1900267297549
 20
-1463.178948147668
 30
0.0
 41
3.0
 42
3.0
 43
3.0
  0
INSERT
  5
39F
330
399
100
AcDbEntity
  8
SUNPO
100
AcDbBlockReference
  2
_Open30
 10
-216.8007150888987
 20
-1463.178948147668
 30
0.0
 41
3.0
 42
3.0
 43
3.0
 50
180.0
  0
MTEXT
  5
3A0
330
399
100
AcDbEntity
  8
SUNPO
 62
     7
100
AcDbMText
 10
-206.4953709093268
 20
-1459.678948147668
 30
0.0
 40
4.0
 41
0.0
 71
     5
 72
     1
  1
\A1;20.6
  7
K1
 73
     1
 44
1.0
1001
ACAD
1000
MTEXTBEGIN
1070
    73
1070
     1
1070
    44
1040
1.0
1070
    74
1070
     0
1000
MTEXTEND
  0
POINT
  5
3A1
330
399
100
AcDbEntity
  8
Defpoints
 62
     0
100
AcDbPoint
 10
-196.1900267297549
 20
-1481.303830776325
 30
0.0
  0
POINT
  5
3A2
330
399
100
AcDbEntity
  8
Defpoints
 62
     0
100
AcDbPoint
 10
-216.8007150888987
 20
-1527.803830776326
 30
0.0
  0
POINT
  5
3A3
330
399
100
AcDbEntity
  8
Defpoints
 62
     0
100
AcDbPoint
 10
-216.8007150888987
 20
-1463.178948147668
 30
0.0
  0
ENDBLK
  5
3A4
330
399
100
AcDbEntity
  8
0
 62
     0
100
AcDbBlockEnd
  0
BLOCK
  5
3A7
330
3A6
100
AcDbEntity
  8
0
 62
     0
100
AcDbBlockBegin
  2
*D23
 70
     1
 10
0.0
 20
0.0
 30
0.0
  3
*D23
  1

  0
LINE
  5
3A8
330
3A6
100
AcDbEntity
  8
SUNPO
100
AcDbLine
 10
-31.01027395384154
 20
-1473.002525329473
 30
0.0
 11
-21.7825602112996
 21
-1482.343918247582
 31
0.0
  0
MTEXT
  5
3A9
330
3A6
100
AcDbEntity
  8
SUNPO
 62
     7
100
AcDbMText
 10
-25.46717345781144
 20
-1473.633583505693
 30
0.0
 40
4.0
 41
0.0
 71
     5
 72
     1
  1
\A1;R11
  7
K1
 11
0.702764738480875
 21
-0.7114223234815642
 31
0.0
 73
     1
 44
1.0
1001
ACAD
1000
MTEXTBEGIN
1070
    73
1070
     1
1070
    44
1040
1.0
1070
    74
1070
     0
1000
MTEXTEND
  0
LINE
  5
3AA
330
3A6
100
AcDbEntity
  8
SUNPO
100
AcDbLine
 10
-11.94385387256795
 20
-1492.303830776323
 30
0.0
 11
-19.6742659958569
 21
-1484.478185218026
 31
0.0
  0
INSERT
  5
3AB
330
3A6
100
AcDbEntity
  8
SUNPO
100
AcDbBlockReference
  2
_Open30
 10
-19.6742659958569
 20
-1484.478185218026
 30
0.0
 41
3.0
 42
3.0
 43
3.0
 50
314.649242382534
  0
POINT
  5
3AC
330
3A6
100
AcDbEntity
  8
Defpoints
 62
     0
100
AcDbPoint
 10
-19.6742659958569
 20
-1484.478185218026
 30
0.0
  0
POINT
  5
3AD
330
3A6
100
AcDbEntity
  8
Defpoints
 62
     0
100
AcDbPoint
 10
-11.94385387256795
 20
-1492.303830776323
 30
0.0
  0
ENDBLK
  5
3AE
330
3A6
100
AcDbEntity
  8
0
 62
     0
100
AcDbBlockEnd
  0
BLOCK
  5
3B3
330
3B2
100
AcDbEntity
  8
0
 62
     0
100
AcDbBlockBegin
  2
*D24
 70
     1
 10
0.0
 20
0.0
 30
0.0
  3
*D24
  1

  0
LINE
  5
3B4
330
3B2
100
AcDbEntity
  8
SUNPO
100
AcDbLine
 10
14.95342994463317
 20
-1475.593071105537
 30
0.0
 11
6.697874389076787
 21
-1475.593071105537
 31
0.0
  0
LINE
  5
3B5
330
3B2
100
AcDbEntity
  8
SUNPO
100
AcDbLine
 10
6.697874389076787
 20
-1475.593071105537
 30
0.0
 11
-3.7530410360946
 21
-1484.961447983398
 31
0.0
  0
MTEXT
  5
3B6
102
{ACAD_XDICTIONARY
360
4D3
102
}
330
3B2
100
AcDbEntity
  8
SUNPO
 62
     7
100
AcDbMText
 10
11.57565216685555
 20
-1472.093071105537
 30
0.0
 40
4.0
 41
0.0
 71
     5
 72
     1
  1
\A1;\U+220516
  7
K1
 73
     1
 44
1.0
1001
ACAD
1000
MTEXTBEGIN
1070
    73
1070
     1
1070
    44
1040
1.0
1070
    74
1070
     0
1000
MTEXTEND
  0
INSERT
  5
3B7
330
3B2
100
AcDbEntity
  8
SUNPO
100
AcDbBlockReference
  2
_Open30
 10
-5.986899082405557
 20
-1486.963916017833
 30
0.0
 41
3.0
 42
3.0
 43
3.0
 50
221.8735857157727
  0
POINT
  5
3B8
330
3B2
100
AcDbEntity
  8
Defpoints
 62
     0
100
AcDbPoint
 10
-5.986899082405557
 20
-1486.963916017833
 30
0.0
  0
POINT
  5
3B9
330
3B2
100
AcDbEntity
  8
Defpoints
 62
     0
100
AcDbPoint
 10
-17.90080866273035
 20
-1497.643745534817
 30
0.0
  0
ENDBLK
  5
3BA
330
3B2
100
AcDbEntity
  8
0
 62
     0
100
AcDbBlockEnd
  0
BLOCK
  5
3BE
330
3BD
100
AcDbEntity
  8
0
 62
     0
100
AcDbBlockBegin
  2
*D25
 70
     1
 10
0.0
 20
0.0
 30
0.0
  3
*D25
  1

  0
LINE
  5
3BF
330
3BD
100
AcDbEntity
  8
SUNPO
100
AcDbLine
 10
-10.94385387256784
 20
-1481.303830776325
 30
0.0
 11
45.30143689767647
 21
-1481.303830776325
 31
0.0
  0
LINE
  5
3C0
330
3BD
100
AcDbEntity
  8
SUNPO
100
AcDbLine
 10
4.056146127432157
 20
-1537.303830776325
 30
0.0
 11
45.30143689767646
 21
-1537.303830776325
 31
0.0
  0
LINE
  5
3C1
330
3BD
100
AcDbEntity
  8
SUNPO
100
AcDbLine
 10
44.30143689767647
 20
-1484.303830776325
 30
0.0
 11
44.30143689767645
 21
-1534.303830776325
 31
0.0
  0
INSERT
  5
3C2
330
3BD
100
AcDbEntity
  8
SUNPO
100
AcDbBlockReference
  2
_Open30
 10
44.30143689767647
 20
-1481.303830776325
 30
0.0
 41
3.0
 42
3.0
 43
3.0
 50
90.0
  0
INSERT
  5
3C3
330
3BD
100
AcDbEntity
  8
SUNPO
100
AcDbBlockReference
  2
_Open30
 10
44.30143689767645
 20
-1537.303830776325
 30
0.0
 41
3.0
 42
3.0
 43
3.0
 50
270.0
  0
MTEXT
  5
3C4
330
3BD
100
AcDbEntity
  8
SUNPO
 62
     7
100
AcDbMText
 10
40.80143689767671
 20
-1509.303830776325
 30
0.0
 40
4.0
 41
0.0
 71
     5
 72
     1
  1
\A1;(56)
  7
K1
 11
0.0000000000000001
 21
1.0
 31
0.0
 73
     1
 44
1.0
1001
ACAD
1000
MTEXTBEGIN
1070
    73
1070
     1
1070
    44
1040
1.0
1070
    74
1070
     0
1000
MTEXTEND
  0
POINT
  5
3C5
330
3BD
100
AcDbEntity
  8
Defpoints
 62
     0
100
AcDbPoint
 10
-11.94385387256784
 20
-1481.303830776325
 30
0.0
  0
POINT
  5
3C6
330
3BD
100
AcDbEntity
  8
Defpoints
 62
     0
100
AcDbPoint
 10
3.056146127432157
 20
-1537.303830776325
 30
0.0
  0
POINT
  5
3C7
330
3BD
100
AcDbEntity
  8
Defpoints
 62
     0
100
AcDbPoint
 10
44.30143689767645
 20
-1537.303830776325
 30
0.0
  0
ENDBLK
  5
3C8
330
3BD
100
AcDbEntity
  8
0
 62
     0
100
AcDbBlockEnd
  0
BLOCK
  5
3CB
330
3CA
100
AcDbEntity
  8
0
 62
     0
100
AcDbBlockBegin
  2
*D26
 70
     1
 10
0.0
 20
0.0
 30
0.0
  3
*D26
  1

  0
LINE
  5
3CC
330
3CA
100
AcDbEntity
  8
SUNPO
100
AcDbLine
 10
4.056146127432157
 20
-1537.303830776325
 30
0.0
 11
45.30143689767645
 21
-1537.303830776325
 31
0.0
  0
LINE
  5
3CD
330
3CA
100
AcDbEntity
  8
SUNPO
100
AcDbLine
 10
40.50599119605613
 20
-1544.303830776324
 30
0.0
 11
45.30143689767645
 21
-1544.303830776324
 31
0.0
  0
LINE
  5
3CE
330
3CA
100
AcDbEntity
  8
SUNPO
100
AcDbLine
 10
44.30143689767645
 20
-1534.303830776325
 30
0.0
 11
44.30143689767645
 21
-1531.303830776326
 31
0.0
  0
LINE
  5
3CF
330
3CA
100
AcDbEntity
  8
SUNPO
100
AcDbLine
 10
44.30143689767645
 20
-1547.303830776324
 30
0.0
 11
44.30143689767645
 21
-1550.303830776324
 31
0.0
  0
LINE
  5
3D0
330
3CA
100
AcDbEntity
  8
SUNPO
100
AcDbLine
 10
44.30143689767645
 20
-1537.303830776325
 30
0.0
 11
44.30143689767645
 21
-1544.303830776324
 31
0.0
  0
INSERT
  5
3D1
330
3CA
100
AcDbEntity
  8
SUNPO
100
AcDbBlockReference
  2
_Open30
 10
44.30143689767645
 20
-1537.303830776325
 30
0.0
 41
3.0
 42
3.0
 43
3.0
 50
270.0
  0
INSERT
  5
3D2
330
3CA
100
AcDbEntity
  8
SUNPO
100
AcDbBlockReference
  2
_Open30
 10
44.30143689767645
 20
-1544.303830776324
 30
0.0
 41
3.0
 42
3.0
 43
3.0
 50
90.0
  0
MTEXT
  5
3D3
330
3CA
100
AcDbEntity
  8
SUNPO
 62
     7
100
AcDbMText
 10
40.8014368976767
 20
-1540.803830776324
 30
0.0
 40
4.0
 41
0.0
 71
     5
 72
     1
  1
\A1;7
  7
K1
 11
0.0000000000000001
 21
1.0
 31
0.0
 73
     1
 44
1.0
1001
ACAD
1000
MTEXTBEGIN
1070
    73
1070
     1
1070
    44
1040
1.0
1070
    74
1070
     0
1000
MTEXTEND
  0
POINT
  5
3D4
330
3CA
100
AcDbEntity
  8
Defpoints
 62
     0
100
AcDbPoint
 10
3.056146127432157
 20
-1537.303830776325
 30
0.0
  0
POINT
  5
3D5
330
3CA
100
AcDbEntity
  8
Defpoints
 62
     0
100
AcDbPoint
 10
39.50599119605613
 20
-1544.303830776324
 30
0.0
  0
POINT
  5
3D6
330
3CA
100
AcDbEntity
  8
Defpoints
 62
     0
100
AcDbPoint
 10
44.30143689767645
 20
-1544.303830776324
 30
0.0
  0
ENDBLK
  5
3D7
330
3CA
100
AcDbEntity
  8
0
 62
     0
100
AcDbBlockEnd
  0
BLOCK
  5
3E0
330
3DF
100
AcDbEntity
  8
0
 62
     0
100
AcDbBlockBegin
  2
*D27
 70
     1
 10
0.0
 20
0.0
 30
0.0
  3
*D27
  1

  0
LINE
  5
3E1
330
3DF
100
AcDbEntity
  8
SUNPO
100
AcDbLine
 10
-19.94385387256807
 20
-1494.303830776326
 30
0.0
 11
-19.94385387256807
 21
-1467.305602723285
 31
0.0
  0
LINE
  5
3E2
330
3DF
100
AcDbEntity
  8
SUNPO
100
AcDbLine
 10
-3.94385387256807
 20
-1494.303830776326
 30
0.0
 11
-3.943853872568068
 21
-1467.305602723285
 31
0.0
  0
LINE
  5
3E3
330
3DF
100
AcDbEntity
  8
SUNPO
100
AcDbLine
 10
-16.94385387256807
 20
-1468.305602723285
 30
0.0
 11
-6.943853872568068
 21
-1468.305602723285
 31
0.0
  0
INSERT
  5
3E4
330
3DF
100
AcDbEntity
  8
SUNPO
100
AcDbBlockReference
  2
_Open30
 10
-19.94385387256807
 20
-1468.305602723285
 30
0.0
 41
3.0
 42
3.0
 43
3.0
 50
180.0
  0
INSERT
  5
3E5
330
3DF
100
AcDbEntity
  8
SUNPO
100
AcDbBlockReference
  2
_Open30
 10
-3.943853872568068
 20
-1468.305602723285
 30
0.0
 41
3.0
 42
3.0
 43
3.0
  0
MTEXT
  5
3E6
330
3DF
100
AcDbEntity
  8
SUNPO
 62
     7
100
AcDbMText
 10
-11.94385387256807
 20
-1464.805602723285
 30
0.0
 40
4.0
 41
0.0
 71
     5
 72
     1
  1
\A1;16
  7
K1
 73
     1
 44
1.0
1001
ACAD
1000
MTEXTBEGIN
1070
    73
1070
     1
1070
    44
1040
1.0
1070
    74
1070
     0
1000
MTEXTEND
  0
POINT
  5
3E7
330
3DF
100
AcDbEntity
  8
Defpoints
 62
     0
100
AcDbPoint
 10
-19.94385387256807
 20
-1495.303830776326
 30
0.0
  0
POINT
  5
3E8
330
3DF
100
AcDbEntity
  8
Defpoints
 62
     0
100
AcDbPoint
 10
-3.94385387256807
 20
-1495.303830776326
 30
0.0
  0
POINT
  5
3E9
330
3DF
100
AcDbEntity
  8
Defpoints
 62
     0
100
AcDbPoint
 10
-3.943853872568068
 20
-1468.305602723285
 30
0.0
  0
ENDBLK
  5
3EA
330
3DF
100
AcDbEntity
  8
0
 62
     0
100
AcDbBlockEnd
  0
BLOCK
  5
3EF
330
3EE
100
AcDbEntity
  8
0
 62
     0
100
AcDbBlockBegin
  2
*D28
 70
     1
 10
0.0
 20
0.0
 30
0.0
  3
*D28
  1

  0
LINE
  5
3F0
330
3EE
100
AcDbEntity
  8
SUNPO
100
AcDbLine
 10
-166.6249076060397
 20
-1544.303830776325
 30
0.0
 11
-146.1018127155803
 21
-1544.303830776325
 31
0.0
  0
LINE
  5
3F1
330
3EE
100
AcDbEntity
  8
SUNPO
100
AcDbLine
 10
-186.9815224060019
 20
-1492.303830776325
 30
0.0
 11
-146.1018127155803
 21
-1492.303830776325
 31
0.0
  0
LINE
  5
3F2
330
3EE
100
AcDbEntity
  8
SUNPO
100
AcDbLine
 10
-147.1018127155803
 20
-1541.303830776325
 30
0.0
 11
-147.1018127155803
 21
-1495.303830776325
 31
0.0
  0
INSERT
  5
3F3
330
3EE
100
AcDbEntity
  8
SUNPO
100
AcDbBlockReference
  2
_Open30
 10
-147.1018127155803
 20
-1544.303830776325
 30
0.0
 41
3.0
 42
3.0
 43
3.0
 50
270.0
  0
INSERT
  5
3F4
330
3EE
100
AcDbEntity
  8
SUNPO
100
AcDbBlockReference
  2
_Open30
 10
-147.1018127155803
 20
-1492.303830776325
 30
0.0
 41
3.0
 42
3.0
 43
3.0
 50
90.0
  0
MTEXT
  5
3F5
330
3EE
100
AcDbEntity
  8
SUNPO
 62
     7
100
AcDbMText
 10
-150.60181271558
 20
-1518.303830776325
 30
0.0
 40
4.0
 41
0.0
 71
     5
 72
     1
  1
\A1;52
  7
K1
 11
0.0000000000000001
 21
1.0
 31
0.0
 73
     1
 44
1.0
1001
ACAD
1000
MTEXTBEGIN
1070
    73
1070
     1
1070
    44
1040
1.0
1070
    74
1070
     0
1000
MTEXTEND
  0
POINT
  5
3F6
330
3EE
100
AcDbEntity
  8
Defpoints
 62
     0
100
AcDbPoint
 10
-167.6249076060397
 20
-1544.303830776325
 30
0.0
  0
POINT
  5
3F7
330
3EE
100
AcDbEntity
  8
Defpoints
 62
     0
100
AcDbPoint
 10
-187.9815224060019
 20
-1492.303830776325
 30
0.0
  0
POINT
  5
3F8
330
3EE
100
AcDbEntity
  8
Defpoints
 62
     0
100
AcDbPoint
 10
-147.1018127155803
 20
-1492.303830776325
 30
0.0
  0
ENDBLK
  5
3F9
330
3EE
100
AcDbEntity
  8
0
 62
     0
100
AcDbBlockEnd
  0
BLOCK
  5
3FE
330
3FD
100
AcDbEntity
  8
0
 62
     0
100
AcDbBlockBegin
  2
*D29
 70
     1
 10
0.0
 20
0.0
 30
0.0
  3
*D29
  1

  0
LINE
  5
3FF
330
3FD
100
AcDbEntity
  8
SUNPO
100
AcDbLine
 10
-168.185338370611
 20
-1532.303830776326
 30
0.0
 11
-156.9302400149099
 21
-1532.303830776326
 31
0.0
  0
LINE
  5
400
330
3FD
100
AcDbEntity
  8
SUNPO
100
AcDbLine
 10
-165.6249076060397
 20
-1544.303830776325
 30
0.0
 11
-156.9302400149099
 21
-1544.303830776325
 31
0.0
  0
LINE
  5
401
330
3FD
100
AcDbEntity
  8
SUNPO
100
AcDbLine
 10
-157.9302400149099
 20
-1535.303830776326
 30
0.0
 11
-157.9302400149099
 21
-1541.303830776325
 31
0.0
  0
INSERT
  5
402
330
3FD
100
AcDbEntity
  8
SUNPO
100
AcDbBlockReference
  2
_Open30
 10
-157.9302400149099
 20
-1532.303830776326
 30
0.0
 41
3.0
 42
3.0
 43
3.0
 50
90.0
  0
INSERT
  5
403
330
3FD
100
AcDbEntity
  8
SUNPO
100
AcDbBlockReference
  2
_Open30
 10
-157.9302400149099
 20
-1544.303830776325
 30
0.0
 41
3.0
 42
3.0
 43
3.0
 50
270.0
  0
MTEXT
  5
404
330
3FD
100
AcDbEntity
  8
SUNPO
 62
     7
100
AcDbMText
 10
-161.4302400149097
 20
-1538.303830776325
 30
0.0
 40
4.0
 41
0.0
 71
     5
 72
     1
  1
\A1;12
  7
K1
 11
0.0000000000000001
 21
1.0
 31
0.0
 73
     1
 44
1.0
1001
ACAD
1000
MTEXTBEGIN
1070
    73
1070
     1
1070
    44
1040
1.0
1070
    74
1070
     0
1000
MTEXTEND
  0
POINT
  5
405
330
3FD
100
AcDbEntity
  8
Defpoints
 62
     0
100
AcDbPoint
 10
-169.185338370611
 20
-1532.303830776326
 30
0.0
  0
POINT
  5
406
330
3FD
100
AcDbEntity
  8
Defpoints
 62
     0
100
AcDbPoint
 10
-166.6249076060397
 20
-1544.303830776325
 30
0.0
  0
POINT
  5
407
330
3FD
100
AcDbEntity
  8
Defpoints
 62
     0
100
AcDbPoint
 10
-157.9302400149099
 20
-1544.303830776325
 30
0.0
  0
ENDBLK
  5
408
330
3FD
100
AcDbEntity
  8
0
 62
     0
100
AcDbBlockEnd
  0
BLOCK
  5
40D
330
40C
100
AcDbEntity
  8
0
 62
     0
100
AcDbBlockBegin
  2
*D30
 70
     1
 10
0.0
 20
0.0
 30
0.0
  3
*D30
  1

  0
LINE
  5
40E
330
40C
100
AcDbEntity
  8
SUNPO
100
AcDbLine
 10
-186.9815224060019
 20
-1492.303830776325
 30
0.0
 11
-156.9302400149099
 21
-1492.303830776325
 31
0.0
  0
LINE
  5
40F
330
40C
100
AcDbEntity
  8
SUNPO
100
AcDbLine
 10
-168.185338370611
 20
-1532.303830776326
 30
0.0
 11
-156.9302400149099
 21
-1532.303830776326
 31
0.0
  0
LINE
  5
410
330
40C
100
AcDbEntity
  8
SUNPO
100
AcDbLine
 10
-157.9302400149099
 20
-1495.303830776325
 30
0.0
 11
-157.9302400149099
 21
-1529.303830776326
 31
0.0
  0
INSERT
  5
411
330
40C
100
AcDbEntity
  8
SUNPO
100
AcDbBlockReference
  2
_Open30
 10
-157.9302400149099
 20
-1492.303830776325
 30
0.0
 41
3.0
 42
3.0
 43
3.0
 50
90.0
  0
INSERT
  5
412
330
40C
100
AcDbEntity
  8
SUNPO
100
AcDbBlockReference
  2
_Open30
 10
-157.9302400149099
 20
-1532.303830776326
 30
0.0
 41
3.0
 42
3.0
 43
3.0
 50
270.0
  0
MTEXT
  5
413
330
40C
100
AcDbEntity
  8
SUNPO
 62
     7
100
AcDbMText
 10
-161.4302400149097
 20
-1512.303830776325
 30
0.0
 40
4.0
 41
0.0
 71
     5
 72
     1
  1
\A1;40
  7
K1
 11
0.0000000000000001
 21
1.0
 31
0.0
 73
     1
 44
1.0
1001
ACAD
1000
MTEXTBEGIN
1070
    73
1070
     1
1070
    44
1040
1.0
1070
    74
1070
     0
1000
MTEXTEND
  0
POINT
  5
414
330
40C
100
AcDbEntity
  8
Defpoints
 62
     0
100
AcDbPoint
 10
-187.9815224060019
 20
-1492.303830776325
 30
0.0
  0
POINT
  5
415
330
40C
100
AcDbEntity
  8
Defpoints
 62
     0
100
AcDbPoint
 10
-169.185338370611
 20
-1532.303830776326
 30
0.0
  0
POINT
  5
416
330
40C
100
AcDbEntity
  8
Defpoints
 62
     0
100
AcDbPoint
 10
-157.9302400149099
 20
-1532.303830776326
 30
0.0
  0
ENDBLK
  5
417
330
40C
100
AcDbEntity
  8
0
 62
     0
100
AcDbBlockEnd
  0
BLOCK
  5
41C
330
41B
100
AcDbEntity
  8
0
 62
     0
100
AcDbBlockBegin
  2
*D31
 70
     1
 10
0.0
 20
0.0
 30
0.0
  3
*D31
  1

  0
LINE
  5
41D
330
41B
100
AcDbEntity
  8
SUNPO
100
AcDbLine
 10
-60.78513944758822
 20
-1508.259795206104
 30
0.0
 11
-38.87625055869819
 21
-1508.259795206104
 31
0.0
  0
LINE
  5
41E
330
41B
100
AcDbEntity
  8
SUNPO
100
AcDbLine
 10
-38.87625055869819
 20
-1508.259795206104
 30
0.0
 11
-24.96668891131822
 21
-1528.011399259282
 31
0.0
  0
MTEXT
  5
41F
330
41B
100
AcDbEntity
  8
SUNPO
 62
     7
100
AcDbMText
 10
-50.580695003144
 20
-1504.759795206104
 30
0.0
 40
4.0
 41
0.0
 71
     5
 72
     1
  1
\A1;2-%%c4.5通
  7
K1
 73
     1
 44
1.0
1001
ACAD
1000
MTEXTBEGIN
1070
    73
1070
     1
1070
    44
1040
1.0
1070
    74
1070
     0
1000
MTEXTEND
  0
INSERT
  5
420
330
41B
100
AcDbEntity
  8
SUNPO
100
AcDbBlockReference
  2
_Open30
 10
-23.23935460346092
 20
-1530.464217269021
 30
0.0
 41
3.0
 42
3.0
 43
3.0
 50
305.1541414250703
  0
POINT
  5
421
330
41B
100
AcDbEntity
  8
Defpoints
 62
     0
100
AcDbPoint
 10
-23.23935460346092
 20
-1530.464217269021
 30
0.0
  0
POINT
  5
422
330
41B
100
AcDbEntity
  8
Defpoints
 62
     0
100
AcDbPoint
 10
-20.64835314167488
 20
-1534.14344428363
 30
0.0
  0
ENDBLK
  5
423
330
41B
100
AcDbEntity
  8
0
 62
     0
100
AcDbBlockEnd
  0
BLOCK
  5
42D
330
42A
100
AcDbEntity
  8
0
100
AcDbBlockBegin
  2
風船フォーマット1
 70
     2
 10
0.0
 20
0.0
 30
0.0
  3
風船フォーマット1
  1

  0
CIRCLE
  5
42E
330
42A
100
AcDbEntity
  8
SUNPO
100
AcDbCircle
 10
0.0
 20
0.0
 30
0.0
 40
7.500000000000027
  0
ATTDEF
  5
42F
330
42A
100
AcDbEntity
  8
SUNPO
 62
     0
100
AcDbText
 10
-0.0000000000090949
 20
0.000000000007276
 30
0.0
 40
6.599999999999999
  1

 41
0.8
  7
K1
 72
     4
 11
-0.0000000000090949
 21
0.000000000007276
 31
0.0
100
AcDbAttributeDefinition
  3
風船番号
  2
1
 70
     0
  0
ENDBLK
  5
430
330
42A
100
AcDbEntity
  8
0
100
AcDbBlockEnd
  0
BLOCK
  5
262
330
261
100
AcDbEntity
  8
0
 62
     0
100
AcDbBlockBegin
  2
HFT-015M50-P1_正面図-A
 70
     0
 10
0.0
 20
0.0
 30
0.0
  3
HFT-015M50-P1_正面図-A
  1

  0
CIRCLE
  5
263
330
261
100
AcDbEntity
  8
K-1
  6
ByBlock
 62
     0
100
AcDbCircle
 10
0.0053441796048901
 20
0.0
 30
0.0
 40
6.0
  0
LINE
  5
264
330
261
100
AcDbEntity
  8
K-1
  6
ByBlock
 62
     0
100
AcDbLine
 10
-5.644700878509183
 20
1.067469363157897
 30
0.0
 11
-1.062125183553462
 21
5.650045058114073
 31
0.0
  0
CIRCLE
  5
265
330
261
100
AcDbEntity
  8
K-1
  6
ByBlock
 62
     6
100
AcDbCircle
 10
0.0053441796048901
 20
0.0
 30
0.0
 40
4.5
  0
CIRCLE
  5
266
330
261
100
AcDbEntity
  8
K-1
  6
ByBlock
 62
     0
100
AcDbCircle
 10
0.0053441796048901
 20
0.0
 30
0.0
 40
5.75
  0
CIRCLE
  5
267
330
261
100
AcDbEntity
  8
K-1
  6
ByBlock
 62
     0
370
    25
100
AcDbCircle
 10
-0.005992537309794
 20
9.994656534401656
 30
0.0
 40
1.55
  0
CIRCLE
  5
268
330
261
100
AcDbEntity
  8
K-1
  6
CENTER
 62
     2
370
    25
100
AcDbCircle
 10
0.0
 20
0.0
 30
0.0
 40
10.00000142801268
  0
CIRCLE
  5
269
330
261
100
AcDbEntity
  8
K-1
  6
ByBlock
 62
     0
370
    25
100
AcDbCircle
 10
-10.00221434567811
 20
-0.0091230852426634
 30
0.0
 40
1.55
  0
CIRCLE
  5
26A
330
261
100
AcDbEntity
  8
K-1
  6
ByBlock
 62
     0
370
    25
100
AcDbCircle
 10
0.0015652739662073
 20
-10.00534489361121
 30
0.0
 40
1.55
  0
CIRCLE
  5
26B
330
261
100
AcDbEntity
  8
K-1
  6
ByBlock
 62
     0
370
    25
100
AcDbCircle
 10
9.997787082334525
 20
-0.0015652739666621
 30
0.0
 40
1.55
  0
LINE
  5
26C
330
261
100
AcDbEntity
  8
K-1
  6
ByBlock
 62
     0
100
AcDbLine
 10
-1.062125183553234
 20
-5.650045058114073
 30
0.0
 11
-5.644700878508956
 21
-1.067469363158352
 31
0.0
  0
LINE
  5
26D
330
261
100
AcDbEntity
  8
K-1
  6
ByBlock
 62
     0
100
AcDbLine
 10
5.655389237718964
 20
-1.067469363158352
 30
0.0
 11
1.072813542763242
 21
-5.650045058114073
 31
0.0
  0
LINE
  5
26E
330
261
100
AcDbEntity
  8
K-1
  6
ByBlock
 62
     0
100
AcDbLine
 10
1.072813542763014
 20
5.650045058114073
 30
0.0
 11
5.655389237718964
 21
1.067469363158352
 31
0.0
  0
CIRCLE
  5
26F
330
261
100
AcDbEntity
  8
K-1
  6
ByBlock
 62
     0
100
AcDbCircle
 10
0.0
 20
0.0
 30
0.0
 40
6.5
  0
CIRCLE
  5
270
330
261
100
AcDbEntity
  8
K-1
  6
ByBlock
 62
     0
100
AcDbCircle
 10
0.0
 20
0.0
 30
0.0
 40
16.25
  0
LINE
  5
271
330
261
100
AcDbEntity
  8
K-1
  6
ByBlock
 62
     0
100
AcDbLine
 10
-16.84072529793184
 20
-13.99999999999454
 30
0.0
 11
-19.48824451001701
 21
-13.99999999999454
 31
0.0
  0
LINE
  5
272
330
261
100
AcDbEntity
  8
K-1
  6
ByBlock
 62
     0
100
AcDbLine
 10
-22.00000000000045
 20
-9.579395990202783
 30
0.0
 11
-22.0
 21
9.579395990203465
 31
0.0
  0
LINE
  5
273
330
261
100
AcDbEntity
  8
K-1
  6
ByBlock
 62
     0
100
AcDbLine
 10
-9.586318867020736
 20
22.0
 30
0.0
 11
9.597007226230289
 21
22.0
 31
0.0
  0
LINE
  5
274
330
261
100
AcDbEntity
  8
K-1
  6
ByBlock
 62
     0
100
AcDbLine
 10
22.0
 20
9.603911460564404
 30
0.0
 11
22.00000000000045
 21
-9.603911460563494
 31
0.0
  0
LINE
  5
275
330
261
100
AcDbEntity
  8
K-1
  6
ByBlock
 62
     0
100
AcDbLine
 10
19.49893286922679
 20
-13.99999999999454
 30
0.0
 11
16.84072529793184
 21
-13.99999999999454
 31
0.0
  0
CIRCLE
  5
276
330
261
100
AcDbEntity
  8
K-1
  6
ByBlock
 62
     0
370
    25
100
AcDbCircle
 10
0.0
 20
0.0
 30
0.0
 40
21.90000065206037
  0
CIRCLE
  5
277
330
261
100
AcDbEntity
  8
K-1
  6
ByBlock
 62
     0
370
    25
100
AcDbCircle
 10
0.0053441796048901
 20
0.0
 30
0.0
 40
14.79999999999984
  0
CIRCLE
  5
278
330
261
100
AcDbEntity
  8
K-1
  6
ByBlock
 62
     0
370
    25
100
AcDbCircle
 10
0.0
 20
0.0
 30
0.0
 40
12.30000116098567
  0
CIRCLE
  5
279
330
261
100
AcDbEntity
  8
K-1
  6
ByBlock
 62
     0
370
    25
100
AcDbCircle
 10
0.0
 20
0.0
 30
0.0
 40
17.30000082544108
  0
LINE
  5
27A
330
261
100
AcDbEntity
  8
K-1
  6
ByBlock
 62
     0
370
    25
100
AcDbLine
 10
-16.93767959997285
 20
-14.49999999999454
 30
0.0
 11
-19.49465582039534
 21
-14.49999999999431
 31
0.0
  0
LINE
  5
27B
330
261
100
AcDbEntity
  8
K-1
  6
ByBlock
 62
     0
370
    25
100
AcDbLine
 10
-19.49465582039511
 20
-14.49999999999409
 30
0.0
 11
-19.49465582039511
 21
-24.99999999999955
 31
0.0
  0
LINE
  5
27C
330
261
100
AcDbEntity
  8
K-1
  6
ByBlock
 62
     0
370
    25
100
AcDbLine
 10
-19.49465582039511
 20
-24.99999999999955
 30
0.0
 11
-14.99465582039511
 21
-33.00000000000137
 31
0.0
  0
LINE
  5
27D
330
261
100
AcDbEntity
  8
K-1
  6
ByBlock
 62
     0
370
    25
100
AcDbLine
 10
-14.99465582039511
 20
-33.00000000000137
 30
0.0
 11
-14.99465582039511
 21
-51.99999999874989
 31
0.0
  0
LINE
  5
27E
330
261
100
AcDbEntity
  8
K-1
  6
ByBlock
 62
     0
100
AcDbLine
 10
-19.99465582039533
 20
-134.0000000000009
 30
0.0
 11
-19.99465582039533
 21
-149.9999999999995
 31
0.0
  0
LINE
  5
27F
330
261
100
AcDbEntity
  8
K-1
  6
ByBlock
 62
     0
100
AcDbLine
 10
20.00534417960557
 20
-149.9999999999995
 30
0.0
 11
20.00534417960557
 21
-133.9999999999982
 31
0.0
  0
ARC
  5
280
330
261
100
AcDbEntity
  8
K-1
  6
ByBlock
 62
     0
100
AcDbCircle
 10
18.00534417960466
 20
-149.9999999999995
 30
0.0
 40
2.0
100
AcDbArc
 50
300.596703689191
 51
359.999999999987
  0
LINE
  5
281
330
261
100
AcDbEntity
  8
K-1
  6
ByBlock
 62
     0
370
    25
100
AcDbLine
 10
16.93767959997376
 20
-14.49999999999454
 30
0.0
 11
19.5053441796058
 21
-14.49999999999431
 31
0.0
  0
LINE
  5
282
330
261
100
AcDbEntity
  8
K-1
  6
ByBlock
 62
     0
370
    25
100
AcDbLine
 10
19.5053441796058
 20
-14.49999999999409
 30
0.0
 11
19.5053441796058
 21
-24.99999999999977
 31
0.0
  0
LINE
  5
283
330
261
100
AcDbEntity
  8
K-1
  6
ByBlock
 62
     0
370
    25
100
AcDbLine
 10
19.5053441796058
 20
-24.99999999999977
 30
0.0
 11
15.0053441796058
 21
-33.00000000000137
 31
0.0
  0
LINE
  5
284
330
261
100
AcDbEntity
  8
K-1
  6
ByBlock
 62
     0
370
    25
100
AcDbLine
 10
15.0053441796058
 20
-33.00000000000137
 30
0.0
 11
15.0053441796058
 21
-51.99999999874989
 31
0.0
  0
LINE
  5
285
330
261
100
AcDbEntity
  8
K-1
  6
ByBlock
 62
     0
100
AcDbLine
 10
20.00534417960557
 20
-134.0000000000009
 30
0.0
 11
16.00534417960648
 21
-125.4101906687715
 31
0.0
  0
ARC
  5
286
330
261
100
AcDbEntity
  8
K-1
  6
ByBlock
 62
     0
100
AcDbCircle
 10
0.0000000000004547
 20
0.0053441796048901
 30
0.0
 40
22.3
100
AcDbArc
 50
220.5765844080386
 51
319.4234155919949
  0
LINE
  5
287
330
261
100
AcDbEntity
  8
K-1
  6
ByBlock
 62
     0
100
AcDbLine
 10
16.00534417960648
 20
-125.4101906687715
 30
0.0
 11
15.00534417963672
 21
-52.00000000000091
 31
0.0
  0
LINE
  5
288
330
261
100
AcDbEntity
  8
K-1
  6
ByBlock
 62
     0
100
AcDbLine
 10
-19.99465582039443
 20
-134.0000000000009
 30
0.0
 11
-15.99465582039442
 21
-125.4101906687699
 31
0.0
  0
LINE
  5
289
330
261
100
AcDbEntity
  8
K-1
  6
ByBlock
 62
     0
100
AcDbLine
 10
-15.99465582039442
 20
-125.4101906687699
 30
0.0
 11
-14.99465582042512
 21
-52.00000000000091
 31
0.0
  0
ARC
  5
28A
330
261
100
AcDbEntity
  8
K-1
  6
ByBlock
 62
     0
100
AcDbCircle
 10
-2.994655820396019
 20
-56.99955371439319
 30
0.0
 40
10.0
100
AcDbArc
 50
180.0
 51
269.9914787089145
  0
LINE
  5
28B
330
261
100
AcDbEntity
  8
K-1
  6
ByBlock
 62
     0
100
AcDbLine
 10
-2.996143066253807
 20
-66.99955360379817
 30
0.0
 11
3.003856933747101
 21
-67.00044595132249
 31
0.0
  0
ARC
  5
28C
330
261
100
AcDbEntity
  8
K-1
  6
ByBlock
 62
     0
100
AcDbCircle
 10
3.00534417960489
 20
-57.0004460619175
 30
0.0
 40
10.0
100
AcDbArc
 50
269.9914787089145
 51
0.0
  0
LINE
  5
28D
330
261
100
AcDbEntity
  8
K-1
  6
ByBlock
 62
     0
100
AcDbLine
 10
-10.99465582039784
 20
-39.79999999875167
 30
0.0
 11
11.0053441796058
 21
-39.79999999875054
 31
0.0
1001
GENIUS_GENREC_14
1002
{
1000
PYDIR
1011
-7.994655820395109
1021
-64.19999999875017
1031
0.0
1002
}
1002
{
1000
PXDIR
1011
8.00534417960489
1021
-39.79999999875008
1031
0.0
1002
}
1002
{
1000
PORI
1011
-7.994655820395109
1021
-39.79999999875008
1031
0.0
1002
}
1002
{
1000
PINS
1011
-7.994655820395109
1021
-39.79999999875008
1031
0.0
1002
}
1002
{
1000
PINS2
1011
8.00534417960489
1021
-64.19999999875017
1031
0.0
1002
}
1002
{
1000
C
1070
     1
1002
}
1001
GENIUS_GENODEF_13
1002
{
1000
HIER
1070
     0
1002
}
1002
{
1000
MANEDIT
1070
     0
1002
}
1002
{
1000
NOSEL
1070
     0
1002
}
1002
{
1000
BEHIND
1070
     0
1002
}
1002
{
1000
OTHER
1070
     0
1002
}
1002
{
1000
REACTOR
1002
}
1001
GENIUS_GENOBJ-N-REC_13
1002
{
1000
OWNER
1000
GEN
1002
}
  0
LINE
  5
291
330
261
100
AcDbEntity
  8
K-1
  6
ByBlock
 62
     0
100
AcDbLine
 10
8.005344179605799
 20
-39.79999999875008
 30
0.0
 11
8.00534417960489
 21
-59.19999999875017
 31
0.0
1001
GENIUS_GENREC_14
1002
{
1000
PYDIR
1011
-7.994655820395109
1021
-64.19999999875017
1031
0.0
1002
}
1002
{
1000
PXDIR
1011
8.00534417960489
1021
-39.79999999875008
1031
0.0
1002
}
1002
{
1000
PORI
1011
-7.994655820395109
1021
-39.79999999875008
1031
0.0
1002
}
1002
{
1000
PINS
1011
-7.994655820395109
1021
-39.79999999875008
1031
0.0
1002
}
1002
{
1000
PINS2
1011
8.00534417960489
1021
-64.19999999875017
1031
0.0
1002
}
1002
{
1000
C
1070
     1
1002
}
1001
GENIUS_GENODEF_13
1002
{
1000
HIER
1070
     0
1002
}
1002
{
1000
MANEDIT
1070
     0
1002
}
1002
{
1000
NOSEL
1070
     0
1002
}
1002
{
1000
BEHIND
1070
     0
1002
}
1002
{
1000
OTHER
1070
     0
1002
}
1002
{
1000
REACTOR
1002
}
1001
GENIUS_GENOBJ-N-REC_13
1002
{
1000
OWNER
1000
GEN
1002
}
  0
ARC
  5
292
330
261
100
AcDbEntity
  8
K-1
  6
ByBlock
 62
     0
100
AcDbCircle
 10
3.00534417960489
 20
-59.19999999875017
 30
0.0
 40
5.0
100
AcDbArc
 50
270.0
 51
0.0
1001
GENIUS_GENREC_14
1002
{
1000
PYDIR
1011
-7.994655820395109
1021
-64.19999999875017
1031
0.0
1002
}
1002
{
1000
PXDIR
1011
8.00534417960489
1021
-39.79999999875008
1031
0.0
1002
}
1002
{
1000
PORI
1011
-7.994655820395109
1021
-39.79999999875008
1031
0.0
1002
}
1002
{
1000
PINS
1011
-7.994655820395109
1021
-39.79999999875008
1031
0.0
1002
}
1002
{
1000
PINS2
1011
8.00534417960489
1021
-64.19999999875017
1031
0.0
1002
}
1002
{
1000
C
1070
     1
1002
}
1001
GENIUS_GENODEF_13
1002
{
1000
HIER
1070
     0
1002
}
1002
{
1000
MANEDIT
1070
     0
1002
}
1002
{
1000
NOSEL
1070
     0
1002
}
1002
{
1000
BEHIND
1070
     0
1002
}
1002
{
1000
OTHER
1070
     0
1002
}
1002
{
1000
REACTOR
1002
}
1001
GENIUS_GENOBJ-N-REC_13
1002
{
1000
OWNER
1000
GEN
1002
}
  0
LINE
  5
293
330
261
100
AcDbEntity
  8
K-1
  6
ByBlock
 62
     0
100
AcDbLine
 10
3.00534417960489
 20
-64.19999999875017
 30
0.0
 11
-2.994655820395109
 21
-64.19999999875017
 31
0.0
1001
GENIUS_GENREC_14
1002
{
1000
PYDIR
1011
-7.994655820395109
1021
-64.19999999875017
1031
0.0
1002
}
1002
{
1000
PXDIR
1011
8.00534417960489
1021
-39.79999999875008
1031
0.0
1002
}
1002
{
1000
PORI
1011
-7.994655820395109
1021
-39.79999999875008
1031
0.0
1002
}
1002
{
1000
PINS
1011
-7.994655820395109
1021
-39.79999999875008
1031
0.0
1002
}
1002
{
1000
PINS2
1011
8.00534417960489
1021
-64.19999999875017
1031
0.0
1002
}
1002
{
1000
C
1070
     1
1002
}
1001
GENIUS_GENODEF_13
1002
{
1000
HIER
1070
     0
1002
}
1002
{
1000
MANEDIT
1070
     0
1002
}
1002
{
1000
NOSEL
1070
     0
1002
}
1002
{
1000
BEHIND
1070
     0
1002
}
1002
{
1000
OTHER
1070
     0
1002
}
1002
{
1000
REACTOR
1002
}
1001
GENIUS_GENOBJ-N-REC_13
1002
{
1000
OWNER
1000
GEN
1002
}
  0
ARC
  5
294
330
261
100
AcDbEntity
  8
K-1
  6
ByBlock
 62
     0
100
AcDbCircle
 10
-2.994655820395109
 20
-59.19999999875017
 30
0.0
 40
5.0
100
AcDbArc
 50
179.999999999987
 51
270.0
1001
GENIUS_GENREC_14
1002
{
1000
PYDIR
1011
-7.994655820395109
1021
-64.19999999875017
1031
0.0
1002
}
1002
{
1000
PXDIR
1011
8.00534417960489
1021
-39.79999999875008
1031
0.0
1002
}
1002
{
1000
PORI
1011
-7.994655820395109
1021
-39.79999999875008
1031
0.0
1002
}
1002
{
1000
PINS
1011
-7.994655820395109
1021
-39.79999999875008
1031
0.0
1002
}
1002
{
1000
PINS2
1011
8.00534417960489
1021
-64.19999999875017
1031
0.0
1002
}
1002
{
1000
C
1070
     1
1002
}
1001
GENIUS_GENODEF_13
1002
{
1000
HIER
1070
     0
1002
}
1002
{
1000
MANEDIT
1070
     0
1002
}
1002
{
1000
NOSEL
1070
     0
1002
}
1002
{
1000
BEHIND
1070
     0
1002
}
1002
{
1000
OTHER
1070
     0
1002
}
1002
{
1000
REACTOR
1002
}
1001
GENIUS_GENOBJ-N-REC_13
1002
{
1000
OWNER
1000
GEN
1002
}
  0
LINE
  5
295
330
261
100
AcDbEntity
  8
K-1
  6
ByBlock
 62
     0
100
AcDbLine
 10
-7.994655820395109
 20
-59.19999999874971
 30
0.0
 11
-7.9946558203942
 21
-39.79999999875008
 31
0.0
1001
GENIUS_GENREC_14
1002
{
1000
PYDIR
1011
-7.994655820395109
1021
-64.19999999875017
1031
0.0
1002
}
1002
{
1000
PXDIR
1011
8.00534417960489
1021
-39.79999999875008
1031
0.0
1002
}
1002
{
1000
PORI
1011
-7.994655820395109
1021
-39.79999999875008
1031
0.0
1002
}
1002
{
1000
PINS
1011
-7.994655820395109
1021
-39.79999999875008
1031
0.0
1002
}
1002
{
1000
PINS2
1011
8.00534417960489
1021
-64.19999999875017
1031
0.0
1002
}
1002
{
1000
C
1070
     1
1002
}
1001
GENIUS_GENODEF_13
1002
{
1000
HIER
1070
     0
1002
}
1002
{
1000
MANEDIT
1070
     0
1002
}
1002
{
1000
NOSEL
1070
     0
1002
}
1002
{
1000
BEHIND
1070
     0
1002
}
1002
{
1000
OTHER
1070
     0
1002
}
1002
{
1000
REACTOR
1002
}
1001
GENIUS_GENOBJ-N-REC_13
1002
{
1000
OWNER
1000
GEN
1002
}
  0
ARC
  5
296
330
261
100
AcDbEntity
  8
K-1
  6
ByBlock
 62
     6
100
AcDbCircle
 10
-2.994655820396019
 20
-59.63650875450321
 30
0.0
 40
10.0
100
AcDbArc
 50
180.0
 51
269.9914787089145
  0
LINE
  5
297
330
261
100
AcDbEntity
  8
K-1
  6
ByBlock
 62
     6
100
AcDbLine
 10
-2.996143066253807
 20
-69.6365086439082
 30
0.0
 11
3.003856933747101
 21
-69.63740099143251
 31
0.0
  0
ARC
  5
298
330
261
100
AcDbEntity
  8
K-1
  6
ByBlock
 62
     6
100
AcDbCircle
 10
3.00534417960489
 20
-59.63740110202753
 30
0.0
 40
10.0
100
AcDbArc
 50
269.9914787089145
 51
0.0
  0
CIRCLE
  5
299
330
261
100
AcDbEntity
  8
K-1
  6
HIDDEN
 62
     3
100
AcDbCircle
 10
0.0053441796048901
 20
-51.99999999874989
 30
0.0
 40
3.0
  0
LINE
  5
29A
330
261
100
AcDbEntity
  8
K-1
  6
HIDDEN
 62
     3
100
AcDbLine
 10
8.005344179605799
 20
-39.79999999875008
 30
0.0
 11
8.00534417960489
 21
-38.4999999987499
 31
0.0
  0
LINE
  5
29B
330
261
100
AcDbEntity
  8
K-1
  6
HIDDEN
 62
     3
100
AcDbLine
 10
-7.9946558203942
 20
-39.79999999875008
 30
0.0
 11
-7.994655820392381
 21
-38.4999999987499
 31
0.0
  0
LINE
  5
29C
330
261
100
AcDbEntity
  8
K-1
  6
HIDDEN
 62
     3
100
AcDbLine
 10
-7.994655820392381
 20
-38.4999999987499
 30
0.0
 11
8.00534417960489
 21
-38.4999999987499
 31
0.0
  0
LINE
  5
29D
330
261
100
AcDbEntity
  8
K-1
  6
HIDDEN
 62
     3
100
AcDbLine
 10
-4.494655820396019
 20
-63.96969600583452
 30
0.0
 11
-4.494655820395109
 21
-65.49999999874649
 31
0.0
  0
LINE
  5
29E
330
261
100
AcDbEntity
  8
K-1
  6
HIDDEN
 62
     3
100
AcDbLine
 10
-4.494655820395109
 20
-65.49999999874649
 30
0.0
 11
4.505344179603071
 21
-65.49999999874649
 31
0.0
  0
LINE
  5
29F
330
261
100
AcDbEntity
  8
K-1
  6
HIDDEN
 62
     3
100
AcDbLine
 10
4.505344179603071
 20
-65.49999999874649
 30
0.0
 11
4.505344179607618
 21
-63.96969600583384
 31
0.0
  0
LINE
  5
2A0
330
261
100
AcDbEntity
  8
K-1
  6
CENTERS
 62
     2
100
AcDbLine
 10
-6.994655820395109
 20
-51.99999999874944
 30
0.0
 11
7.00534417960489
 21
-51.99999999874944
 31
0.0
  0
LINE
  5
2A1
330
261
100
AcDbEntity
  8
K-1
  6
ByBlock
 62
     0
100
AcDbLine
 10
11.0053441796058
 20
-28.00000000001001
 30
0.0
 11
11.0053441796058
 21
-39.79999999875008
 31
0.0
  0
LINE
  5
2A2
330
261
100
AcDbEntity
  8
K-1
  6
ByBlock
 62
     0
100
AcDbLine
 10
11.0053441796058
 20
-28.00000000001001
 30
0.0
 11
15.53342905491536
 21
-28.00000000001001
 31
0.0
  0
LINE
  5
2A3
330
261
100
AcDbEntity
  8
K-1
  6
ByBlock
 62
     0
100
AcDbLine
 10
-10.99465582039784
 20
-28.00534417960421
 30
0.0
 11
-10.99465582039784
 21
-39.79999999875167
 31
0.0
  0
LINE
  5
2A4
330
261
100
AcDbEntity
  8
K-1
  6
ByBlock
 62
     0
370
    25
100
AcDbLine
 10
3.005344179603753
 20
-156.4627424169703
 30
0.0
 11
10.45826793008586
 21
-156.4627424169705
 31
0.0
  0
ARC
  5
2A5
330
261
100
AcDbEntity
  8
K-1
  6
ByBlock
 62
     0
370
    25
100
AcDbCircle
 10
10.45826793008586
 20
-154.4627424169705
 30
0.0
 40
2.0
100
AcDbArc
 50
270.0
 51
285.8749148743879
  0
LINE
  5
2A6
330
261
100
AcDbEntity
  8
K-1
  6
ByBlock
 62
     0
370
    25
100
AcDbLine
 10
-2.994655820396246
 20
-156.4627424169703
 30
0.0
 11
-2.994655820396246
 21
-138.6624242824523
 31
0.0
  0
LINE
  5
2A7
330
261
100
AcDbEntity
  8
K-1
  6
ByBlock
 62
     0
370
    25
100
AcDbLine
 10
-2.994655820396246
 20
-138.6624242824523
 30
0.0
 11
3.005344179603753
 21
-138.6624242824523
 31
0.0
  0
LINE
  5
2A8
330
261
100
AcDbEntity
  8
K-1
  6
ByBlock
 62
     0
370
    25
100
AcDbLine
 10
3.005344179603753
 20
-138.6624242824523
 30
0.0
 11
3.005344179603753
 21
-156.4627424169703
 31
0.0
  0
LINE
  5
2A9
330
261
100
AcDbEntity
  8
K-1
  6
ByBlock
 62
     0
370
    25
100
AcDbLine
 10
3.005344179603753
 20
-155.8299369893334
 30
0.0
 11
-2.994655820396246
 21
-155.8299369893334
 31
0.0
  0
LINE
  5
2AA
330
261
100
AcDbEntity
  8
K-1
  6
ByBlock
 62
     0
370
    25
100
AcDbLine
 10
12.12801682668055
 20
-155.7988828405146
 30
0.0
 11
19.02332796990072
 21
-151.721542622967
 31
0.0
  0
LINE
  5
2AB
330
261
100
AcDbEntity
  8
K-1
  6
ByBlock
 62
     0
370
    25
100
AcDbLine
 10
11.00534417960375
 20
-156.3864647402836
 30
0.0
 11
11.00534417960375
 21
-138.6232508771682
 31
0.0
  0
LINE
  5
2AC
330
261
100
AcDbEntity
  8
K-1
  6
ByBlock
 62
     0
370
    25
100
AcDbLine
 10
11.00534417960375
 20
-138.6232508771682
 30
0.0
 11
14.39406199632799
 21
-138.6232508771682
 31
0.0
  0
ARC
  5
2AD
330
261
100
AcDbEntity
  8
K-1
  6
ByBlock
 62
     0
370
    25
100
AcDbCircle
 10
14.39406199632799
 20
-140.6232508771681
 30
0.0
 40
2.0
100
AcDbArc
 50
0.0
 51
90.0
  0
LINE
  5
2AE
330
261
100
AcDbEntity
  8
K-1
  6
ByBlock
 62
     0
370
    25
100
AcDbLine
 10
16.39406199632799
 20
-140.6232508771681
 30
0.0
 11
16.39406199632799
 21
-151.5649978566384
 31
0.0
  0
LINE
  5
2AF
330
261
100
AcDbEntity
  8
K-1
  6
ByBlock
 62
     0
370
    25
100
AcDbLine
 10
12.12801682668055
 20
-155.7988828405146
 30
0.0
 11
11.00534417960375
 21
-155.7988828405148
 31
0.0
  0
ARC
  5
2B0
330
261
100
AcDbEntity
  8
K-1
  6
ByBlock
 62
     0
370
    25
100
AcDbCircle
 10
13.39406199632799
 20
-151.5649978566384
 30
0.0
 40
3.0
100
AcDbArc
 50
300.596703689191
 51
0.0
  0
ARC
  5
2B1
330
261
100
AcDbEntity
  8
K-1
  6
ByBlock
 62
     0
100
AcDbCircle
 10
-17.99612486032197
 20
-149.9987032613367
 30
0.0
 40
1.999999999999999
100
AcDbArc
 50
179.9958725210634
 51
239.3991688318596
  0
LINE
  5
2B2
330
261
100
AcDbEntity
  8
K-1
  6
ByBlock
 62
     0
370
    25
100
AcDbLine
 10
-2.996590462907761
 20
-156.4625262329948
 30
0.0
 11
-10.44951419405129
 21
-156.4619893385502
 31
0.0
  0
ARC
  5
2B3
330
261
100
AcDbEntity
  8
K-1
  6
ByBlock
 62
     0
370
    25
100
AcDbCircle
 10
-10.44937011785691
 20
-154.4619893437397
 30
0.0
 40
1.999999999999999
100
AcDbArc
 50
254.1209576465995
 51
269.9958725210374
  0
LINE
  5
2B4
330
261
100
AcDbEntity
  8
K-1
  6
ByBlock
 62
     0
370
    25
100
AcDbLine
 10
-12.11921526313358
 20
-155.7980094782838
 30
0.0
 11
-19.01423266463166
 21
-151.7201725462223
 31
0.0
  0
LINE
  5
2B5
330
261
100
AcDbEntity
  8
K-1
  6
ByBlock
 62
     0
370
    25
100
AcDbLine
 10
-10.99658494725076
 20
-156.3856722517293
 30
0.0
 11
-10.99530531912546
 21
-138.6224584347046
 31
0.0
  0
LINE
  5
2B6
330
261
100
AcDbEntity
  8
K-1
  6
ByBlock
 62
     0
370
    25
100
AcDbLine
 10
-10.99530531912546
 20
-138.6224584347046
 30
0.0
 11
-14.38402312705761
 21
-138.6222143179216
 31
0.0
  0
ARC
  5
2B7
330
261
100
AcDbEntity
  8
K-1
  6
ByBlock
 62
     0
370
    25
100
AcDbCircle
 10
-14.38416720325199
 20
-140.6222143127322
 30
0.0
 40
1.999999999999999
100
AcDbArc
 50
89.99587252103742
 51
179.9958725210634
  0
LINE
  5
2B8
330
261
100
AcDbEntity
  8
K-1
  6
ByBlock
 62
     0
370
    25
100
AcDbLine
 10
-16.38416719806241
 20
-140.6220702365381
 30
0.0
 11
-16.38495542069336
 21
-151.5638171876171
 31
0.0
  0
LINE
  5
2B9
330
261
100
AcDbEntity
  8
K-1
  6
ByBlock
 62
     0
370
    25
100
AcDbLine
 10
-12.11921526313358
 20
-155.7980094782838
 30
0.0
 11
-10.99654261896898
 21
-155.7980903534849
 31
0.0
  0
ARC
  5
2BA
330
261
100
AcDbEntity
  8
K-1
  6
ByBlock
 62
     0
370
    25
100
AcDbCircle
 10
-13.38495542847772
 20
-151.5640333019087
 30
0.0
 40
2.999999999999999
100
AcDbArc
 50
179.9958725210634
 51
239.3991688318596
  0
ELLIPSE
  5
2BB
330
261
100
AcDbEntity
  8
K-1
  6
ByBlock
 62
     6
370
    25
100
AcDbEllipse
 10
0.0083460557784747
 20
-125.4101906687706
 30
0.0
 11
-15.99699812382823
 21
0.0
 31
0.0
210
0.0
220
0.0
230
1.0
 40
0.2062459062715432
 41
0.0
 42
3.141592653589793
  0
LINE
  5
2BC
330
261
100
AcDbEntity
  8
K-1
  6
ByBlock
 62
     6
370
    25
100
AcDbLine
 10
-14.38402312705671
 20
-138.6222143179216
 30
0.0
 11
-19.99465582039443
 21
-134.0000000000009
 31
0.0
  0
LINE
  5
2BD
330
261
100
AcDbEntity
  8
K-1
  6
ByBlock
 62
     6
370
    25
100
AcDbLine
 10
14.39406199632799
 20
-138.6232508771682
 30
0.0
 11
20.00534417960557
 21
-133.9999999999982
 31
0.0
  0
ELLIPSE
  5
2BE
330
261
100
AcDbEntity
  8
K-1
  6
ByBlock
 62
     0
100
AcDbEllipse
 10
0.0053441796051175
 20
19.84779163986377
 30
0.0
 11
-2.050000000000181
 21
0.0
 31
0.0
210
0.0
220
0.0
230
1.0
 40
0.3639702342664626
 41
0.0
 42
6.283185307179586
  0
ELLIPSE
  5
2BF
330
261
100
AcDbEntity
  8
K-1
  6
ByBlock
 62
     0
100
AcDbEllipse
 10
-19.8424474602582
 20
-0.0000000000009095
 30
0.0
 11
-0.0000000000000006
 21
-2.050000000000181
 31
0.0
210
0.0
220
0.0
230
1.0
 40
0.3639702342664626
 41
0.0
 42
6.283185307179586
  0
ELLIPSE
  5
2C0
330
261
100
AcDbEntity
  8
K-1
  6
ByBlock
 62
     0
100
AcDbEllipse
 10
0.0053441796069365
 20
-19.84779163986331
 30
0.0
 11
2.050000000000181
 21
-0.0000000000000012
 31
0.0
210
0.0
220
0.0
230
1.0
 40
0.3639702342664626
 41
0.0
 42
6.283185307179586
  0
ELLIPSE
  5
2C1
330
261
100
AcDbEntity
  8
K-1
  6
ByBlock
 62
     0
100
AcDbEllipse
 10
19.85313581946934
 20
0.0000000000009095
 30
0.0
 11
0.0000000000000022
 21
2.050000000000181
 31
0.0
210
0.0
220
0.0
230
1.0
 40
0.3639702342664626
 41
0.0
 42
6.283185307179586
  0
ARC
  5
2C2
330
261
100
AcDbEntity
  8
K-1
  6
ByBlock
 62
     0
370
    25
100
AcDbCircle
 10
0.0053441796048901
 20
0.0
 30
0.0
 40
24.0
100
AcDbArc
 50
23.58836738430106
 51
66.4435356909021
  0
ARC
  5
2C3
330
261
100
AcDbEntity
  8
K-1
  6
ByBlock
 62
     0
370
    25
100
AcDbCircle
 10
0.0053441796048901
 20
0.0
 30
0.0
 40
24.0
100
AcDbArc
 50
113.5564643090979
 51
156.4754795629348
  0
ARC
  5
2C4
330
261
100
AcDbEntity
  8
K-1
  6
ByBlock
 62
     0
370
    25
100
AcDbCircle
 10
0.0053441796048901
 20
0.0
 30
0.0
 40
24.0
100
AcDbArc
 50
203.5245204370652
 51
215.6853347126465
  0
ARC
  5
2C5
330
261
100
AcDbEntity
  8
K-1
  6
ByBlock
 62
     0
370
    25
100
AcDbCircle
 10
0.0053441796048901
 20
0.0
 30
0.0
 40
24.0
100
AcDbArc
 50
324.3146652873535
 51
336.4116326157128
  0
LINE
  5
2C6
330
261
100
AcDbEntity
  8
K-1
  6
HIDDEN
 62
     3
100
AcDbLine
 10
22.00534417793597
 20
5.999999999999317
 30
0.0
 11
19.00534417953895
 21
5.999999999999317
 31
0.0
  0
LINE
  5
2C7
330
261
100
AcDbEntity
  8
K-1
  6
HIDDEN
 62
     3
100
AcDbLine
 10
19.00534417953849
 20
9.99999999999909
 30
0.0
 11
14.9719737266596
 21
9.99999999999909
 31
0.0
  0
LINE
  5
2C8
330
261
100
AcDbEntity
  8
K-1
  6
HIDDEN
 62
     3
100
AcDbLine
 10
19.00534417953849
 20
10.39999999999895
 30
0.0
 11
14.69683831732846
 21
10.39999999999895
 31
0.0
  0
LINE
  5
2C9
330
261
100
AcDbEntity
  8
K-1
  6
HIDDEN
 62
     3
100
AcDbLine
 10
19.00534417953849
 20
13.99999999999909
 30
0.0
 11
13.0053441795385
 21
13.99999999999886
 31
0.0
  0
LINE
  5
2CA
330
261
100
AcDbEntity
  8
K-1
  6
HIDDEN
 62
     3
100
AcDbLine
 10
19.00534417953849
 20
13.59999999999923
 30
0.0
 11
11.79686655793648
 21
13.599999999999
 31
0.0
  0
LINE
  5
2CB
330
261
100
AcDbEntity
  8
K-1
  6
HIDDEN
 62
     3
100
AcDbLine
 10
19.00534417953895
 20
5.999999999999317
 30
0.0
 11
19.00534417953849
 21
14.66287829841326
 31
0.0
  0
LINE
  5
2CC
330
261
100
AcDbEntity
  8
K-1
  6
HIDDEN
 62
     3
100
AcDbLine
 10
13.0053441795385
 20
12.44989959800523
 30
0.0
 11
13.0053441795385
 21
13.99999999999886
 31
0.0
  0
LINE
  5
2CD
330
261
100
AcDbEntity
  8
K-1
  6
HIDDEN
 62
     3
370
    25
100
AcDbLine
 10
13.0053441795385
 20
13.99999999999909
 30
0.0
 11
12.31252385651123
 21
13.59999999999923
 31
0.0
  0
LINE
  5
2CE
330
261
100
AcDbEntity
  8
K-1
  6
HIDDEN
 62
     3
100
AcDbLine
 10
-21.99465581872619
 20
5.999999999999317
 30
0.0
 11
-18.99465582032917
 21
5.999999999999545
 31
0.0
  0
LINE
  5
2CF
330
261
100
AcDbEntity
  8
K-1
  6
HIDDEN
 62
     3
100
AcDbLine
 10
-18.99465582032872
 20
9.999999999999317
 30
0.0
 11
-14.96128536744982
 21
9.99999999999909
 31
0.0
  0
LINE
  5
2D0
330
261
100
AcDbEntity
  8
K-1
  6
HIDDEN
 62
     3
100
AcDbLine
 10
-18.99465582032872
 20
10.39999999999918
 30
0.0
 11
-14.68614995811867
 21
10.39999999999895
 31
0.0
  0
LINE
  5
2D1
330
261
100
AcDbEntity
  8
K-1
  6
HIDDEN
 62
     3
100
AcDbLine
 10
-18.99465582032872
 20
13.99999999999932
 30
0.0
 11
-12.99465582032871
 21
13.99999999999909
 31
0.0
  0
LINE
  5
2D2
330
261
100
AcDbEntity
  8
K-1
  6
HIDDEN
 62
     3
100
AcDbLine
 10
-18.99465582032872
 20
13.59999999999923
 30
0.0
 11
-11.7861781987267
 21
13.599999999999
 31
0.0
  0
LINE
  5
2D3
330
261
100
AcDbEntity
  8
K-1
  6
HIDDEN
 62
     3
100
AcDbLine
 10
-18.99465582032917
 20
5.999999999999545
 30
0.0
 11
-18.99465582032872
 21
14.66287829841349
 31
0.0
  0
LINE
  5
2D4
330
261
100
AcDbEntity
  8
K-1
  6
HIDDEN
 62
     3
100
AcDbLine
 10
-12.99465582032871
 20
12.44989959800546
 30
0.0
 11
-12.99465582032871
 21
13.99999999999909
 31
0.0
  0
LINE
  5
2D5
330
261
100
AcDbEntity
  8
K-1
  6
HIDDEN
 62
     3
370
    25
100
AcDbLine
 10
-12.99465582032871
 20
13.99999999999932
 30
0.0
 11
-12.30183549730145
 21
13.59999999999923
 31
0.0
  0
LINE
  5
2D6
330
261
100
AcDbEntity
  8
K-1
  6
ByBlock
 62
     0
370
    25
100
AcDbLine
 10
-23.98931164079022
 20
-27.00534417960421
 30
0.0
 11
-21.67991056403116
 21
-31.00534417960398
 31
0.0
  0
LINE
  5
2D7
330
261
100
AcDbEntity
  8
K-1
  6
ByBlock
 62
     0
100
AcDbLine
 10
19.01068835920978
 20
-25.87938812514813
 30
0.0
 11
19.01068835920978
 21
-27.00534417960444
 31
0.0
  0
LINE
  5
2D8
330
261
100
AcDbEntity
  8
K-1
  6
ByBlock
 62
     0
370
    25
100
AcDbLine
 10
-19.49164971936761
 20
-25.00534417960398
 30
0.0
 11
-23.48931164079022
 21
-25.00534417960398
 31
0.0
  0
LINE
  5
2D9
330
261
100
AcDbEntity
  8
K-1
  6
ByBlock
 62
     0
370
    25
100
AcDbLine
 10
16.41261214785663
 20
-31.00534417960421
 30
0.0
 11
16.12733807857876
 21
-31.00534417960421
 31
0.0
  0
LINE
  5
2DA
330
261
100
AcDbEntity
  8
K-1
  6
ByBlock
 62
     0
370
    25
100
AcDbLine
 10
-16.11664971936852
 20
-31.00534417960398
 30
0.0
 11
-21.67991056403116
 21
-31.00534417960398
 31
0.0
  0
LINE
  5
2DB
330
261
100
AcDbEntity
  8
K-1
  6
ByBlock
 62
     0
100
AcDbLine
 10
-23.98931164079022
 20
-25.50534417960421
 30
0.0
 11
-23.98931164079022
 21
-27.00534417960421
 31
0.0
  0
ARC
  5
2DC
330
261
100
AcDbEntity
  8
K-1
  6
ByBlock
 62
     0
100
AcDbCircle
 10
-23.48931164079022
 20
-25.50534417960421
 30
0.0
 40
0.5
100
AcDbArc
 50
90.0
 51
180.0
  0
ARC
  5
2DD
330
261
100
AcDbEntity
  8
K-1
  6
ByBlock
 62
     0
370
    25
100
AcDbCircle
 10
-21.39123542943707
 20
-30.50534417960489
 30
0.0
 40
0.5
100
AcDbArc
 50
209.99999999994
 51
270.0
  0
LINE
  5
2DE
330
261
100
AcDbEntity
  8
K-1
  6
ByBlock
 62
     0
370
    25
100
AcDbLine
 10
19.01068835920978
 20
-27.00534417960444
 30
0.0
 11
16.84562484974867
 21
-30.75534417960421
 31
0.0
  0
ARC
  5
2DF
330
261
100
AcDbEntity
  8
K-1
  6
ByBlock
 62
     0
370
    25
100
AcDbCircle
 10
16.41261214785754
 20
-30.5053441796058
 30
0.0
 40
0.5
100
AcDbArc
 50
269.9999999998958
 51
330.0000000000754
  0
LWPOLYLINE
  5
2E0
330
261
100
AcDbEntity
  8
K-1
  6
PHANTOM
 62
     5
370
    25
100
AcDbPolyline
 90
        6
 70
     0
 43
0.0
 10
21.04658817349719
 20
-31.00534417960421
 42
0.2493177950539188
 10
21.46109621134565
 20
-30.78495656588052
 10
24.01068835920978
 20
-27.00534417960444
 10
24.01068835920978
 20
-25.50534417960444
 42
0.4142135623730951
 10
23.51068835920978
 20
-25.00534417960444
 10
19.50233807857808
 20
-25.00534417960444
  0
LINE
  5
2E1
330
261
100
AcDbEntity
  8
K-1
  6
PHANTOM
 62
     5
370
    25
100
AcDbLine
 10
21.04932089121303
 20
-31.00534417960421
 30
0.0
 11
16.12733807857876
 21
-31.00534417960421
 31
0.0
  0
LINE
  5
2E2
330
261
100
AcDbEntity
  8
K-1
  6
CENTER
 62
     2
370
    25
100
AcDbLine
 10
-5.983587767807421
 20
5.994276127017201
 30
0.0
 11
5.994276127017201
 21
-5.983587767807648
 31
0.0
  0
LINE
  5
2E3
330
261
100
AcDbEntity
  8
K-1
  6
HIDDEN
 62
     3
370
    25
100
AcDbLine
 10
-4.475040723315487
 20
2.237129518351821
 30
0.0
 11
2.242473697956938
 21
-4.480384902920377
 31
0.0
  0
LINE
  5
2E4
330
261
100
AcDbEntity
  8
K-1
  6
HIDDEN
 62
     3
370
    25
100
AcDbLine
 10
-2.226441159142268
 20
4.48572908252504
 30
0.0
 11
4.491073262130157
 21
-2.231785338747386
 31
0.0
  0
LINE
  5
2E5
330
261
100
AcDbEntity
  8
K-1
  6
ByBlock
 62
     0
100
AcDbLine
 10
-11.0053441796058
 20
-28.00000000001001
 30
0.0
 11
-15.53342905491536
 21
-28.00000000001001
 31
0.0
  0
ENDBLK
  5
2E6
330
261
100
AcDbEntity
  8
0
 62
     0
100
AcDbBlockEnd
  0
BLOCK
  5
45E
330
45D
100
AcDbEntity
  8
0
 62
     0
100
AcDbBlockBegin
  2
_ACMOPEN15
 70
     0
 10
0.0
 20
0.0
 30
0.0
  3
_ACMOPEN15
  1

  0
LINE
  5
45F
330
45D
100
AcDbEntity
  8
K-1
  6
ByBlock
 62
     0
100
AcDbLine
 10
-1.0
 20
0.0
 30
0.0
 11
0.0
 21
0.0
 31
0.0
  0
LINE
  5
460
330
45D
100
AcDbEntity
  8
K-1
  6
ByBlock
 62
     0
100
AcDbLine
 10
-1.0
 20
-0.131652497
 30
0.0
 11
0.0
 21
0.0
 31
0.0
  0
LINE
  5
461
330
45D
100
AcDbEntity
  8
K-1
  6
ByBlock
 62
     0
100
AcDbLine
 10
0.0
 20
0.0
 30
0.0
 11
-1.0
 21
0.131652497
 31
0.0
  0
ENDBLK
  5
462
330
45D
100
AcDbEntity
  8
0
 62
     0
100
AcDbBlockEnd
  0
ENDSEC
  0
SECTION
  2
ENTITIES
  0
INSERT
  5
65
330
2
100
AcDbEntity
  8
K-1
  6
ByBlock
 62
     0
100
AcDbBlockReference
 66
     1
  2
表題覧_ver.1
 10
136.4106321699882
 20
-1730.027570236171
 30
0.0
  0
ATTRIB
  5
77
330
65
100
AcDbEntity
  8
0
100
AcDbText
 10
63.30664024727912
 20
-1702.477570236173
 30
0.0
 40
4.0
  1

 41
0.8907786885245936
  7
K1
 72
     5
 11
87.4566402472792
 21
-1702.477570236173
 31
0.0
100
AcDbAttribute
  2
JOB_NO
 70
     0
  0
ATTRIB
  5
78
330
65
100
AcDbEntity
  8
A4WAKU
100
AcDbText
 10
50.51843376495736
 20
-1712.227570236173
 30
0.0
 40
5.5
  1
HFT-TF08 吊下金具（P型用）
 41
0.75
  7
K1
 72
     4
 11
88.46843376495735
 21
-1709.477570236173
 31
0.0
100
AcDbAttribute
  2
TITLE
 70
     0
  0
ATTRIB
  5
79
330
65
100
AcDbEntity
  8
A4WAKU
100
AcDbText
 10
68.33887416909738
 20
-1726.527570236173
 30
0.0
 40
6.0
  1
DU-H051
 41
1.653750000000006
  7
K1
 72
     5
 11
130.0788741690976
 21
-1726.527570236173
 31
0.0
100
AcDbAttribute
  2
DRAWING_NO.
 70
     0
  0
ATTRIB
  5
7A
330
65
100
AcDbEntity
  8
A4WAKU
100
AcDbText
 10
25.4684337649569
 20
-1712.977570236173
 30
0.0
 40
3.0
  1
1/1
 41
1.98187500000003
  7
K1
 72
     5
 11
36.03843376495706
 21
-1712.977570236173
 31
0.0
100
AcDbAttribute
  2
SCALE
 70
     0
  0
ATTRIB
  5
7B
330
65
100
AcDbEntity
  8
A4WAKU
100
AcDbText
 10
-6.929009356875756
 20
-1711.367570236173
 30
0.0
 40
3.5
  1
（DDK）
  7
K1
 72
     2
 11
9.170990643124241
 21
-1711.367570236173
 31
0.0
100
AcDbAttribute
  2
MATERIAL
 70
     0
  0
ATTRIB
  5
7C
330
65
100
AcDbEntity
  8
0
100
AcDbText
 10
101.1550766144312
 20
-1702.527570236173
 30
0.0
 40
4.0
  1
1
 41
0.8
  7
K1
 72
     4
 11
101.5106321699868
 21
-1700.527570236173
 31
0.0
100
AcDbAttribute
  2
AMT
 70
     0
  0
ATTRIB
  5
7D
330
65
100
AcDbEntity
  8
A4WAKU
100
AcDbText
 10
9.170990643124241
 20
-1720.197570236173
 30
0.0
 40
3.5
  1

  7
K1
 72
     2
 11
9.170990643124241
 21
-1720.197570236173
 31
0.0
100
AcDbAttribute
  2
REMARK
 70
     0
  0
ATTRIB
  5
7E
330
65
100
AcDbEntity
  8
0
100
AcDbText
 10
110.2066402472792
 20
-1702.477570236173
 30
0.0
 40
4.0
  1
2011,08,11
 41
0.8907786885245934
  7
K1
 72
     5
 11
134.3566402472793
 21
-1702.477570236173
 31
0.0
100
AcDbAttribute
  2
DATE
 70
     0
  0
ATTRIB
  5
7F
330
65
100
AcDbEntity
  8
A4WAKU
100
AcDbText
 10
6.118336627243479
 20
-1729.027570236173
 30
0.0
 40
3.5
  1

  7
K1
 72
     2
 11
6.118336627243479
 21
-1729.027570236173
 31
0.0
100
AcDbAttribute
  2
WEIGHT
 70
     0
  0
SEQEND
  5
80
330
65
100
AcDbEntity
  8
K-1
  6
ByBlock
 62
     0
  0
INSERT
  5
81
330
2
100
AcDbEntity
  8
0
100
AcDbBlockReference
 66
     1
  2
流用枠1-A
 10
61.51063216998728
 20
-1694.527570236171
 30
0.0
  0
ATTRIB
  5
92
330
81
100
AcDbEntity
  8
0
100
AcDbText
 10
62.98063216998707
 20
-1693.477570236171
 30
0.0
 40
4.0
  1

 41
1.646590909090915
  7
K1
 72
     5
 11
87.13063216998717
 21
-1693.477570236171
 31
0.0
100
AcDbAttribute
  2
AAAA
 70
     0
  0
ATTRIB
  5
93
330
81
100
AcDbEntity
  8
0
100
AcDbText
 10
101.5106321699873
 20
-1691.527570236171
 30
0.0
 40
4.0
  1

 41
0.8
  7
K1
 72
     4
 11
101.5106321699873
 21
-1691.527570236171
 31
0.0
100
AcDbAttribute
  2
1
 70
     0
  0
ATTRIB
  5
94
330
81
100
AcDbEntity
  8
0
100
AcDbText
 10
109.8806321699871
 20
-1693.477570236171
 30
0.0
 40
4.0
  1

 41
1.646590909090915
  7
K1
 72
     5
 11
134.0306321699872
 21
-1693.477570236171
 31
0.0
100
AcDbAttribute
  2
BBBB
 70
     0
  0
SEQEND
  5
95
330
81
100
AcDbEntity
  8
0
  6
ByBlock
  0
INSERT
  5
96
330
2
100
AcDbEntity
  8
0
100
AcDbBlockReference
 66
     1
  2
流用枠1-A
 10
61.51063216998728
 20
-1685.527570236171
 30
0.0
  0
ATTRIB
  5
97
330
96
100
AcDbEntity
  8
0
100
AcDbText
 10
62.98063216998707
 20
-1684.477570236171
 30
0.0
 40
4.0
  1

 41
1.646590909090915
  7
K1
 72
     5
 11
87.13063216998717
 21
-1684.477570236171
 31
0.0
100
AcDbAttribute
  2
AAAA
 70
     0
  0
ATTRIB
  5
98
330
96
100
AcDbEntity
  8
0
100
AcDbText
 10
101.5106321699873
 20
-1682.527570236171
 30
0.0
 40
4.0
  1

 41
0.8
  7
K1
 72
     4
 11
101.5106321699873
 21
-1682.527570236171
 31
0.0
100
AcDbAttribute
  2
1
 70
     0
  0
ATTRIB
  5
99
330
96
100
AcDbEntity
  8
0
100
AcDbText
 10
109.8806321699871
 20
-1684.477570236171
 30
0.0
 40
4.0
  1

 41
1.646590909090915
  7
K1
 72
     5
 11
134.0306321699872
 21
-1684.477570236171
 31
0.0
100
AcDbAttribute
  2
BBBB
 70
     0
  0
SEQEND
  5
9A
330
96
100
AcDbEntity
  8
0
  6
ByBlock
  0
INSERT
  5
9B
330
2
100
AcDbEntity
  8
K-1
  6
ByBlock
 62
     0
100
AcDbBlockReference
  2
WAKUA3_ver.1
 10
-271.5893678300117
 20
-1736.527570236173
 30
0.0
  0
LINE
  5
120
102
{ACAD_REACTORS
330
3ED
330
40B
102
}
330
2
100
AcDbEntity
  8
K-1
  6
CENTER
 62
     2
370
    25
100
AcDbLine
 10
-187.9815224060019
 20
-1492.303830776325
 30
0.0
 11
-204.2867551805082
 21
-1492.303830776325
 31
0.0
  0
INSERT
  5
122
102
{ACAD_REACTORS
330
368
330
377
330
386
330
398
102
}
330
2
100
AcDbEntity
  8
K-1
  6
ByBlock
 62
     0
370
    25
100
AcDbBlockReference
  2
吊りフック（15P用)-B
 10
-196.1900267297549
 20
-1492.303830776325
 30
0.0
  0
LINE
  5
167
330
2
100
AcDbEntity
  8
K-1
  6
ByBlock
 62
     0
100
AcDbLine
 10
-26.94385387256784
 20
-1537.303830776325
 30
0.0
 11
3.056146127432157
 21
-1537.303830776325
 31
0.0
  0
LINE
  5
168
330
2
100
AcDbEntity
  8
K-1
  6
ByBlock
 62
     0
370
    25
100
AcDbLine
 10
4.056146127432157
 20
-1536.303830776325
 30
0.0
 11
4.056146127432157
 21
-1526.351139582868
 31
0.0
  0
LINE
  5
169
330
2
100
AcDbEntity
  8
K-1
  6
ByBlock
 62
     0
370
    25
100
AcDbLine
 10
4.056146127432157
 20
-1536.303830776325
 30
0.0
 11
3.056146127432157
 21
-1537.303830776325
 31
0.0
  0
LINE
  5
16A
330
2
100
AcDbEntity
  8
K-1
  6
ByBlock
 62
     0
370
    25
100
AcDbLine
 10
-26.94385387256784
 20
-1537.303830776325
 30
0.0
 11
-27.94385387256784
 21
-1536.303830776325
 31
0.0
  0
CIRCLE
  5
16B
330
2
100
AcDbEntity
  8
K-1
  6
ByBlock
 62
     0
370
    25
100
AcDbCircle
 10
-11.94385387256784
 20
-1492.303830776325
 30
0.0
 40
8.0
  0
ARC
  5
16C
330
2
100
AcDbEntity
  8
K-1
  6
ByBlock
 62
     0
370
    25
100
AcDbCircle
 10
-11.94385387256784
 20
-1492.303830776325
 30
0.0
 40
11.0
100
AcDbArc
 50
8.1686089771551
 51
171.8313910228449
  0
LINE
  5
16D
330
2
100
AcDbEntity
  8
K-1
  6
ByBlock
 62
     6
370
    25
100
AcDbLine
 10
-25.21653702791878
 20
-1507.351139582933
 30
0.0
 11
1.328829282783203
 21
-1507.351139582934
 31
0.0
  0
LINE
  5
16E
330
2
100
AcDbEntity
  8
K-1
  6
ByBlock
 62
     6
370
    25
100
AcDbLine
 10
-27.94385387256784
 20
-1526.351139582868
 30
0.0
 11
4.056146127432157
 21
-1526.351139582868
 31
0.0
  0
LINE
  5
16F
330
2
100
AcDbEntity
  8
K-1
  6
ByBlock
 62
     0
370
    25
100
AcDbLine
 10
-27.94385387256784
 20
-1526.351139582868
 30
0.0
 11
-22.83225035223154
 21
-1490.740877769467
 31
0.0
  0
LINE
  5
170
330
2
100
AcDbEntity
  8
K-1
  6
ByBlock
 62
     0
370
    25
100
AcDbLine
 10
4.056146127432157
 20
-1526.351139582868
 30
0.0
 11
-1.055457392904145
 21
-1490.740877769467
 31
0.0
  0
LINE
  5
171
330
2
100
AcDbEntity
  8
K-1
  6
ByBlock
 62
     0
370
    25
100
AcDbLine
 10
-27.94385387256784
 20
-1526.351139582868
 30
0.0
 11
-27.94385387256784
 21
-1536.303830776325
 31
0.0
  0
LINE
  5
172
330
2
100
AcDbEntity
  8
K-1
  6
CENTERS
 62
     2
370
    25
100
AcDbLine
 10
-27.94385387256784
 20
-1492.303830776325
 30
0.0
 11
4.056146127432157
 21
-1492.303830776325
 31
0.0
  0
LINE
  5
174
330
2
100
AcDbEntity
  8
K-1
  6
CENTERS
 62
     2
370
    25
100
AcDbLine
 10
-11.94385387256784
 20
-1476.303830776325
 30
0.0
 11
-11.94385387256784
 21
-1508.303830776325
 31
0.0
  0
CIRCLE
  5
175
330
2
100
AcDbEntity
  8
K-1
  6
ByBlock
 62
     0
370
    25
100
AcDbCircle
 10
-3.94385387256807
 20
-1502.303830776325
 30
0.0
 40
2.25
  0
CIRCLE
  5
176
330
2
100
AcDbEntity
  8
K-1
  6
ByBlock
 62
     0
370
    25
100
AcDbCircle
 10
-19.94385387256807
 20
-1502.303830776325
 30
0.0
 40
2.25
  0
INSERT
  5
177
330
2
100
AcDbEntity
  8
K-1
  6
ByBlock
 62
     0
370
    25
100
AcDbBlockReference
  2
吊りフック（15P用)-B
 10
-196.2007150889648
 20
-1492.303830776325
 30
0.0
 41
-1.0
  0
INSERT
  5
178
330
2
100
AcDbEntity
  8
K-1
  6
PHANTOM
 62
     5
370
    25
100
AcDbBlockReference
  2
HFT-015M50-P1_側面図-A
 10
-16.94385387256761
 20
-1544.303830775075
 30
0.0
  0
INSERT
  5
260
330
2
100
AcDbEntity
  8
K-1
  6
PHANTOM
 62
     5
370
    25
100
AcDbBlockReference
  2
HFT-015M50-P1_正面図-A
 10
-196.1953709093598
 20
-1544.303830776325
 30
0.0
  0
LINE
  5
2E7
330
2
100
AcDbEntity
  8
K-1
  6
CENTER
 62
     2
100
AcDbLine
 10
-196.1900267297549
 20
-1705.339177582398
 30
0.0
 11
-196.1900267297549
 21
-1514.584671132493
 31
0.0
1001
GENIUS_GENODEF_13
1002
{
1000
HIER
1070
     0
1002
}
1002
{
1000
MANEDIT
1070
     0
1002
}
1002
{
1000
NOSEL
1070
     0
1002
}
1002
{
1000
BEHIND
1070
     0
1002
}
1002
{
1000
OTHER
1070
     0
1002
}
1002
{
1000
REACTOR
1002
}
1001
GENIUS_GENOBJ-N-CEN_13
1002
{
1000
OWNER
1000
GEN
1002
}
1001
GENIUS_GENCEN_19
1002
{
1040
2.794
1002
}
  0
LINE
  5
2EA
102
{ACAD_REACTORS
330
3ED
102
}
330
2
100
AcDbEntity
  8
K-1
  6
CENTERS
 62
     2
100
AcDbLine
 10
-224.7658342126798
 20
-1544.303830776325
 30
0.0
 11
-167.6249076060397
 21
-1544.303830776325
 31
0.0
  0
LINE
  5
2EB
330
2
100
AcDbEntity
  8
K-1
  6
CENTER
 62
     2
100
AcDbLine
 10
-136.4909456381047
 20
-1544.303830776324
 30
0.0
 11
95.19155476238678
 21
-1544.303830776324
 31
0.0
1001
GENIUS_GENODEF_13
1002
{
1000
HIER
1070
     0
1002
}
1002
{
1000
MANEDIT
1070
     0
1002
}
1002
{
1000
NOSEL
1070
     0
1002
}
1002
{
1000
BEHIND
1070
     0
1002
}
1002
{
1000
OTHER
1070
     0
1002
}
1002
{
1000
REACTOR
1002
}
1001
GENIUS_GENOBJ-N-CEN_13
1002
{
1000
OWNER
1000
GEN
1002
}
1001
GENIUS_GENCEN_19
1002
{
1040
2.794
1002
}
  0
LINE
  5
2EC
330
2
100
AcDbEntity
  8
K-1
  6
CENTER
 62
     2
100
AcDbLine
 10
-223.1947150888987
 20
-1532.303830776326
 30
0.0
 11
-204.3241399331563
 21
-1532.303830776326
 31
0.0
1001
GENIUS_GENOBJ-N-CEN_13
1002
{
1000
OWNER
1000
GEN
1002
}
1001
GENIUS_GENODEF_13
1002
{
1000
HIER
1070
     0
1002
}
1002
{
1000
MANEDIT
1070
     0
1002
}
1002
{
1000
NOSEL
1070
     0
1002
}
1002
{
1000
BEHIND
1070
     0
1002
}
1002
{
1000
OTHER
1070
     0
1002
}
1002
{
1000
REACTOR
1002
}
1001
GENIUS_GENCEN_19
1002
{
1040
2.794
1002
}
  0
LINE
  5
2ED
102
{ACAD_REACTORS
330
3FC
330
40B
102
}
330
2
100
AcDbEntity
  8
K-1
  6
CENTER
 62
     2
100
AcDbLine
 10
-169.185338370611
 20
-1532.303830776326
 30
0.0
 11
-188.0559135263535
 21
-1532.303830776326
 31
0.0
1001
GENIUS_GENOBJ-N-CEN_13
1002
{
1000
OWNER
1000
GEN
1002
}
1001
GENIUS_GENODEF_13
1002
{
1000
HIER
1070
     0
1002
}
1002
{
1000
MANEDIT
1070
     0
1002
}
1002
{
1000
NOSEL
1070
     0
1002
}
1002
{
1000
BEHIND
1070
     0
1002
}
1002
{
1000
OTHER
1070
     0
1002
}
1002
{
1000
REACTOR
1002
}
1001
GENIUS_GENCEN_19
1002
{
1040
2.794
1002
}
  0
CIRCLE
  5
2EE
102
{ACAD_REACTORS
330
41A
102
}
330
2
100
AcDbEntity
  8
K-1
  6
HIDDEN
 62
     3
370
    25
100
AcDbCircle
 10
-21.94385387256807
 20
-1532.303830776325
 30
0.0
 40
2.25
  0
CIRCLE
  5
2EF
330
2
100
AcDbEntity
  8
K-1
  6
HIDDEN
 62
     3
370
    25
100
AcDbCircle
 10
-1.94385387256807
 20
-1532.303830776325
 30
0.0
 40
2.25
  0
INSERT
  5
2F0
330
2
100
AcDbEntity
  8
K-1
  6
ByBlock
 62
     0
100
AcDbBlockReference
 66
     1
  2
BLT-M04C
 10
-21.94385387256807
 20
-1532.303830776325
 30
0.0
  0
ATTRIB
  5
300
330
2F0
100
AcDbEntity
  8
KIKI
  6
ByBlock
 62
     0
100
AcDbText
 10
-23.74385387256808
 20
-1531.403830776325
 30
0.0
 40
0.1
  1

 50
90.0
  7
K
100
AcDbAttribute
  2
M4
 70
     1
  0
SEQEND
  5
301
330
2F0
100
AcDbEntity
  8
K-1
  6
ByBlock
 62
     0
  0
INSERT
  5
302
330
2
100
AcDbEntity
  8
K-1
  6
ByBlock
 62
     0
100
AcDbBlockReference
 66
     1
  2
BLT-M04C
 10
-1.94385387256807
 20
-1532.303830776325
 30
0.0
  0
ATTRIB
  5
303
330
302
100
AcDbEntity
  8
KIKI
  6
ByBlock
 62
     0
100
AcDbText
 10
-3.743853872568081
 20
-1531.403830776325
 30
0.0
 40
0.1
  1

 50
90.0
  7
K
100
AcDbAttribute
  2
M4
 70
     1
  0
SEQEND
  5
304
330
302
100
AcDbEntity
  8
K-1
  6
ByBlock
 62
     0
  0
LINE
  5
305
330
2
100
AcDbEntity
  8
K-1
  6
CENTERS
 62
     2
100
AcDbLine
 10
-28.94385387256807
 20
-1532.303830776325
 30
0.0
 11
-14.94385387256807
 21
-1532.303830776325
 31
0.0
  0
LINE
  5
306
102
{ACAD_REACTORS
330
348
330
359
102
}
330
2
100
AcDbEntity
  8
K-1
  6
CENTERS
 62
     2
100
AcDbLine
 10
-21.94385387256807
 20
-1525.303830776326
 30
0.0
 11
-21.94385387256807
 21
-1539.303830776326
 31
0.0
  0
LINE
  5
307
102
{ACAD_REACTORS
330
31D
102
}
330
2
100
AcDbEntity
  8
K-1
  6
CENTERS
 62
     2
100
AcDbLine
 10
-8.94385387256807
 20
-1532.303830776325
 30
0.0
 11
5.056146127431929
 21
-1532.303830776325
 31
0.0
  0
LINE
  5
308
102
{ACAD_REACTORS
330
359
102
}
330
2
100
AcDbEntity
  8
K-1
  6
CENTERS
 62
     2
100
AcDbLine
 10
-1.94385387256807
 20
-1525.303830776326
 30
0.0
 11
-1.94385387256807
 21
-1539.303830776326
 31
0.0
  0
DIMENSION
  5
309
330
2
100
AcDbEntity
  8
SUNPO
100
AcDbDimension
  2
*D13
 10
33.71040981068109
 20
-1492.303830776325
 30
0.0
 11
30.21040981068133
 21
-1514.803830776325
 31
0.0
 71
     5
 42
45.00000000000068
  3
AM_JIS$0
100
AcDbAlignedDimension
 13
3.056146127432157
 23
-1537.303830776325
 33
0.0
 14
4.056146127432157
 24
-1492.303830776325
 34
0.0
 50
90.0
100
AcDbRotatedDimension
  0
DIMENSION
  5
31B
102
{ACAD_XDICTIONARY
360
31C
102
}
102
{ACAD_REACTORS
330
31D
102
}
330
2
100
AcDbEntity
  8
SUNPO
100
AcDbDimension
  2
*D14
 10
23.44637036447966
 20
-1537.303830776325
 30
0.0
 11
23.45213140576198
 21
-1541.809967017707
 31
0.0
 70
   128
 71
     5
 42
5.0
  3
AM_JIS$0
100
AcDbAlignedDimension
 13
5.056146127431929
 23
-1532.303830776325
 33
0.0
 14
3.056146127432157
 24
-1537.303830776325
 34
0.0
 50
90.0
100
AcDbRotatedDimension
1001
ACAD
1000
DSTYLE
1002
{
1070
   279
1070
     1
1002
}
  0
DIMENSION
  5
32C
330
2
100
AcDbEntity
  8
SUNPO
100
AcDbDimension
  2
*D15
 10
23.44637036447967
 20
-1492.303830776325
 30
0.0
 11
19.94637036447991
 21
-1497.303830776325
 31
0.0
 71
     5
 42
10.00000000000091
  3
AM_JIS$0
100
AcDbAlignedDimension
 13
3.056146127431929
 23
-1502.303830776326
 33
0.0
 14
4.056146127432157
 24
-1492.303830776325
 34
0.0
 50
90.0
100
AcDbRotatedDimension
  0
DIMENSION
  5
339
330
2
100
AcDbEntity
  8
SUNPO
100
AcDbDimension
  2
*D16
 10
4.056146127432155
 20
-1561.383990173044
 30
0.0
 11
-11.13529943446337
 21
-1561.383990173044
 31
0.0
 70
   128
 71
     5
 42
32.0
  3
AM_JIS$0
100
AcDbAlignedDimension
 13
-27.94385387256784
 23
-1536.303830776325
 33
0.0
 14
4.056146127432157
 24
-1536.303830776325
 34
0.0
100
AcDbRotatedDimension
  0
DIMENSION
  5
346
102
{ACAD_XDICTIONARY
360
347
102
}
102
{ACAD_REACTORS
330
348
102
}
330
2
100
AcDbEntity
  8
SUNPO
100
AcDbDimension
  2
*D17
 10
-21.94385387256807
 20
-1552.431061548023
 30
0.0
 11
-24.94385387256796
 21
-1548.931061548023
 31
0.0
 71
     5
 42
5.999999999999772
  3
AM_JIS$0
100
AcDbAlignedDimension
 13
-27.94385387256784
 23
-1536.303830776325
 33
0.0
 14
-21.94385387256807
 24
-1539.303830776326
 34
0.0
100
AcDbRotatedDimension
  0
DIMENSION
  5
357
102
{ACAD_XDICTIONARY
360
358
102
}
102
{ACAD_REACTORS
330
359
102
}
330
2
100
AcDbEntity
  8
SUNPO
100
AcDbDimension
  2
*D18
 10
-1.94385387256807
 20
-1552.431061548023
 30
0.0
 11
-11.94385387256807
 21
-1548.931061548023
 31
0.0
 71
     5
 42
20.0
  3
AM_JIS$0
100
AcDbAlignedDimension
 13
-21.94385387256807
 23
-1539.303830776326
 33
0.0
 14
-1.94385387256807
 24
-1539.303830776326
 34
0.0
100
AcDbRotatedDimension
  0
DIMENSION
  5
366
102
{ACAD_XDICTIONARY
360
367
102
}
102
{ACAD_REACTORS
330
368
102
}
330
2
100
AcDbEntity
  8
SUNPO
100
AcDbDimension
  2
*D19
 10
-177.190026729821
 20
-1472.398237838586
 30
0.0
 11
-186.690026729788
 21
-1468.898237838586
 31
0.0
 71
     5
 42
18.99999999993383
  3
AM_JIS$0
100
AcDbAlignedDimension
 13
-196.1900267297549
 23
-1481.303830776325
 33
0.0
 14
-177.190026729821
 24
-1528.256521969784
 34
0.0
100
AcDbRotatedDimension
  0
DIMENSION
  5
375
102
{ACAD_XDICTIONARY
360
376
102
}
102
{ACAD_REACTORS
330
377
102
}
330
2
100
AcDbEntity
  8
SUNPO
100
AcDbDimension
  2
*D20
 10
-175.5900267298209
 20
-1463.178948147668
 30
0.0
 11
-185.8900267297879
 21
-1459.678948147668
 31
0.0
 71
     5
 42
20.59999999993403
  3
AM_JIS$0
100
AcDbAlignedDimension
 13
-196.1900267297549
 23
-1481.303830776325
 33
0.0
 14
-175.5900267298209
 24
-1528.422207394733
 34
0.0
100
AcDbRotatedDimension
  0
DIMENSION
  5
384
102
{ACAD_XDICTIONARY
360
385
102
}
102
{ACAD_REACTORS
330
386
102
}
330
2
100
AcDbEntity
  8
SUNPO
100
AcDbDimension
  2
*D21
 10
-175.5900267298209
 20
-1472.398237838586
 30
0.0
 11
-164.0900267298209
 21
-1468.898237838586
 31
0.0
 71
     5
 42
1.600000000000136
  3
AM_JIS$0
100
AcDbAlignedDimension
 13
-177.190026729821
 23
-1528.256521969784
 33
0.0
 14
-175.5900267298209
 24
-1528.422207394733
 34
0.0
100
AcDbRotatedDimension
1001
ACAD_DSTYLE_DIMINSPECT
1070
   396
1000
100%
1070
   395
1000

1070
   394
1070
    33
1070
   393
1070
     0
1001
ACAD
1000
DSTYLE
1002
{
1070
     3
1000
t<>
1002
}
  0
DIMENSION
  5
396
102
{ACAD_XDICTIONARY
360
397
102
}
102
{ACAD_REACTORS
330
398
102
}
330
2
100
AcDbEntity
  8
SUNPO
100
AcDbDimension
  2
*D22
 10
-216.8007150888987
 20
-1463.178948147668
 30
0.0
 11
-206.4953709093268
 21
-1459.678948147668
 31
0.0
 71
     5
 42
20.61068835914384
  3
AM_JIS$0
100
AcDbAlignedDimension
 13
-196.1900267297549
 23
-1481.303830776325
 33
0.0
 14
-216.8007150888987
 24
-1527.803830776326
 34
0.0
100
AcDbRotatedDimension
1001
ACAD_DSTYLE_DIMINSPECT
1070
   396
1000
100%
1070
   395
1000

1070
   394
1070
    33
1070
   393
1070
     0
1001
ACAD
1000
DSTYLE
1002
{
1070
   271
1070
     1
1002
}
  0
DIMENSION
  5
3A5
330
2
100
AcDbEntity
  8
SUNPO
100
AcDbDimension
  2
*D23
 10
-11.94385387256795
 20
-1492.303830776323
 30
0.0
 11
-27.9571515899969
 21
-1476.093260090376
 31
0.0
 70
   132
 71
     5
 42
10.99999999999909
  3
AM_JIS$4
100
AcDbRadialDimension
 15
-19.6742659958569
 25
-1484.478185218026
 35
0.0
 40
0.0
1001
ACAD_DSTYLE_DIMRADIAL_EXTENSION
1070
   387
1070
     1
1070
   388
1040
0.1425691219593229
1070
   390
1040
2.99902353163047
  0
DIMENSION
  5
3B1
330
2
100
AcDbEntity
  8
SUNPO
100
AcDbDimension
  2
*D24
 10
-17.90080866273035
 20
-1497.643745534817
 30
0.0
 11
11.57565216685555
 21
-1475.593071105537
 31
0.0
 70
   131
 71
     5
 42
16.0
  3
AM_JIS$3
100
AcDbDiametricDimension
 15
-5.986899082405557
 25
-1486.963916017833
 35
0.0
 40
0.0
1001
ACAD
1000
DSTYLE
1002
{
1070
   288
1070
     1
1002
}
1001
ACAD_DSTYLE_DIMRADIAL_EXTENSION
1070
   387
1070
     1
1070
   388
1040
0.0
1070
   390
1040
0.0
  0
DIMENSION
  5
3BC
330
2
100
AcDbEntity
  8
SUNPO
100
AcDbDimension
  2
*D25
 10
44.30143689767645
 20
-1537.303830776325
 30
0.0
 11
40.80143689767671
 21
-1509.303830776325
 31
0.0
 71
     5
 42
56.00000000000068
  3
AM_JIS$0
100
AcDbAlignedDimension
 13
-11.94385387256784
 23
-1481.303830776325
 33
0.0
 14
3.056146127432157
 24
-1537.303830776325
 34
0.0
 50
90.0
100
AcDbRotatedDimension
1001
ACAD
1000
DSTYLE
1002
{
1070
     3
1000
(<>)
1002
}
  0
DIMENSION
  5
3C9
330
2
100
AcDbEntity
  8
SUNPO
100
AcDbDimension
  2
*D26
 10
44.30143689767645
 20
-1544.303830776324
 30
0.0
 11
40.8014368976767
 21
-1540.803830776324
 31
0.0
 71
     5
 42
6.999999999998181
  3
AM_JIS$0
100
AcDbAlignedDimension
 13
3.056146127432157
 23
-1537.303830776325
 33
0.0
 14
39.50599119605613
 24
-1544.303830776324
 34
0.0
 50
90.0
100
AcDbRotatedDimension
  0
LINE
  5
3D8
330
2
100
AcDbEntity
  8
K-1
  6
CENTERS
 62
     2
100
AcDbLine
 10
-26.94385387256807
 20
-1502.303830776326
 30
0.0
 11
-12.94385387256807
 21
-1502.303830776326
 31
0.0
  0
LINE
  5
3D9
102
{ACAD_REACTORS
330
3DE
102
}
330
2
100
AcDbEntity
  8
K-1
  6
CENTERS
 62
     2
100
AcDbLine
 10
-19.94385387256807
 20
-1495.303830776326
 30
0.0
 11
-19.94385387256807
 21
-1509.303830776326
 31
0.0
  0
LINE
  5
3DA
330
2
100
AcDbEntity
  8
K-1
  6
CENTERS
 62
     2
100
AcDbLine
 10
-10.94385387256807
 20
-1502.303830776326
 30
0.0
 11
3.056146127431929
 21
-1502.303830776326
 31
0.0
  0
LINE
  5
3DB
102
{ACAD_REACTORS
330
3DE
102
}
330
2
100
AcDbEntity
  8
K-1
  6
CENTERS
 62
     2
100
AcDbLine
 10
-3.94385387256807
 20
-1495.303830776326
 30
0.0
 11
-3.94385387256807
 21
-1509.303830776326
 31
0.0
  0
DIMENSION
  5
3DC
102
{ACAD_XDICTIONARY
360
3DD
102
}
102
{ACAD_REACTORS
330
3DE
102
}
330
2
100
AcDbEntity
  8
SUNPO
100
AcDbDimension
  2
*D27
 10
-3.943853872568068
 20
-1468.305602723285
 30
0.0
 11
-11.94385387256807
 21
-1464.805602723285
 31
0.0
 71
     5
 42
16.0
  3
AM_JIS$0
100
AcDbAlignedDimension
 13
-19.94385387256807
 23
-1495.303830776326
 33
0.0
 14
-3.94385387256807
 24
-1495.303830776326
 34
0.0
100
AcDbRotatedDimension
  0
DIMENSION
  5
3EB
102
{ACAD_XDICTIONARY
360
3EC
102
}
102
{ACAD_REACTORS
330
3ED
102
}
330
2
100
AcDbEntity
  8
SUNPO
100
AcDbDimension
  2
*D28
 10
-147.1018127155803
 20
-1492.303830776325
 30
0.0
 11
-150.60181271558
 21
-1518.303830776325
 31
0.0
 71
     5
 42
52.0
  3
AM_JIS$0
100
AcDbAlignedDimension
 13
-167.6249076060397
 23
-1544.303830776325
 33
0.0
 14
-187.9815224060019
 24
-1492.303830776325
 34
0.0
 50
90.0
100
AcDbRotatedDimension
  0
DIMENSION
  5
3FA
102
{ACAD_XDICTIONARY
360
3FB
102
}
102
{ACAD_REACTORS
330
3FC
102
}
330
2
100
AcDbEntity
  8
SUNPO
100
AcDbDimension
  2
*D29
 10
-157.9302400149099
 20
-1544.303830776325
 30
0.0
 11
-161.4302400149097
 21
-1538.303830776325
 31
0.0
 71
     5
 42
11.99999999999886
  3
AM_JIS$0
100
AcDbAlignedDimension
 13
-169.185338370611
 23
-1532.303830776326
 33
0.0
 14
-166.6249076060397
 24
-1544.303830776325
 34
0.0
 50
90.0
100
AcDbRotatedDimension
  0
DIMENSION
  5
409
102
{ACAD_XDICTIONARY
360
40A
102
}
102
{ACAD_REACTORS
330
40B
102
}
330
2
100
AcDbEntity
  8
SUNPO
100
AcDbDimension
  2
*D30
 10
-157.9302400149099
 20
-1532.303830776326
 30
0.0
 11
-161.4302400149097
 21
-1512.303830776325
 31
0.0
 71
     5
 42
40.00000000000113
  3
AM_JIS$0
100
AcDbAlignedDimension
 13
-187.9815224060019
 23
-1492.303830776325
 33
0.0
 14
-169.185338370611
 24
-1532.303830776326
 34
0.0
 50
90.0
100
AcDbRotatedDimension
  0
DIMENSION
  5
418
102
{ACAD_XDICTIONARY
360
419
102
}
102
{ACAD_REACTORS
330
41A
102
}
330
2
100
AcDbEntity
  8
SUNPO
100
AcDbDimension
  2
*D31
 10
-20.64835314167488
 20
-1534.14344428363
 30
0.0
 11
-50.580695003144
 21
-1508.259795206104
 31
0.0
 70
   131
  1
2-<>
 71
     5
 42
4.500000000000682
  3
AM_JIS$3
100
AcDbDiametricDimension
 15
-23.23935460346092
 25
-1530.464217269021
 35
0.0
 40
0.0
1001
ACAD_DSTYLE_DIMRADIAL_EXTENSION
1070
   387
1070
     1
1070
   388
1040
0.0
1070
   390
1040
0.0
1001
ACAD_DSTYLE_DIMINSPECT
1070
   396
1000
100%
1070
   395
1000

1070
   394
1070
    33
1070
   393
1070
     0
1001
ACAD
1000
DSTYLE
1002
{
1070
     3
1000
%%c<>通
1070
   288
1070
     1
1002
}
  0
TEXT
  5
424
330
2
100
AcDbEntity
  8
K-1
  6
ByBlock
 62
     0
100
AcDbText
 10
-64.21889314384498
 20
-1513.167877887603
 30
0.0
 40
3.2
  1
(CBT:M4\U+00D75)
 41
0.8
  7
K1
100
AcDbText
  0
TEXT
  5
425
330
2
100
AcDbEntity
  8
K-1
  6
ByBlock
 62
     0
100
AcDbText
 10
66.82071613955486
 20
-1666.799101246756
 30
0.0
 40
6.0
  1
型式：HFA-TF08
 41
0.8
  7
K1
100
AcDbText
  0
LWPOLYLINE
  5
426
330
2
100
AcDbEntity
  8
K-1
  6
ByBlock
 62
     0
100
AcDbPolyline
 90
        4
 70
     1
 43
0.0
 10
62.51674900438775
 20
-1656.3876466644
 10
125.5979178180241
 20
-1656.3876466644
 10
125.5979178180241
 20
-1670.226067318777
 10
62.51674900438775
 20
-1670.226067318777
1001
GENIUS_GENREC_14
1002
{
1000
PYDIR
1011
62.51674900438775
1021
-1670.226067318777
1031
0.0
1002
}
1002
{
1000
PXDIR
1011
125.5979178180241
1021
-1656.3876466644
1031
0.0
1002
}
1002
{
1000
PORI
1011
62.51674900438775
1021
-1656.3876466644
1031
0.0
1002
}
1002
{
1000
PINS
1011
62.51674900438775
1021
-1656.3876466644
1031
0.0
1002
}
1002
{
1000
PINS2
1011
125.5979178180241
1021
-1670.226067318777
1031
0.0
1002
}
1002
{
1000
C
1070
     1
1002
}
1001
GENIUS_GENODEF_13
1002
{
1000
HIER
1070
     0
1002
}
1002
{
1000
MANEDIT
1070
     0
1002
}
1002
{
1000
NOSEL
1070
     0
1002
}
1002
{
1000
BEHIND
1070
     0
1002
}
1002
{
1000
OTHER
1070
     0
1002
}
1002
{
1000
REACTOR
1002
}
1001
GENIUS_GENOBJ-N-REC_13
1002
{
1000
OWNER
1000
GEN
1002
}
  0
LEADER
  5
427
330
2
100
AcDbEntity
  8
SUNPO
100
AcDbLeader
  3
AM_JIS$7
 74
     0
 76
     2
 10
-22.40931964670389
 20
-1488.916497587755
 30
0.0
 10
-43.01482148379015
 20
-1480.018044730641
 30
0.0
1001
ACAD
1000
DSTYLE
1002
{
1070
   341
1005
37
1070
   147
1040
1.5
1070
    77
1070
     1
1070
    40
1040
1.0
1002
}
  0
INSERT
  5
429
330
2
100
AcDbEntity
  8
K-1
  6
ByBlock
100
AcDbBlockReference
 66
     1
  2
風船フォーマット1
 10
-49.90021342487853
 20
-1477.044599285102
 30
0.0
  0
ATTRIB
  5
431
330
429
100
AcDbEntity
  8
SUNPO
  6
ByBlock
 62
     0
100
AcDbText
 10
-55.23354675822095
 20
-1479.544599285094
 30
0.0
 40
5.0
  1
382
 41
0.8
  7
K1
 72
     4
 11
-49.90021342488763
 21
-1477.044599285094
 31
0.0
100
AcDbAttribute
  2
1
 70
     0
  0
SEQEND
  5
432
330
429
100
AcDbEntity
  8
K-1
  6
ByBlock
  0
ENDSEC
  0
SECTION
  2
OBJECTS
  0
DICTIONARY
  5
B
330
0
100
AcDbDictionary
281
     1
  3
ACAD_2007HEADERVARS_RT
350
4B9
  3
ACAD_COLOR
350
4B
  3
ACAD_DETAILVIEWSTYLE
350
45B
  3
ACAD_FIELDLIST
350
480
  3
ACAD_GROUP
350
46
  3
ACAD_LAYOUT
350
11
  3
ACAD_MATERIAL
350
D
  3
ACAD_MLEADERSTYLE
350
4E
  3
ACAD_MLINESTYLE
350
47
  3
ACAD_PLOTSETTINGS
350
48
  3
ACAD_PLOTSTYLENAME
350
A
  3
ACAD_SCALELIST
350
4C
  3
ACAD_SECTIONVIEWSTYLE
350
468
  3
ACAD_TABLESTYLE
350
4D
  3
ACAD_VISUALSTYLE
350
30
  3
ACDB_RECOMPOSE_DATA
350
4B8
  3
AcDbVariableDictionary
350
4AB
  3
AcDsDecomposeData
350
4C0
  3
AcmDictionary
350
44C
  3
AMG
350
43D
  0
DICTIONARY
  5
1A
330
19
100
AcDbDictionary
280
     1
281
     1
  3
ACAD_LAYERFILTERS
360
1B
  3
ACAD_LAYERSTATES
360
24
  0
DICTIONARY
  5
7
330
6
100
AcDbDictionary
280
     1
281
     1
  3
ADSK_XREC_LAYER_RECONCILED
360
8
  0
DICTIONARY
  5
50
330
4F
100
AcDbDictionary
280
     1
281
     1
  3
ADSK_XREC_LAYER_RECONCILED
360
51
  0
DICTIONARY
  5
30B
330
30A
100
AcDbDictionary
280
     1
281
     1
  3
ADSK_XREC_LAYER_RECONCILED
360
30C
  0
DICTIONARY
  5
142
330
141
100
AcDbDictionary
280
     1
281
     1
  3
ADSK_XREC_LAYER_RECONCILED
360
143
  0
DICTIONARY
  5
11C
330
11B
100
AcDbDictionary
280
     1
281
     1
  3
ADSK_XREC_LAYER_RECONCILED
360
11D
  0
DICTIONARY
  5
8C
330
8B
100
AcDbDictionary
280
     1
281
     1
  3
ADSK_XREC_LAYER_RECONCILED
360
8D
  0
DICTIONARY
  5
6D
330
6C
100
AcDbDictionary
280
     1
281
     1
  3
ADSK_XREC_LAYER_RECONCILED
360
6E
  0
DICTIONARY
  5
3
330
2
100
AcDbDictionary
280
     1
281
     1
  3
ACAD_SORTENTS
360
43B
  0
DICTIONARY
  5
13
330
12
100
AcDbDictionary
280
     1
281
     1
  3
ACAD_SORTENTS
360
14
  0
DICTIONARY
  5
67
330
66
100
AcDbDictionary
280
     1
281
     1
  3
ACAD_SORTENTS
360
433
  0
DICTIONARY
  5
83
330
82
100
AcDbDictionary
280
     1
281
     1
  0
DICTIONARY
  5
2F2
330
2F1
100
AcDbDictionary
280
     1
281
     1
  0
DICTIONARY
  5
212
330
211
100
AcDbDictionary
280
     1
281
     1
  3
ACAD_SORTENTS
360
435
  0
DICTIONARY
  5
124
330
123
100
AcDbDictionary
280
     1
281
     1
  3
ACAD_SORTENTS
360
436
  0
DICTIONARY
  5
17B
330
17A
100
AcDbDictionary
280
     1
281
     1
  3
ACAD_SORTENTS
360
434
  0
DICTIONARY
  5
A2
330
A1
100
AcDbDictionary
280
     1
281
     1
  3
ACAD_SORTENTS
360
437
  0
DICTIONARY
  5
B4
330
B3
100
AcDbDictionary
280
     1
281
     1
  3
ACAD_SORTENTS
360
438
  0
DICTIONARY
  5
9D
330
9C
100
AcDbDictionary
280
     1
281
     1
  3
ACAD_SORTENTS
360
439
  0
DICTIONARY
  5
42B
330
42A
100
AcDbDictionary
280
     1
281
     1
  3
ACAD_SORTENTS
360
43A
  0
DICTIONARY
  5
4D3
330
3B6
100
AcDbDictionary
280
     1
281
     1
  3
ACAD_MTEXT_RT
360
4D4
  0
DICTIONARY
  5
31C
330
31B
100
AcDbDictionary
280
     1
281
     1
  3
ACAD_DIMASSOC
360
31D
  0
DICTIONARY
  5
347
330
346
100
AcDbDictionary
280
     1
281
     1
  3
ACAD_DIMASSOC
360
348
  0
DICTIONARY
  5
358
330
357
100
AcDbDictionary
280
     1
281
     1
  3
ACAD_DIMASSOC
360
359
  0
DICTIONARY
  5
367
330
366
100
AcDbDictionary
280
     1
281
     1
  3
ACAD_DIMASSOC
360
368
  0
DICTIONARY
  5
376
330
375
100
AcDbDictionary
280
     1
281
     1
  3
ACAD_DIMASSOC
360
377
  0
DICTIONARY
  5
385
330
384
100
AcDbDictionary
280
     1
281
     1
  3
ACAD_DIMASSOC
360
386
  0
DICTIONARY
  5
397
330
396
100
AcDbDictionary
280
     1
281
     1
  3
ACAD_DIMASSOC
360
398
  0
DICTIONARY
  5
3DD
330
3DC
100
AcDbDictionary
280
     1
281
     1
  3
ACAD_DIMASSOC
360
3DE
  0
DICTIONARY
  5
3EC
330
3EB
100
AcDbDictionary
280
     1
281
     1
  3
ACAD_DIMASSOC
360
3ED
  0
DICTIONARY
  5
3FB
330
3FA
100
AcDbDictionary
280
     1
281
     1
  3
ACAD_DIMASSOC
360
3FC
  0
DICTIONARY
  5
40A
330
409
100
AcDbDictionary
280
     1
281
     1
  3
ACAD_DIMASSOC
360
40B
  0
DICTIONARY
  5
419
330
418
100
AcDbDictionary
280
     1
281
     1
  3
ACAD_DIMASSOC
360
41A
  0
DICTIONARY
  5
4B9
102
{ACAD_REACTORS
330
B
102
}
330
B
100
AcDbDictionary
281
     1
  3
INTERFEREVPVS
350
4BA
  0
DICTIONARY
  5
4B
102
{ACAD_REACTORS
330
B
102
}
330
B
100
AcDbDictionary
281
     1
  0
DICTIONARY
  5
45B
102
{ACAD_REACTORS
330
B
102
}
330
B
100
AcDbDictionary
281
     1
  3
Metric50
350
464
  0
FIELDLIST
  5
480
102
{ACAD_REACTORS
330
B
102
}
330
B
100
AcDbIdSet
 90
        3
330
46B
330
46C
330
46D
100
AcDbFieldList
  0
DICTIONARY
  5
46
102
{ACAD_REACTORS
330
B
102
}
330
B
100
AcDbDictionary
281
     1
  0
DICTIONARY
  5
11
102
{ACAD_REACTORS
330
B
102
}
330
B
100
AcDbDictionary
281
     1
  3
Model
350
10
  3
S00
350
17
  0
DICTIONARY
  5
D
102
{ACAD_REACTORS
330
B
102
}
330
B
100
AcDbDictionary
281
     1
  3
ByBlock
350
4A
  3
ByLayer
350
49
  3
Global
350
C
  0
DICTIONARY
  5
4E
102
{ACAD_REACTORS
330
B
102
}
330
B
100
AcDbDictionary
281
     1
  0
DICTIONARY
  5
47
102
{ACAD_REACTORS
330
B
102
}
330
B
100
AcDbDictionary
281
     1
  3
Standard
350
52
  0
DICTIONARY
  5
48
102
{ACAD_REACTORS
330
B
102
}
330
B
100
AcDbDictionary
281
     1
  0
ACDBDICTIONARYWDFLT
  5
A
102
{ACAD_REACTORS
330
B
102
}
330
B
100
AcDbDictionary
281
     1
  3
Normal
350
9
100
AcDbDictionaryWithDefault
340
9
  0
DICTIONARY
  5
4C
102
{ACAD_REACTORS
330
B
102
}
330
B
100
AcDbDictionary
281
     1
  3
A0
350
57
  3
A1
350
58
  3
A2
350
59
  3
A3
350
5A
  3
A4
350
5B
  3
A5
350
5C
  3
A6
350
5D
  3
A7
350
5E
  3
A8
350
5F
  3
A9
350
60
  3
B0
350
61
  3
B1
350
62
  3
B2
350
63
  3
B3
350
64
  0
DICTIONARY
  5
468
102
{ACAD_REACTORS
330
B
102
}
330
B
100
AcDbDictionary
281
     1
  3
Metric50
350
46F
  0
DICTIONARY
  5
4D
102
{ACAD_REACTORS
330
B
102
}
330
B
100
AcDbDictionary
281
     1
  3
Standard
350
53
  0
DICTIONARY
  5
30
102
{ACAD_REACTORS
330
B
102
}
330
B
100
AcDbDictionary
281
     1
  3
2dWireframe
350
2F
  3
3dWireframe
350
56
  3
Realistic
350
55
  0
XRECORD
  5
4B8
102
{ACAD_REACTORS
330
B
102
}
330
B
100
AcDbXrecord
280
     1
 90
        1
330
53
  0
DICTIONARY
  5
4AB
102
{ACAD_REACTORS
330
B
102
}
330
B
100
AcDbDictionary
281
     1
  3
CANNOSCALE
350
4B0
  3
CMLEADERSTYLE
350
4AD
  3
CTABLESTYLE
350
4AC
  3
CVIEWDETAILSTYLE
350
4AE
  3
CVIEWSECTIONSTYLE
350
4AF
  3
DIMASSOC
350
4B5
  3
HIDETEXT
350
4B3
  3
INDEXCTL
350
4B2
  3
SOLIDHIST
350
4B6
  3
SORTENTS
350
4B1
  3
XCLIPFRAME
350
4B4
  0
DICTIONARY
  5
4C0
102
{ACAD_REACTORS
330
B
102
}
330
B
100
AcDbDictionary
281
     1
  3
AcDsRecords
350
4C2
  3
AcDsSchemas
350
4C1
1001
ACAD
1070
     2
  0
DICTIONARY
  5
44C
102
{ACAD_REACTORS
330
B
102
}
330
B
100
AcDbDictionary
281
     1
  3
AcmStdDictionary
350
44D
  0
DICTIONARY
  5
43D
102
{ACAD_REACTORS
330
B
102
}
330
B
100
AcDbDictionary
281
     1
  3
AcMgSettings
350
445
  0
DICTIONARY
  5
1B
102
{ACAD_REACTORS
330
1A
102
}
330
1A
100
AcDbDictionary
280
     1
281
     1
  3
A111-only
360
1C
  3
CENTER
360
1D
  3
E511-only
360
1E
  3
ganci
360
1F
  3
kiseki
360
20
  3
OFF AND FROZEN
360
21
  3
TTB-only
360
22
  3
ロック解除
360
23
  0
DICTIONARY
  5
24
102
{ACAD_REACTORS
330
1A
102
}
330
1A
100
AcDbDictionary
281
     1
  0
XRECORD
  5
8
102
{ACAD_REACTORS
330
7
102
}
330
7
100
AcDbXrecord
280
     1
290
     1
  0
XRECORD
  5
51
102
{ACAD_REACTORS
330
50
102
}
330
50
100
AcDbXrecord
280
     1
290
     1
  0
XRECORD
  5
30C
102
{ACAD_REACTORS
330
30B
102
}
330
30B
100
AcDbXrecord
280
     1
290
     1
  0
XRECORD
  5
143
102
{ACAD_REACTORS
330
142
102
}
330
142
100
AcDbXrecord
280
     1
290
     1
  0
XRECORD
  5
11D
102
{ACAD_REACTORS
330
11C
102
}
330
11C
100
AcDbXrecord
280
     1
290
     1
  0
XRECORD
  5
8D
102
{ACAD_REACTORS
330
8C
102
}
330
8C
100
AcDbXrecord
280
     1
290
     1
  0
XRECORD
  5
6E
102
{ACAD_REACTORS
330
6D
102
}
330
6D
100
AcDbXrecord
280
     1
290
     1
  0
SORTENTSTABLE
  5
43B
102
{ACAD_REACTORS
330
3
102
}
330
3
100
AcDbSortentsTable
330
2
  0
SORTENTSTABLE
  5
14
102
{ACAD_REACTORS
330
13
102
}
330
13
100
AcDbSortentsTable
330
12
  0
SORTENTSTABLE
  5
433
102
{ACAD_REACTORS
330
67
102
}
330
67
100
AcDbSortentsTable
330
66
  0
SORTENTSTABLE
  5
435
102
{ACAD_REACTORS
330
212
102
}
330
212
100
AcDbSortentsTable
330
211
331
23C
  5
21E
331
245
  5
247
331
23D
  5
22E
331
246
  5
216
331
23E
  5
245
331
247
  5
248
331
23F
  5
246
331
248
  5
249
331
249
  5
24A
331
24A
  5
24B
331
24B
  5
24C
331
24C
  5
24D
331
215
  5
217
331
24D
  5
215
331
216
  5
218
331
220
  5
225
331
217
  5
219
331
221
  5
226
331
218
  5
21A
331
222
  5
227
331
219
  5
21B
331
21A
  5
21C
331
223
  5
228
331
21B
  5
21D
331
224
  5
22A
331
21C
  5
21F
331
225
  5
22B
331
21D
  5
220
331
226
  5
22C
331
230
  5
23D
331
21E
  5
221
331
227
  5
22D
331
231
  5
23F
331
21F
  5
224
331
228
  5
234
331
232
  5
242
331
229
  5
235
331
233
  5
240
331
22A
  5
236
331
22B
  5
237
331
234
  5
241
331
22C
  5
239
331
235
  5
22F
331
22D
  5
23A
331
236
  5
243
331
240
  5
223
331
22E
  5
23B
331
237
  5
244
331
241
  5
229
331
22F
  5
23C
331
238
  5
233
331
242
  5
23E
331
239
  5
232
331
243
  5
238
331
23A
  5
231
331
244
  5
222
331
23B
  5
230
  0
SORTENTSTABLE
  5
436
102
{ACAD_REACTORS
330
124
102
}
330
124
100
AcDbSortentsTable
330
123
331
15B
  5
159
331
165
  5
162
331
15F
  5
160
331
128
  5
135
331
160
  5
15F
331
156
  5
15B
331
15A
  5
163
331
164
  5
157
331
15E
  5
165
331
127
  5
131
331
131
  5
139
331
135
  5
13D
331
139
  5
153
331
13D
  5
154
331
155
  5
15A
331
159
  5
128
331
163
  5
127
331
15D
  5
164
331
154
  5
158
331
158
  5
15E
331
162
  5
161
331
15C
  5
15D
331
153
  5
155
331
161
  5
156
331
157
  5
15C
  0
SORTENTSTABLE
  5
434
102
{ACAD_REACTORS
330
17B
102
}
330
17B
100
AcDbSortentsTable
330
17A
  0
SORTENTSTABLE
  5
437
102
{ACAD_REACTORS
330
A2
102
}
330
A2
100
AcDbSortentsTable
330
A1
  0
SORTENTSTABLE
  5
438
102
{ACAD_REACTORS
330
B4
102
}
330
B4
100
AcDbSortentsTable
330
B3
331
D5
  5
B7
331
D1
  5
D2
331
CD
  5
CE
331
C5
  5
C6
331
C9
  5
CA
331
C1
  5
C2
331
BD
  5
BE
331
B9
  5
BA
331
D4
  5
D5
331
D0
  5
D1
331
CC
  5
CD
331
C4
  5
C5
331
C8
  5
C9
331
C0
  5
C1
331
BC
  5
BD
331
B8
  5
B9
331
D3
  5
D4
331
CF
  5
D0
331
C7
  5
C8
331
CB
  5
CC
331
C3
  5
C4
331
B7
  5
B8
331
BF
  5
C0
331
BB
  5
BC
331
D2
  5
D3
331
CE
  5
CF
331
C6
  5
C7
331
CA
  5
CB
331
C2
  5
C3
331
BE
  5
BF
331
BA
  5
BB
  0
SORTENTSTABLE
  5
439
102
{ACAD_REACTORS
330
9D
102
}
330
9D
100
AcDbSortentsTable
330
9C
  0
SORTENTSTABLE
  5
43A
102
{ACAD_REACTORS
330
42B
102
}
330
42B
100
AcDbSortentsTable
330
42A
  0
XRECORD
  5
4D4
102
{ACAD_REACTORS
330
4D3
102
}
330
4D3
100
AcDbXrecord
280
     1
 40
5079.0
  1
\A1;\U+220516
  0
DIMASSOC
  5
31D
102
{ACAD_REACTORS
330
31C
102
}
330
31C
100
AcDbDimAssoc
330
31B
 90
        1
 70
     0
 71
     0
  1
AcDbOsnapPointRef
 72
     1
331
307
 73
     2
 91
        0
 40
1.0
 10
0.0
 20
0.0
 30
2.000000000000000E+50
 75
     0
  0
DIMASSOC
  5
348
102
{ACAD_REACTORS
330
347
102
}
330
347
100
AcDbDimAssoc
330
346
 90
        2
 70
     0
 71
     0
  1
AcDbOsnapPointRef
 72
     1
331
306
 73
     2
 91
        0
 40
1.0
 10
0.0
 20
0.0
 30
2.000000000000000E+50
 75
     0
  0
DIMASSOC
  5
359
102
{ACAD_REACTORS
330
358
102
}
330
358
100
AcDbDimAssoc
330
357
 90
        3
 70
     0
 71
     0
  1
AcDbOsnapPointRef
 72
     1
331
306
 73
     2
 91
        0
 40
1.0
 10
0.0
 20
0.0
 30
2.000000000000000E+50
 75
     0
  1
AcDbOsnapPointRef
 72
     1
331
308
 73
     2
 91
        0
 40
1.0
 10
0.0
 20
0.0
 30
2.000000000000000E+50
 75
     0
  0
DIMASSOC
  5
368
102
{ACAD_REACTORS
330
367
102
}
330
367
100
AcDbDimAssoc
330
366
 90
        3
 70
     0
 71
     0
  1
AcDbOsnapPointRef
 72
    13
331
122
331
153
 73
     2
 91
        0
 40
0.0
 10
0.0
 20
0.0
 30
2.000000000000000E+50
 75
     0
  1
AcDbOsnapPointRef
 72
    13
331
122
331
163
 73
     2
 91
        0
 40
0.0
 10
0.0
 20
0.0
 30
2.000000000000000E+50
 75
     0
  0
DIMASSOC
  5
377
102
{ACAD_REACTORS
330
376
102
}
330
376
100
AcDbDimAssoc
330
375
 90
        3
 70
     0
 71
     0
  1
AcDbOsnapPointRef
 72
    13
331
122
331
161
 73
     2
 91
        0
 40
0.0
 10
0.0
 20
0.0
 30
2.000000000000000E+50
 75
     0
  1
AcDbOsnapPointRef
 72
    13
331
122
331
158
 73
     2
 91
        0
 40
0.0
 10
0.0
 20
0.0
 30
2.000000000000000E+50
 75
     0
  0
DIMASSOC
  5
386
102
{ACAD_REACTORS
330
385
102
}
330
385
100
AcDbDimAssoc
330
384
 90
        3
 70
     0
 71
     0
  1
AcDbOsnapPointRef
 72
    13
331
122
331
163
 73
     2
 91
        0
 40
0.0
 10
0.0
 20
0.0
 30
2.000000000000000E+50
 75
     0
  1
AcDbOsnapPointRef
 72
    13
331
122
331
158
 73
     2
 91
        0
 40
0.0
 10
0.0
 20
0.0
 30
2.000000000000000E+50
 75
     0
  0
DIMASSOC
  5
398
102
{ACAD_REACTORS
330
397
102
}
330
397
100
AcDbDimAssoc
330
396
 90
        1
 70
     0
 71
     0
  1
AcDbOsnapPointRef
 72
    13
331
122
331
153
 73
     2
 91
        0
 40
0.0
 10
0.0
 20
0.0
 30
2.000000000000000E+50
 75
     0
  0
DIMASSOC
  5
3DE
102
{ACAD_REACTORS
330
3DD
102
}
330
3DD
100
AcDbDimAssoc
330
3DC
 90
        3
 70
     0
 71
     0
  1
AcDbOsnapPointRef
 72
    13
331
3D9
 73
     2
 91
        0
 40
0.0
 10
0.0
 20
0.0
 30
2.000000000000000E+50
 75
     0
  1
AcDbOsnapPointRef
 72
     8
331
3DB
 73
     2
 91
        0
 40
0.0
 10
0.0
 20
0.0
 30
0.0
 75
     1
  1
AcDbOsnapPointRef
 72
    13
331
3D9
 73
     2
 91
        0
 40
0.0
 10
0.0
 20
0.0
 30
2.000000000000000E+50
 75
     0
  0
DIMASSOC
  5
3ED
102
{ACAD_REACTORS
330
3EC
102
}
330
3EC
100
AcDbDimAssoc
330
3EB
 90
        3
 70
     0
 71
     0
  1
AcDbOsnapPointRef
 72
     1
331
2EA
 73
     2
 91
        0
 40
1.0
 10
0.0
 20
0.0
 30
2.000000000000000E+50
 75
     0
  1
AcDbOsnapPointRef
 72
    13
331
120
 73
     2
 91
        0
 40
0.0
 10
0.0
 20
0.0
 30
2.000000000000000E+50
 75
     0
  0
DIMASSOC
  5
3FC
102
{ACAD_REACTORS
330
3FB
102
}
330
3FB
100
AcDbDimAssoc
330
3FA
 90
        1
 70
     0
 71
     0
  1
AcDbOsnapPointRef
 72
    13
331
2ED
 73
     2
 91
        0
 40
0.0
 10
0.0
 20
0.0
 30
2.000000000000000E+50
 75
     0
  0
DIMASSOC
  5
40B
102
{ACAD_REACTORS
330
40A
102
}
330
40A
100
AcDbDimAssoc
330
409
 90
        3
 70
     0
 71
     0
  1
AcDbOsnapPointRef
 72
    13
331
120
 73
     2
 91
        0
 40
0.0
 10
0.0
 20
0.0
 30
2.000000000000000E+50
 75
     0
  1
AcDbOsnapPointRef
 72
    13
331
2ED
 73
     2
 91
        0
 40
0.0
 10
0.0
 20
0.0
 30
2.000000000000000E+50
 75
     0
  0
DIMASSOC
  5
41A
102
{ACAD_REACTORS
330
419
102
}
330
419
100
AcDbDimAssoc
330
418
 90
        2
 70
     0
 71
     0
  1
AcDbOsnapPointRef
 72
     3
331
2EE
 73
     2
 91
        0
 40
0.0
 10
0.0
 20
0.0
 30
0.0
 75
     0
  0
XRECORD
  5
4BA
102
{ACAD_REACTORS
330
4B9
102
}
330
4B9
100
AcDbXrecord
280
     1
340
56
  0
ACDBDETAILVIEWSTYLE
  5
464
102
{ACAD_XDICTIONARY
360
465
102
}
102
{ACAD_REACTORS
330
45B
330
463
102
}
330
45B
100
AcDbModelDocViewStyle
 70
     0
  3
Metric50
290
     0
100
AcDbDetailViewStyle
 70
     0
 71
     0
 90
        3
 71
     1
340
26
 40
5.0
340
0
 40
5.0
300

 40
0.0
280
     1
 71
     2
340
E
 90
       25
 71
     3
340
26
 40
5.0
 90
        0
 40
15.0
 90
        1
300
%<\AcVar ViewDetailId>% (%<\AcVar ViewScale \f "%sn">%)
 71
     4
340
E
 90
       25
340
E
 90
       25
280
     0
  0
LAYOUT
  5
10
102
{ACAD_XDICTIONARY
360
4C5
102
}
102
{ACAD_REACTORS
330
11
102
}
330
11
100
AcDbPlotSettings
  1

  2
EPSON LP-8200表紙
  4
A3
  6

 40
5.873749732971191
 41
5.873747825622558
 42
5.789093017578125
 43
5.873748779296875
 44
296.9259948730469
 45
419.9466552734374
 46
0.0
 47
0.0
 48
1218.835480609299
 49
-77.0280712427367
140
1626.835480609299
141
207.9719287572633
142
1.0
143
1.0
 70
 11952
 72
     1
 73
     1
 74
     4
  7
A3-A3.ctb
 75
    16
147
1.0
148
-1218.835480609299
149
77.0280712427367
100
AcDbLayout
  1
Model
 70
     1
 71
     0
 10
0.0
 20
0.0
 11
12.0
 21
9.0
 12
0.0
 22
0.0
 32
0.0
 14
0.0
 24
0.0
 34
0.0
 15
0.0
 25
0.0
 35
0.0
146
0.0
 13
0.0
 23
0.0
 33
0.0
 16
1.0
 26
0.0
 36
0.0
 17
0.0
 27
1.0
 37
0.0
 76
     0
330
2
331
2E
  0
LAYOUT
  5
17
102
{ACAD_XDICTIONARY
360
18
102
}
102
{ACAD_REACTORS
330
11
102
}
330
11
100
AcDbPlotSettings
  1

  2
EPSON LP-8200 表紙
  4
A3
  6

 40
5.873749732971191
 41
5.873747825622558
 42
5.873748779296875
 43
5.873748779296875
 44
419.9466552734374
 45
297.0106506347656
 46
0.0
 47
0.0
 48
0.0
 49
0.0
140
0.0
141
0.0
142
0.7
143
1.0
 70
   672
 72
     1
 73
     0
 74
     5
  7
A1-A3.ctb
 75
     0
147
1.0
148
0.0
149
0.0
100
AcDbLayout
  1
S00
 70
     1
 71
    20
 10
-8.391071047101702
 20
-8.391068322317941
 11
591.5327222006661
 21
415.9098611559186
 12
0.0
 22
0.0
 32
0.0
 14
-10.01835592131328
 24
-10.01299674582856
 34
-0.0015258207003583
 15
590.0366018691502
 25
415.0130182616429
 35
0.0000000349246037
146
0.0
 13
0.0
 23
0.0
 33
0.0
 16
1.0
 26
0.0
 36
0.0
 17
0.0
 27
1.0
 37
0.0
 76
     0
330
12
  0
MATERIAL
  5
4A
102
{ACAD_XDICTIONARY
360
4CC
102
}
102
{ACAD_REACTORS
330
D
102
}
330
D
100
AcDbMaterial
  1
ByBlock
 73
     1
 78
     1
172
     1
176
     1
270
     1
274
     1
  0
MATERIAL
  5
49
102
{ACAD_XDICTIONARY
360
4CA
102
}
102
{ACAD_REACTORS
330
D
102
}
330
D
100
AcDbMaterial
  1
ByLayer
 73
     1
 78
     1
172
     1
176
     1
270
     1
274
     1
  0
MATERIAL
  5
C
102
{ACAD_XDICTIONARY
360
4C3
102
}
102
{ACAD_REACTORS
330
D
102
}
330
D
100
AcDbMaterial
  1
Global
 73
     1
 78
     1
172
     1
176
     1
270
     1
274
     1
  0
MLINESTYLE
  5
52
102
{ACAD_REACTORS
330
47
102
}
330
47
100
AcDbMlineStyle
  2
STANDARD
 70
     0
  3

 62
   256
 51
90.0
 52
90.0
 71
     2
 49
0.5
 62
   256
  6
BYLAYER
 49
-0.5
 62
   256
  6
BYLAYER
  0
ACDBPLACEHOLDER
  5
9
102
{ACAD_REACTORS
330
A
102
}
330
A
  0
SCALE
  5
57
102
{ACAD_REACTORS
330
4C
102
}
330
4C
100
AcDbScale
 70
     0
300
1:1
140
1.0
141
1.0
290
     1
  0
SCALE
  5
58
102
{ACAD_REACTORS
330
4C
102
}
330
4C
100
AcDbScale
 70
     0
300
1:2
140
1.0
141
2.0
290
     0
  0
SCALE
  5
59
102
{ACAD_REACTORS
330
4C
102
}
330
4C
100
AcDbScale
 70
     0
300
1:3
140
1.0
141
3.0
290
     0
  0
SCALE
  5
5A
102
{ACAD_REACTORS
330
4C
102
}
330
4C
100
AcDbScale
 70
     0
300
1:4
140
1.0
141
4.0
290
     0
  0
SCALE
  5
5B
102
{ACAD_REACTORS
330
4C
102
}
330
4C
100
AcDbScale
 70
     0
300
1:5
140
1.0
141
5.0
290
     0
  0
SCALE
  5
5C
102
{ACAD_REACTORS
330
4C
102
}
330
4C
100
AcDbScale
 70
     0
300
1:6
140
1.0
141
6.0
290
     0
  0
SCALE
  5
5D
102
{ACAD_REACTORS
330
4C
102
}
330
4C
100
AcDbScale
 70
     0
300
1:8
140
1.0
141
8.0
290
     0
  0
SCALE
  5
5E
102
{ACAD_REACTORS
330
4C
102
}
330
4C
100
AcDbScale
 70
     0
300
1:10
140
1.0
141
10.0
290
     0
  0
SCALE
  5
5F
102
{ACAD_REACTORS
330
4C
102
}
330
4C
100
AcDbScale
 70
     0
300
1:16
140
1.0
141
16.0
290
     0
  0
SCALE
  5
60
102
{ACAD_REACTORS
330
4C
102
}
330
4C
100
AcDbScale
 70
     0
300
1:20
140
1.0
141
20.0
290
     0
  0
SCALE
  5
61
102
{ACAD_REACTORS
330
4C
102
}
330
4C
100
AcDbScale
 70
     0
300
1:30
140
1.0
141
30.0
290
     0
  0
SCALE
  5
62
102
{ACAD_REACTORS
330
4C
102
}
330
4C
100
AcDbScale
 70
     0
300
1:40
140
1.0
141
40.0
290
     0
  0
SCALE
  5
63
102
{ACAD_REACTORS
330
4C
102
}
330
4C
100
AcDbScale
 70
     0
300
1:50
140
1.0
141
50.0
290
     0
  0
SCALE
  5
64
102
{ACAD_REACTORS
330
4C
102
}
330
4C
100
AcDbScale
 70
     0
300
2:1
140
2.0
141
1.0
290
     0
  0
ACDBSECTIONVIEWSTYLE
  5
46F
102
{ACAD_XDICTIONARY
360
470
102
}
102
{ACAD_REACTORS
330
468
330
46E
102
}
330
468
100
AcDbModelDocViewStyle
 70
     0
  3
Metric50
290
     0
100
AcDbSectionViewStyle
 70
     0
 71
     0
 90
      102
 71
     1
340
26
 40
5.0
340
0
340
0
 40
5.0
300
I, O, Q, S, X, Z
 40
10.0
 90
        0
 40
2.5
 90
        0
 71
     2
340
E
 90
       25
340
E
 90
       50
 40
5.0
 40
2.5
 40
5.0
 71
     3
340
26
 40
5.0
 90
        0
 40
15.0
 90
        1
300
%<\AcVar ViewSectionStartId>%-%<\AcVar ViewSectionEndId>% (%<\AcVar ViewScale \f "%sn">%)
 71
     4
300
ANSI31
 40
1.0
 90
        0
290
     0
290
     0
 90
        6
 40
0.0
 40
1.570796326794896
 40
0.2617993877991494
 40
1.308996938995747
 40
-0.2617993877991494
 40
1.832595714594046
  0
TABLESTYLE
  5
53
102
{ACAD_XDICTIONARY
360
54
102
}
102
{ACAD_REACTORS
330
4D
102
}
330
4D
100
AcDbTableStyle
  3
Standard
 70
     0
 71
     0
 40
1.5
 41
1.5
280
     0
281
     0
  7
STANDARD
140
4.5
170
     2
 62
     0
 63
     7
283
     0
274
    -2
284
     1
 64
     0
275
    -2
285
     1
 65
     0
276
    -2
286
     1
 66
     0
277
    -2
287
     1
 67
     0
278
    -2
288
     1
 68
     0
279
    -2
289
     1
 69
     0
  7
STANDARD
140
6.0
170
     5
 62
     0
 63
     7
283
     0
274
    -2
284
     1
 64
     0
275
    -2
285
     1
 65
     0
276
    -2
286
     1
 66
     0
277
    -2
287
     1
 67
     0
278
    -2
288
     1
 68
     0
279
    -2
289
     1
 69
     0
  7
STANDARD
140
4.5
170
     5
 62
     0
 63
     7
283
     0
274
    -2
284
     1
 64
     0
275
    -2
285
     1
 65
     0
276
    -2
286
     1
 66
     0
277
    -2
287
     1
 67
     0
278
    -2
288
     1
 68
     0
279
    -2
289
     1
 69
     0
  0
VISUALSTYLE
  5
2F
102
{ACAD_XDICTIONARY
360
4C8
102
}
102
{ACAD_REACTORS
330
30
102
}
330
30
100
AcDbVisualStyle
  2
2dWireframe
 70
     4
 71
     0
 72
     2
 73
     0
 90
        0
 40
-0.6
 41
-30.0
 62
     5
 63
     7
 74
     1
 91
        4
 64
     7
 65
   257
 75
     1
175
     1
 42
1.0
 92
        0
 66
   257
 43
1.0
 76
     1
 77
     6
 78
     2
 67
     7
 79
     5
170
     0
171
     0
290
     0
174
     0
 93
        1
 44
0.0
173
     0
291
     0
 45
0.0
1001
ACAD
1000
AcDbSavedByObjectVersion
1070
     0
  0
VISUALSTYLE
  5
56
102
{ACAD_XDICTIONARY
360
4D1
102
}
102
{ACAD_REACTORS
330
30
102
}
330
30
100
AcDbVisualStyle
  2
3dWireframe
 70
     5
 71
     0
 72
     2
 73
     0
 90
        0
 40
-0.6
 41
-30.0
 62
     5
 63
     7
 74
     1
 91
        4
 64
     7
 65
   257
 75
     1
175
     1
 42
1.0
 92
        0
 66
   257
 43
1.0
 76
     1
 77
     6
 78
     2
 67
     7
 79
     5
170
     0
171
     0
290
     0
174
     0
 93
        1
 44
0.0
173
     0
291
     0
 45
0.0
1001
ACAD
1000
AcDbSavedByObjectVersion
1070
     0
  0
VISUALSTYLE
  5
55
102
{ACAD_XDICTIONARY
360
4CF
102
}
102
{ACAD_REACTORS
330
30
102
}
330
30
100
AcDbVisualStyle
  2
Realistic
 70
     8
 71
     2
 72
     2
 73
     0
 90
        0
 40
-0.6
 41
-30.0
 62
     5
 63
     7
 74
     1
 91
        0
 64
     7
 65
   257
 75
     1
175
     1
 42
1.0
 92
        8
 66
     8
 43
1.0
 76
     1
 77
     6
 78
     2
 67
     7
 79
     5
170
     0
171
     0
290
     0
174
     0
 93
       13
 44
0.0
173
     0
291
     0
 45
0.0
1001
ACAD
1000
AcDbSavedByObjectVersion
1070
     0
  0
DICTIONARYVAR
  5
4B0
102
{ACAD_REACTORS
330
4AB
102
}
330
4AB
100
DictionaryVariables
280
     0
  1
1:1
  0
DICTIONARYVAR
  5
4AD
102
{ACAD_REACTORS
330
4AB
102
}
330
4AB
100
DictionaryVariables
280
     0
  1
STANDARD
  0
DICTIONARYVAR
  5
4AC
102
{ACAD_REACTORS
330
4AB
102
}
330
4AB
100
DictionaryVariables
280
     0
  1
STANDARD
  0
DICTIONARYVAR
  5
4AE
102
{ACAD_REACTORS
330
4AB
102
}
330
4AB
100
DictionaryVariables
280
     0
  1

  0
DICTIONARYVAR
  5
4AF
102
{ACAD_REACTORS
330
4AB
102
}
330
4AB
100
DictionaryVariables
280
     0
  1

  0
DICTIONARYVAR
  5
4B5
102
{ACAD_REACTORS
330
4AB
102
}
330
4AB
100
DictionaryVariables
280
     0
  1
2
  0
DICTIONARYVAR
  5
4B3
102
{ACAD_REACTORS
330
4AB
102
}
330
4AB
100
DictionaryVariables
280
     0
  1
1
  0
DICTIONARYVAR
  5
4B2
102
{ACAD_REACTORS
330
4AB
102
}
330
4AB
100
DictionaryVariables
280
     0
  1
0
  0
DICTIONARYVAR
  5
4B6
102
{ACAD_REACTORS
330
4AB
102
}
330
4AB
100
DictionaryVariables
280
     0
  1
1
  0
DICTIONARYVAR
  5
4B1
102
{ACAD_REACTORS
330
4AB
102
}
330
4AB
100
DictionaryVariables
280
     0
  1
127
  0
DICTIONARYVAR
  5
4B4
102
{ACAD_REACTORS
330
4AB
102
}
330
4AB
100
DictionaryVariables
280
     0
  1
0
  0
DICTIONARY
  5
4C2
102
{ACAD_REACTORS
330
4C0
102
}
330
4C0
100
AcDbDictionary
281
     1
  0
DICTIONARY
  5
4C1
102
{ACAD_REACTORS
330
4C0
102
}
330
4C0
100
AcDbDictionary
281
     1
  3
8796080720048
350
4BB
  3
8796080720064
350
4BC
  3
8796080720080
350
4BD
  3
8796080720096
350
4BE
  3
8796080720112
350
4BF
  0
DICTIONARY
  5
44D
102
{ACAD_REACTORS
330
44C
102
}
330
44C
100
AcDbDictionary
281
     1
  0
DICTIONARY
  5
445
102
{ACAD_REACTORS
330
43D
102
}
330
43D
100
AcDbDictionary
281
     1
  3
DWGSETTINGS
350
444
  3
FEM
350
446
  3
Shaft
350
447
  3
TRANSSETTINGS
350
448
  0
XRECORD
  5
1C
102
{ACAD_REACTORS
330
1B
102
}
330
1B
100
AcDbXrecord
280
     1
  1
A111-only
  1
A111*
  1
*
  1
*
 70
     0
  1
*
  1
*
  0
XRECORD
  5
1D
102
{ACAD_REACTORS
330
1B
102
}
330
1B
100
AcDbXrecord
280
     1
  1
CENTER
  1
*
  1
*
  1
CENTER2
 70
     3
  1
*
  1
*
  0
XRECORD
  5
1E
102
{ACAD_REACTORS
330
1B
102
}
330
1B
100
AcDbXrecord
280
     1
  1
E511-only
  1
E511*
  1
*
  1
*
 70
     0
  1
*
  1
*
  0
XRECORD
  5
1F
102
{ACAD_REACTORS
330
1B
102
}
330
1B
100
AcDbXrecord
280
     1
  1
ganci
  1
anello
  1
*
  1
*
 70
     0
  1
*
  1
*
  0
XRECORD
  5
20
102
{ACAD_REACTORS
330
1B
102
}
330
1B
100
AcDbXrecord
280
     1
  1
kiseki
  1
kiseki*
  1
*
  1
*
 70
     0
  1
*
  1
*
  0
XRECORD
  5
21
102
{ACAD_REACTORS
330
1B
102
}
330
1B
100
AcDbXrecord
280
     1
  1
OFF AND FROZEN
  1
*
  1
*
  1
*
 70
     7
  1
*
  1
*
  0
XRECORD
  5
22
102
{ACAD_REACTORS
330
1B
102
}
330
1B
100
AcDbXrecord
280
     1
  1
TTB-only
  1
T*
  1
*
  1
*
 70
     0
  1
*
  1
*
  0
XRECORD
  5
23
102
{ACAD_REACTORS
330
1B
102
}
330
1B
100
AcDbXrecord
280
     1
  1
ロック解除
  1
*
  1
*
  1
*
 70
   768
  1
*
  1
*
  0
DICTIONARY
  5
465
330
464
100
AcDbDictionary
280
     1
281
     1
  3
ACAD_XREC_ROUNDTRIP
360
4D5
  0
DICTIONARY
  5
4C5
330
10
100
AcDbDictionary
280
     1
281
     1
  3
ACAD_XREC_ROUNDTRIP
360
4C6
  0
DICTIONARY
  5
18
330
17
100
AcDbDictionary
280
     1
281
     1
  3
ACAD_XREC_ROUNDTRIP
360
4C7
  0
DICTIONARY
  5
4CC
330
4A
100
AcDbDictionary
280
     1
281
     1
  3
ACAD_XREC_ROUNDTRIP
360
4CD
  0
DICTIONARY
  5
4CA
330
49
100
AcDbDictionary
280
     1
281
     1
  3
ACAD_XREC_ROUNDTRIP
360
4CB
  0
DICTIONARY
  5
4C3
330
C
100
AcDbDictionary
280
     1
281
     1
  3
ACAD_XREC_ROUNDTRIP
360
4C4
  0
DICTIONARY
  5
470
330
46F
100
AcDbDictionary
280
     1
281
     1
  3
ACAD_XREC_ROUNDTRIP
360
4D6
  0
DICTIONARY
  5
54
330
53
100
AcDbDictionary
280
     1
281
     1
  3
ACAD_ROUNDTRIP_2008_TABLESTYLE_CELLSTYLEMAP
360
4B7
  3
ACAD_XREC_ROUNDTRIP
360
4CE
  0
DICTIONARY
  5
4C8
330
2F
100
AcDbDictionary
280
     1
281
     1
  3
ACAD_XREC_ROUNDTRIP
360
4C9
  0
DICTIONARY
  5
4D1
330
56
100
AcDbDictionary
280
     1
281
     1
  3
ACAD_XREC_ROUNDTRIP
360
4D2
  0
DICTIONARY
  5
4CF
330
55
100
AcDbDictionary
280
     1
281
     1
  3
ACAD_XREC_ROUNDTRIP
360
4D0
  0
XRECORD
  5
4BB
102
{ACAD_REACTORS
330
4C1
102
}
330
4C1
100
AcDbXrecord
280
     1
  1
AcDb_Thumbnail_Schema
102
{ATTRRECORD
341
4BC
  2
AcDbDs::TreatedAsObjectData
280
     1
291
     1
102
ATTRRECORD}
102
{ATTRRECORD
341
4BD
  2
AcDbDs::Legacy
280
     1
291
     1
102
ATTRRECORD}
  2
AcDbDs::ID
280
    10
 91
        8
102
{ATTRRECORD
341
4BE
  2
AcDs:Indexable
280
     1
291
     1
102
ATTRRECORD}
102
{ATTRRECORD
341
4BF
  2
AcDbDs::HandleAttribute
280
     7
282
     1
102
ATTRRECORD}
  2
Thumbnail_Data
280
    15
 91
        0
  0
XRECORD
  5
4BC
102
{ACAD_REACTORS
330
4C1
102
}
330
4C1
100
AcDbXrecord
280
     1
  1
AcDbDs::TreatedAsObjectDataSchema
  2
AcDbDs::TreatedAsObjectData
280
     1
 91
        0
  0
XRECORD
  5
4BD
102
{ACAD_REACTORS
330
4C1
102
}
330
4C1
100
AcDbXrecord
280
     1
  1
AcDbDs::LegacySchema
  2
AcDbDs::Legacy
280
     1
 91
        0
  0
XRECORD
  5
4BE
102
{ACAD_REACTORS
330
4C1
102
}
330
4C1
100
AcDbXrecord
280
     1
  1
AcDbDs::IndexedPropertySchema
  2
AcDs:Indexable
280
     1
 91
        0
  0
XRECORD
  5
4BF
102
{ACAD_REACTORS
330
4C1
102
}
330
4C1
100
AcDbXrecord
280
     1
  1
AcDbDs::HandleAttributeSchema
  2
AcDbDs::HandleAttribute
280
     7
 91
        1
284
     1
  0
XRECORD
  5
4D5
102
{ACAD_REACTORS
330
465
102
}
330
465
100
AcDbXrecord
280
     1
102
DISPLAYNAME
  1
Metric50
102
FLAGS
 90
        0
  0
XRECORD
  5
4C6
102
{ACAD_REACTORS
330
4C5
102
}
330
4C5
100
AcDbXrecord
280
     1
102
SHADEPLOT
 70
     0
102
SHADEPLOTRESLEVEL
 70
     2
102
SHADEPLOTCUSTOMDPI
 70
   300
  0
XRECORD
  5
4C7
102
{ACAD_REACTORS
330
18
102
}
330
18
100
AcDbXrecord
280
     1
102
SHADEPLOT
 70
     0
102
SHADEPLOTRESLEVEL
 70
     2
102
SHADEPLOTCUSTOMDPI
 70
   300
  0
XRECORD
  5
4CD
102
{ACAD_REACTORS
330
4CC
102
}
330
4CC
100
AcDbXrecord
280
     1
102
MATERIAL
148
0.0
149
0.0
149
0.0
 93
        0
 94
       63
282
     0
 72
     1
 77
     1
171
     1
175
     1
179
     1
273
     0
  0
XRECORD
  5
4CB
102
{ACAD_REACTORS
330
4CA
102
}
330
4CA
100
AcDbXrecord
280
     1
102
MATERIAL
148
0.0
149
0.0
149
0.0
 93
        0
 94
       63
282
     0
 72
     1
 77
     1
171
     1
175
     1
179
     1
273
     0
  0
XRECORD
  5
4C4
102
{ACAD_REACTORS
330
4C3
102
}
330
4C3
100
AcDbXrecord
280
     1
102
MATERIAL
148
0.0
149
0.0
149
0.0
 93
        0
 94
       63
282
     0
 72
     1
 77
     1
171
     1
175
     1
179
     1
273
     0
  0
XRECORD
  5
4D6
102
{ACAD_REACTORS
330
470
102
}
330
470
100
AcDbXrecord
280
     1
102
DISPLAYNAME
  1
Metric50
102
FLAGS
 90
        0
  0
CELLSTYLEMAP
  5
4B7
102
{ACAD_REACTORS
330
54
102
}
330
54
100
AcDbCellStyleMap
 90
        3
300
CELLSTYLE
  1
TABLEFORMAT_BEGIN
 90
        5
170
     1
 91
        0
 92
    32768
 62
   257
 93
        1
300
CONTENTFORMAT
  1
CONTENTFORMAT_BEGIN
 90
        0
 91
        0
 92
      512
 93
        0
300

 40
0.0
140
1.0
 94
        5
 62
     0
340
26
144
6.0
309
CONTENTFORMAT_END
171
     1
301
MARGIN
  1
CELLMARGIN_BEGIN
 40
1.5
 40
1.5
 40
1.5
 40
1.5
 40
0.18
 40
0.18
309
CELLMARGIN_END
 94
        6
 95
        1
302
GRIDFORMAT
  1
GRIDFORMAT_BEGIN
 90
        0
 91
        1
 62
     0
 92
       -2
340
0
 93
        0
 40
0.045
309
GRIDFORMAT_END
 95
        2
302
GRIDFORMAT
  1
GRIDFORMAT_BEGIN
 90
        0
 91
        1
 62
     0
 92
       -2
340
0
 93
        0
 40
0.045
309
GRIDFORMAT_END
 95
        4
302
GRIDFORMAT
  1
GRIDFORMAT_BEGIN
 90
        0
 91
        1
 62
     0
 92
       -2
340
0
 93
        0
 40
0.045
309
GRIDFORMAT_END
 95
        8
302
GRIDFORMAT
  1
GRIDFORMAT_BEGIN
 90
        0
 91
        1
 62
     0
 92
       -2
340
0
 93
        0
 40
0.045
309
GRIDFORMAT_END
 95
       16
302
GRIDFORMAT
  1
GRIDFORMAT_BEGIN
 90
        0
 91
        1
 62
     0
 92
       -2
340
0
 93
        0
 40
0.045
309
GRIDFORMAT_END
 95
       32
302
GRIDFORMAT
  1
GRIDFORMAT_BEGIN
 90
        0
 91
        1
 62
     0
 92
       -2
340
0
 93
        0
 40
0.045
309
GRIDFORMAT_END
309
TABLEFORMAT_END
  1
CELLSTYLE_BEGIN
 90
        1
 91
        1
300
_TITLE
309
CELLSTYLE_END
300
CELLSTYLE
  1
TABLEFORMAT_BEGIN
 90
        5
170
     1
 91
        0
 92
        0
 62
   257
 93
        1
300
CONTENTFORMAT
  1
CONTENTFORMAT_BEGIN
 90
        0
 91
        0
 92
      512
 93
        0
300

 40
0.0
140
1.0
 94
        5
 62
     0
340
26
144
4.5
309
CONTENTFORMAT_END
171
     1
301
MARGIN
  1
CELLMARGIN_BEGIN
 40
1.5
 40
1.5
 40
1.5
 40
1.5
 40
0.18
 40
0.18
309
CELLMARGIN_END
 94
        6
 95
        1
302
GRIDFORMAT
  1
GRIDFORMAT_BEGIN
 90
        0
 91
        1
 62
     0
 92
       -2
340
0
 93
        0
 40
0.045
309
GRIDFORMAT_END
 95
        2
302
GRIDFORMAT
  1
GRIDFORMAT_BEGIN
 90
        0
 91
        1
 62
     0
 92
       -2
340
0
 93
        0
 40
0.045
309
GRIDFORMAT_END
 95
        4
302
GRIDFORMAT
  1
GRIDFORMAT_BEGIN
 90
        0
 91
        1
 62
     0
 92
       -2
340
0
 93
        0
 40
0.045
309
GRIDFORMAT_END
 95
        8
302
GRIDFORMAT
  1
GRIDFORMAT_BEGIN
 90
        0
 91
        1
 62
     0
 92
       -2
340
0
 93
        0
 40
0.045
309
GRIDFORMAT_END
 95
       16
302
GRIDFORMAT
  1
GRIDFORMAT_BEGIN
 90
        0
 91
        1
 62
     0
 92
       -2
340
0
 93
        0
 40
0.045
309
GRIDFORMAT_END
 95
       32
302
GRIDFORMAT
  1
GRIDFORMAT_BEGIN
 90
        0
 91
        1
 62
     0
 92
       -2
340
0
 93
        0
 40
0.045
309
GRIDFORMAT_END
309
TABLEFORMAT_END
  1
CELLSTYLE_BEGIN
 90
        2
 91
        1
300
_HEADER
309
CELLSTYLE_END
300
CELLSTYLE
  1
TABLEFORMAT_BEGIN
 90
        5
170
     1
 91
        0
 92
        0
 62
   257
 93
        1
300
CONTENTFORMAT
  1
CONTENTFORMAT_BEGIN
 90
        0
 91
        0
 92
      512
 93
        0
300

 40
0.0
140
1.0
 94
        2
 62
     0
340
26
144
4.5
309
CONTENTFORMAT_END
171
     1
301
MARGIN
  1
CELLMARGIN_BEGIN
 40
1.5
 40
1.5
 40
1.5
 40
1.5
 40
0.18
 40
0.18
309
CELLMARGIN_END
 94
        6
 95
        1
302
GRIDFORMAT
  1
GRIDFORMAT_BEGIN
 90
        0
 91
        1
 62
     0
 92
       -2
340
0
 93
        0
 40
0.045
309
GRIDFORMAT_END
 95
        2
302
GRIDFORMAT
  1
GRIDFORMAT_BEGIN
 90
        0
 91
        1
 62
     0
 92
       -2
340
0
 93
        0
 40
0.045
309
GRIDFORMAT_END
 95
        4
302
GRIDFORMAT
  1
GRIDFORMAT_BEGIN
 90
        0
 91
        1
 62
     0
 92
       -2
340
0
 93
        0
 40
0.045
309
GRIDFORMAT_END
 95
        8
302
GRIDFORMAT
  1
GRIDFORMAT_BEGIN
 90
        0
 91
        1
 62
     0
 92
       -2
340
0
 93
        0
 40
0.045
309
GRIDFORMAT_END
 95
       16
302
GRIDFORMAT
  1
GRIDFORMAT_BEGIN
 90
        0
 91
        1
 62
     0
 92
       -2
340
0
 93
        0
 40
0.045
309
GRIDFORMAT_END
 95
       32
302
GRIDFORMAT
  1
GRIDFORMAT_BEGIN
 90
        0
 91
        1
 62
     0
 92
       -2
340
0
 93
        0
 40
0.045
309
GRIDFORMAT_END
309
TABLEFORMAT_END
  1
CELLSTYLE_BEGIN
 90
        3
 91
        2
300
_DATA
309
CELLSTYLE_END
  0
XRECORD
  5
4CE
102
{ACAD_REACTORS
330
54
102
}
330
54
100
AcDbXrecord
280
     1
102
ACAD_ROUNDTRIP_PRE2007_TABLESTYLE
 90
      512
 91
        0
  1

 92
      512
 93
        0
  2

 94
      512
 95
        0
  3

  0
XRECORD
  5
4C9
102
{ACAD_REACTORS
330
4C8
102
}
330
4C8
100
AcDbXrecord
280
     1
102
RTVSPost2010Prop28
280
     1
102
RTVSPost2010PropOp28
 70
     1
102
RTVSPost2010Prop29
280
     1
102
RTVSPost2010PropOp29
 70
     1
102
RTVSPost2010Prop30
280
     0
102
RTVSPost2010PropOp30
 70
     1
102
RTVSPost2010Prop31
280
     0
102
RTVSPost2010PropOp31
 70
     1
102
RTVSPost2010Prop32
280
     0
102
RTVSPost2010PropOp32
 70
     1
102
RTVSPost2010Prop33
280
     0
102
RTVSPost2010PropOp33
 70
     1
102
RTVSPost2010Prop34
280
     0
102
RTVSPost2010PropOp34
 70
     1
102
RTVSPost2010Prop35
280
     0
102
RTVSPost2010PropOp35
 70
     1
102
RTVSPost2010Prop36
280
     0
102
RTVSPost2010PropOp36
 70
     1
102
RTVSPost2010Prop37
 90
       50
102
RTVSPost2010PropOp37
 70
     1
102
RTVSPost2010Prop38
140
0.0
102
RTVSPost2010PropOp38
 70
     1
102
RTVSPost2010Prop39
140
1.0
102
RTVSPost2010PropOp39
 70
     1
102
RTVSPost2010Prop40
 90
        0
102
RTVSPost2010PropOp40
 70
     1
102
RTVSPost2010Prop41ColorIndex
 90
       18
102
RTVSPost2010Prop41ColorRGB
 90
        0
102
RTVSPost2010PropOp41
 70
     1
102
RTVSPost2010Prop42
 90
       50
102
RTVSPost2010PropOp42
 70
     1
102
RTVSPost2010Prop43
 90
        3
102
RTVSPost2010PropOp43
 70
     1
102
RTVSPost2010Prop44ColorIndex
 90
        5
102
RTVSPost2010Prop44ColorRGB
 90
      255
102
RTVSPost2010PropOp44
 70
     1
102
RTVSPost2010Prop45
280
     0
102
RTVSPost2010PropOp45
 70
     1
102
RTVSPost2010Prop46
 90
       50
102
RTVSPost2010PropOp46
 70
     1
102
RTVSPost2010Prop47
 90
       50
102
RTVSPost2010PropOp47
 70
     1
102
RTVSPost2010Prop48
 90
       50
102
RTVSPost2010PropOp48
 70
     1
102
RTVSPost2010Prop49
280
     0
102
RTVSPost2010PropOp49
 70
     1
102
RTVSPost2010Prop50
 90
       50
102
RTVSPost2010PropOp50
 70
     1
102
RTVSPost2010Prop51ColorIndex
 90
      256
102
RTVSPost2010Prop51ColorRGB
 90
-16777216
102
RTVSPost2010PropOp51
 70
     0
102
RTVSPost2010Prop52
140
1.0
102
RTVSPost2010PropOp52
 70
     0
102
RTVSPost2010Prop53
 90
        2
102
RTVSPost2010PropOp53
 70
     1
102
RTVSPost2010Prop54
  1
strokes_ogs.tif
102
RTVSPost2010PropOp54
 70
     1
102
RTVSPost2010Prop55
280
     0
102
RTVSPost2010PropOp55
 70
     1
102
RTVSPost2010Prop56
140
1.0
102
RTVSPost2010PropOp56
 70
     1
102
RTVSPost2010Prop57
140
1.0
102
RTVSPost2010PropOp57
 70
     1
102
RTVSPropertyOp0
 70
     1
102
RTVSPropertyOp1
 70
     1
102
RTVSPropertyOp2
 70
     1
102
RTVSPropertyOp3
 70
     1
102
RTVSPropertyOp4
 70
     1
102
RTVSPropertyOp5
 70
     1
102
RTVSPropertyOp6
 70
     1
102
RTVSPropertyOp7
 70
     1
102
RTVSPropertyOp8
 70
     1
102
RTVSPropertyOp9
 70
     1
102
RTVSPropertyOp10
 70
     1
102
RTVSPropertyOp11
 70
     1
102
RTVSPropertyOp12
 70
     1
102
RTVSPropertyOp13
 70
     1
102
RTVSPropertyOp14
 70
     1
102
RTVSPropertyOp15
 70
     1
102
RTVSPropertyOp16
 70
     1
102
RTVSPropertyOp17
 70
     1
102
RTVSPropertyOp18
 70
     1
102
RTVSPropertyOp19
 70
     1
102
RTVSPropertyOp20
 70
     1
102
RTVSPropertyOp21
 70
     1
102
RTVSPropertyOp22
 70
     1
102
RTVSPropertyOp23
 70
     1
102
RTVSPropertyOp24
 70
     1
102
RTVSPropertyOp25
 70
     1
102
RTVSPropertyOp26
 70
     1
102
RTVSPropertyOp27
 70
     1
102
RTVSPropertyOp28
 70
     1
102
RTVSPropertyOp29
 70
     1
102
RTVSPropertyOp30
 70
     1
102
RTVSPropertyOp31
 70
     1
102
RTVSPropertyOp32
 70
     1
102
RTVSPropertyOp33
 70
     1
102
RTVSPropertyOp34
 70
     1
102
RTVSPropertyOp35
 70
     1
102
RTVSPropertyOp36
 70
     1
102
RTVSPropertyOp37
 70
     1
102
RTVSPropertyOp38
 70
     1
102
RTVSPropertyOp39
 70
     1
102
RTVSPropertyOp40
 70
     1
102
RTVSPropertyOp41
 70
     1
102
RTVSPropertyOp42
 70
     1
102
RTVSPropertyOp43
 70
     1
102
RTVSPropertyOp44
 70
     1
102
RTVSPropertyOp45
 70
     1
102
RTVSPropertyOp46
 70
     1
102
RTVSPropertyOp47
 70
     1
102
RTVSPropertyOp48
 70
     1
102
RTVSPropertyOp49
 70
     1
102
RTVSPropertyOp50
 70
     1
102
RTVSPropertyOp51
 70
     0
102
RTVSPropertyOp52
 70
     0
102
RTVSPropertyOp53
 70
     1
102
RTVSPropertyOp54
 70
     1
102
RTVSPropertyOp55
 70
     1
102
RTVSPropertyOp56
 70
     1
102
RTVSPropertyOp57
 70
     1
102
RTVSPropertyOp58
 70
     1
102
RTVSPropertyOp59
 70
     1
102
RTVSPropertyOp60
 70
     1
102
RTVSPropertyOp61
 70
     1
102
RTVSPropertyOp62
 70
     1
  0
XRECORD
  5
4D2
102
{ACAD_REACTORS
330
4D1
102
}
330
4D1
100
AcDbXrecord
280
     1
102
RTVSPost2010Prop28
280
     0
102
RTVSPost2010PropOp28
 70
     1
102
RTVSPost2010Prop29
280
     1
102
RTVSPost2010PropOp29
 70
     1
102
RTVSPost2010Prop30
280
     1
102
RTVSPost2010PropOp30
 70
     1
102
RTVSPost2010Prop31
280
     0
102
RTVSPost2010PropOp31
 70
     1
102
RTVSPost2010Prop32
280
     0
102
RTVSPost2010PropOp32
 70
     1
102
RTVSPost2010Prop33
280
     0
102
RTVSPost2010PropOp33
 70
     1
102
RTVSPost2010Prop34
280
     0
102
RTVSPost2010PropOp34
 70
     1
102
RTVSPost2010Prop35
280
     0
102
RTVSPost2010PropOp35
 70
     1
102
RTVSPost2010Prop36
280
     0
102
RTVSPost2010PropOp36
 70
     1
102
RTVSPost2010Prop37
 90
       50
102
RTVSPost2010PropOp37
 70
     1
102
RTVSPost2010Prop38
140
0.0
102
RTVSPost2010PropOp38
 70
     1
102
RTVSPost2010Prop39
140
1.0
102
RTVSPost2010PropOp39
 70
     1
102
RTVSPost2010Prop40
 90
        0
102
RTVSPost2010PropOp40
 70
     1
102
RTVSPost2010Prop41ColorIndex
 90
       18
102
RTVSPost2010Prop41ColorRGB
 90
        0
102
RTVSPost2010PropOp41
 70
     1
102
RTVSPost2010Prop42
 90
       50
102
RTVSPost2010PropOp42
 70
     1
102
RTVSPost2010Prop43
 90
        3
102
RTVSPost2010PropOp43
 70
     1
102
RTVSPost2010Prop44ColorIndex
 90
        5
102
RTVSPost2010Prop44ColorRGB
 90
      255
102
RTVSPost2010PropOp44
 70
     1
102
RTVSPost2010Prop45
280
     0
102
RTVSPost2010PropOp45
 70
     1
102
RTVSPost2010Prop46
 90
       50
102
RTVSPost2010PropOp46
 70
     1
102
RTVSPost2010Prop47
 90
       50
102
RTVSPost2010PropOp47
 70
     1
102
RTVSPost2010Prop48
 90
       50
102
RTVSPost2010PropOp48
 70
     1
102
RTVSPost2010Prop49
280
     0
102
RTVSPost2010PropOp49
 70
     1
102
RTVSPost2010Prop50
 90
       50
102
RTVSPost2010PropOp50
 70
     1
102
RTVSPost2010Prop51ColorIndex
 90
      256
102
RTVSPost2010Prop51ColorRGB
 90
-16777216
102
RTVSPost2010PropOp51
 70
     0
102
RTVSPost2010Prop52
140
1.0
102
RTVSPost2010PropOp52
 70
     0
102
RTVSPost2010Prop53
 90
        2
102
RTVSPost2010PropOp53
 70
     1
102
RTVSPost2010Prop54
  1
strokes_ogs.tif
102
RTVSPost2010PropOp54
 70
     1
102
RTVSPost2010Prop55
280
     0
102
RTVSPost2010PropOp55
 70
     1
102
RTVSPost2010Prop56
140
1.0
102
RTVSPost2010PropOp56
 70
     1
102
RTVSPost2010Prop57
140
1.0
102
RTVSPost2010PropOp57
 70
     1
102
RTVSPropertyOp0
 70
     1
102
RTVSPropertyOp1
 70
     1
102
RTVSPropertyOp2
 70
     1
102
RTVSPropertyOp3
 70
     1
102
RTVSPropertyOp4
 70
     1
102
RTVSPropertyOp5
 70
     1
102
RTVSPropertyOp6
 70
     1
102
RTVSPropertyOp7
 70
     1
102
RTVSPropertyOp8
 70
     1
102
RTVSPropertyOp9
 70
     1
102
RTVSPropertyOp10
 70
     1
102
RTVSPropertyOp11
 70
     1
102
RTVSPropertyOp12
 70
     1
102
RTVSPropertyOp13
 70
     1
102
RTVSPropertyOp14
 70
     1
102
RTVSPropertyOp15
 70
     1
102
RTVSPropertyOp16
 70
     1
102
RTVSPropertyOp17
 70
     1
102
RTVSPropertyOp18
 70
     1
102
RTVSPropertyOp19
 70
     1
102
RTVSPropertyOp20
 70
     1
102
RTVSPropertyOp21
 70
     1
102
RTVSPropertyOp22
 70
     1
102
RTVSPropertyOp23
 70
     1
102
RTVSPropertyOp24
 70
     1
102
RTVSPropertyOp25
 70
     1
102
RTVSPropertyOp26
 70
     1
102
RTVSPropertyOp27
 70
     1
102
RTVSPropertyOp28
 70
     1
102
RTVSPropertyOp29
 70
     1
102
RTVSPropertyOp30
 70
     1
102
RTVSPropertyOp31
 70
     1
102
RTVSPropertyOp32
 70
     1
102
RTVSPropertyOp33
 70
     1
102
RTVSPropertyOp34
 70
     1
102
RTVSPropertyOp35
 70
     1
102
RTVSPropertyOp36
 70
     1
102
RTVSPropertyOp37
 70
     1
102
RTVSPropertyOp38
 70
     1
102
RTVSPropertyOp39
 70
     1
102
RTVSPropertyOp40
 70
     1
102
RTVSPropertyOp41
 70
     1
102
RTVSPropertyOp42
 70
     1
102
RTVSPropertyOp43
 70
     1
102
RTVSPropertyOp44
 70
     1
102
RTVSPropertyOp45
 70
     1
102
RTVSPropertyOp46
 70
     1
102
RTVSPropertyOp47
 70
     1
102
RTVSPropertyOp48
 70
     1
102
RTVSPropertyOp49
 70
     1
102
RTVSPropertyOp50
 70
     1
102
RTVSPropertyOp51
 70
     0
102
RTVSPropertyOp52
 70
     0
102
RTVSPropertyOp53
 70
     1
102
RTVSPropertyOp54
 70
     1
102
RTVSPropertyOp55
 70
     1
102
RTVSPropertyOp56
 70
     1
102
RTVSPropertyOp57
 70
     1
102
RTVSPropertyOp58
 70
     1
102
RTVSPropertyOp59
 70
     1
102
RTVSPropertyOp60
 70
     1
102
RTVSPropertyOp61
 70
     1
102
RTVSPropertyOp62
 70
     1
  0
XRECORD
  5
4D0
102
{ACAD_REACTORS
330
4CF
102
}
330
4CF
100
AcDbXrecord
280
     1
102
RTVSPost2010Prop28
280
     0
102
RTVSPost2010PropOp28
 70
     1
102
RTVSPost2010Prop29
280
     1
102
RTVSPost2010PropOp29
 70
     1
102
RTVSPost2010Prop30
280
     1
102
RTVSPost2010PropOp30
 70
     1
102
RTVSPost2010Prop31
280
     0
102
RTVSPost2010PropOp31
 70
     1
102
RTVSPost2010Prop32
280
     0
102
RTVSPost2010PropOp32
 70
     1
102
RTVSPost2010Prop33
280
     0
102
RTVSPost2010PropOp33
 70
     1
102
RTVSPost2010Prop34
280
     0
102
RTVSPost2010PropOp34
 70
     1
102
RTVSPost2010Prop35
280
     0
102
RTVSPost2010PropOp35
 70
     1
102
RTVSPost2010Prop36
280
     0
102
RTVSPost2010PropOp36
 70
     1
102
RTVSPost2010Prop37
 90
       50
102
RTVSPost2010PropOp37
 70
     1
102
RTVSPost2010Prop38
140
0.0
102
RTVSPost2010PropOp38
 70
     1
102
RTVSPost2010Prop39
140
1.0
102
RTVSPost2010PropOp39
 70
     1
102
RTVSPost2010Prop40
 90
        0
102
RTVSPost2010PropOp40
 70
     1
102
RTVSPost2010Prop41ColorIndex
 90
       18
102
RTVSPost2010Prop41ColorRGB
 90
        0
102
RTVSPost2010PropOp41
 70
     1
102
RTVSPost2010Prop42
 90
       50
102
RTVSPost2010PropOp42
 70
     1
102
RTVSPost2010Prop43
 90
        3
102
RTVSPost2010PropOp43
 70
     1
102
RTVSPost2010Prop44ColorIndex
 90
        5
102
RTVSPost2010Prop44ColorRGB
 90
      255
102
RTVSPost2010PropOp44
 70
     1
102
RTVSPost2010Prop45
280
     0
102
RTVSPost2010PropOp45
 70
     1
102
RTVSPost2010Prop46
 90
       50
102
RTVSPost2010PropOp46
 70
     1
102
RTVSPost2010Prop47
 90
       50
102
RTVSPost2010PropOp47
 70
     1
102
RTVSPost2010Prop48
 90
       50
102
RTVSPost2010PropOp48
 70
     1
102
RTVSPost2010Prop49
280
     0
102
RTVSPost2010PropOp49
 70
     1
102
RTVSPost2010Prop50
 90
       50
102
RTVSPost2010PropOp50
 70
     1
102
RTVSPost2010Prop51ColorIndex
 90
      256
102
RTVSPost2010Prop51ColorRGB
 90
-16777216
102
RTVSPost2010PropOp51
 70
     0
102
RTVSPost2010Prop52
140
1.0
102
RTVSPost2010PropOp52
 70
     0
102
RTVSPost2010Prop53
 90
        2
102
RTVSPost2010PropOp53
 70
     1
102
RTVSPost2010Prop54
  1
strokes_ogs.tif
102
RTVSPost2010PropOp54
 70
     1
102
RTVSPost2010Prop55
280
     0
102
RTVSPost2010PropOp55
 70
     1
102
RTVSPost2010Prop56
140
1.0
102
RTVSPost2010PropOp56
 70
     1
102
RTVSPost2010Prop57
140
1.0
102
RTVSPost2010PropOp57
 70
     1
102
RTVSPropertyOp0
 70
     1
102
RTVSPropertyOp1
 70
     1
102
RTVSPropertyOp2
 70
     1
102
RTVSPropertyOp3
 70
     1
102
RTVSPropertyOp4
 70
     1
102
RTVSPropertyOp5
 70
     1
102
RTVSPropertyOp6
 70
     1
102
RTVSPropertyOp7
 70
     1
102
RTVSPropertyOp8
 70
     1
102
RTVSPropertyOp9
 70
     1
102
RTVSPropertyOp10
 70
     1
102
RTVSPropertyOp11
 70
     1
102
RTVSPropertyOp12
 70
     1
102
RTVSPropertyOp13
 70
     1
102
RTVSPropertyOp14
 70
     1
102
RTVSPropertyOp15
 70
     1
102
RTVSPropertyOp16
 70
     1
102
RTVSPropertyOp17
 70
     1
102
RTVSPropertyOp18
 70
     1
102
RTVSPropertyOp19
 70
     1
102
RTVSPropertyOp20
 70
     1
102
RTVSPropertyOp21
 70
     1
102
RTVSPropertyOp22
 70
     1
102
RTVSPropertyOp23
 70
     1
102
RTVSPropertyOp24
 70
     1
102
RTVSPropertyOp25
 70
     1
102
RTVSPropertyOp26
 70
     1
102
RTVSPropertyOp27
 70
     1
102
RTVSPropertyOp28
 70
     1
102
RTVSPropertyOp29
 70
     1
102
RTVSPropertyOp30
 70
     1
102
RTVSPropertyOp31
 70
     1
102
RTVSPropertyOp32
 70
     1
102
RTVSPropertyOp33
 70
     1
102
RTVSPropertyOp34
 70
     1
102
RTVSPropertyOp35
 70
     1
102
RTVSPropertyOp36
 70
     1
102
RTVSPropertyOp37
 70
     1
102
RTVSPropertyOp38
 70
     1
102
RTVSPropertyOp39
 70
     1
102
RTVSPropertyOp40
 70
     1
102
RTVSPropertyOp41
 70
     1
102
RTVSPropertyOp42
 70
     1
102
RTVSPropertyOp43
 70
     1
102
RTVSPropertyOp44
 70
     1
102
RTVSPropertyOp45
 70
     1
102
RTVSPropertyOp46
 70
     1
102
RTVSPropertyOp47
 70
     1
102
RTVSPropertyOp48
 70
     1
102
RTVSPropertyOp49
 70
     1
102
RTVSPropertyOp50
 70
     1
102
RTVSPropertyOp51
 70
     0
102
RTVSPropertyOp52
 70
     0
102
RTVSPropertyOp53
 70
     1
102
RTVSPropertyOp54
 70
     1
102
RTVSPropertyOp55
 70
     1
102
RTVSPropertyOp56
 70
     1
102
RTVSPropertyOp57
 70
     1
102
RTVSPropertyOp58
 70
     1
102
RTVSPropertyOp59
 70
     1
102
RTVSPropertyOp60
 70
     1
102
RTVSPropertyOp61
 70
     1
102
RTVSPropertyOp62
 70
     1
  0
ENDSEC
  0
EOF
