  0
SECTION
  2
HEADER
  9
$ACADVER
  1
AC1015
  9
$ACADMAINTVER
 70
    18
  9
$DWGCODEPAGE
  3
ANSI_932
  9
$INSBASE
 10
-271.5893678300117
 20
-2136.527570236173
 30
0.0
  9
$EXTMIN
 10
-1012.416817272407
 20
-3212.581722651603
 30
0.0
  9
$EXTMAX
 10
5938.000000000004
 20
1135.725567356596
 30
0.0
  9
$LIMMIN
 10
0.0
 20
0.0
  9
$LIMMAX
 10
380.0
 20
260.0
  9
$ORTHOMODE
 70
     1
  9
$REGENMODE
 70
     1
  9
$FILLMODE
 70
     1
  9
$QTEXTMODE
 70
     0
  9
$MIRRTEXT
 70
     0
  9
$LTSCALE
 40
10.0
  9
$ATTMODE
 70
     1
  9
$TEXTSIZE
 40
2.5
  9
$TRACEWID
 40
0.05
  9
$TEXTSTYLE
  7
K1
  9
$CLAYER
  8
K-1
  9
$CELTYPE
  6
ByBlock
  9
$CECOLOR
 62
     0
  9
$CELTSCALE
 40
1.0
  9
$DISPSILH
 70
     0
  9
$DIMSCALE
 40
1.0
  9
$DIMASZ
 40
3.0
  9
$DIMEXO
 40
0.4999999999999997
  9
$DIMDLI
 40
10.0
  9
$DIMRND
 40
0.0
  9
$DIMDLE
 40
0.0
  9
$DIMEXE
 40
1.0
  9
$DIMTP
 40
0.02
  9
$DIMTM
 40
0.02
  9
$DIMTXT
 40
4.0
  9
$DIMCEN
 40
0.0
  9
$DIMTSZ
 40
0.0
  9
$DIMTOL
 70
     0
  9
$DIMLIM
 70
     0
  9
$DIMTIH
 70
     0
  9
$DIMTOH
 70
     0
  9
$DIMSE1
 70
     0
  9
$DIMSE2
 70
     0
  9
$DIMTAD
 70
     3
  9
$DIMZIN
 70
     8
  9
$DIMBLK
  1
Open30
  9
$DIMASO
 70
     1
  9
$DIMSHO
 70
     0
  9
$DIMPOST
  1
P.C.D<>
  9
$DIMAPOST
  1
"
  9
$DIMALT
 70
     0
  9
$DIMALTD
 70
     2
  9
$DIMALTF
 40
0.0393701
  9
$DIMLFAC
 40
1.0
  9
$DIMTOFL
 70
     1
  9
$DIMTVP
 40
0.0
  9
$DIMTIX
 70
     0
  9
$DIMSOXD
 70
     0
  9
$DIMSAH
 70
     0
  9
$DIMBLK1
  1

  9
$DIMBLK2
  1

  9
$DIMSTYLE
  2
PCD_AM_JIS
  9
$DIMCLRD
 70
   256
  9
$DIMCLRE
 70
   256
  9
$DIMCLRT
 70
     7
  9
$DIMTFAC
 40
0.71
  9
$DIMGAP
 40
1.5
  9
$DIMJUST
 70
     0
  9
$DIMSD1
 70
     0
  9
$DIMSD2
 70
     0
  9
$DIMTOLJ
 70
     0
  9
$DIMTZIN
 70
     8
  9
$DIMALTZ
 70
     0
  9
$DIMALTTZ
 70
     0
  9
$DIMUPT
 70
     0
  9
$DIMDEC
 70
     8
  9
$DIMTDEC
 70
     8
  9
$DIMALTU
 70
     2
  9
$DIMALTTD
 70
     2
  9
$DIMTXSTY
  7
K1
  9
$DIMAUNIT
 70
     0
  9
$DIMADEC
 70
     0
  9
$DIMALTRND
 40
0.0
  9
$DIMAZIN
 70
     2
  9
$DIMDSEP
 70
    46
  9
$DIMATFIT
 70
     2
  9
$DIMFRAC
 70
     0
  9
$DIMLDRBLK
  1
Open30
  9
$DIMLUNIT
 70
     2
  9
$DIMLWD
 70
    -1
  9
$DIMLWE
 70
    -1
  9
$DIMTMOVE
 70
     0
  9
$LUNITS
 70
     2
  9
$LUPREC
 70
     2
  9
$SKETCHINC
 40
0.1
  9
$FILLETRAD
 40
0.0
  9
$AUNITS
 70
     0
  9
$AUPREC
 70
     2
  9
$MENU
  1
SSE-M2
  9
$ELEVATION
 40
0.0
  9
$PELEVATION
 40
0.0
  9
$THICKNESS
 40
0.0
  9
$LIMCHECK
 70
     0
  9
$CHAMFERA
 40
1.0
  9
$CHAMFERB
 40
1.0
  9
$CHAMFERC
 40
2.500000000000085
  9
$CHAMFERD
 40
0.7853981633974483
  9
$SKPOLY
 70
     0
  9
$TDCREATE
 40
2455541.484285116
  9
$TDUCREATE
 40
2455541.109285116
  9
$TDUPDATE
 40
2456715.748823519
  9
$TDUUPDATE
 40
2456715.373823519
  9
$TDINDWG
 40
7.9900122106
  9
$TDUSRTIMER
 40
7.9900120255
  9
$USRTIMER
 70
     1
  9
$ANGBASE
 50
0.0
  9
$ANGDIR
 70
     0
  9
$PDMODE
 70
     1
  9
$PDSIZE
 40
0.0
  9
$PLINEWID
 40
0.0
  9
$SPLFRAME
 70
     0
  9
$SPLINETYPE
 70
     5
  9
$SPLINESEGS
 70
     8
  9
$HANDSEED
  5
480
  9
$SURFTAB1
 70
     6
  9
$SURFTAB2
 70
     6
  9
$SURFTYPE
 70
     6
  9
$SURFU
 70
     6
  9
$SURFV
 70
     6
  9
$UCSBASE
  2

  9
$UCSNAME
  2

  9
$UCSORG
 10
0.0
 20
0.0
 30
0.0
  9
$UCSXDIR
 10
1.0
 20
0.0
 30
0.0
  9
$UCSYDIR
 10
0.0
 20
1.0
 30
0.0
  9
$UCSORTHOREF
  2

  9
$UCSORTHOVIEW
 70
     0
  9
$UCSORGTOP
 10
0.0
 20
0.0
 30
0.0
  9
$UCSORGBOTTOM
 10
0.0
 20
0.0
 30
0.0
  9
$UCSORGLEFT
 10
0.0
 20
0.0
 30
0.0
  9
$UCSORGRIGHT
 10
0.0
 20
0.0
 30
0.0
  9
$UCSORGFRONT
 10
0.0
 20
0.0
 30
0.0
  9
$UCSORGBACK
 10
0.0
 20
0.0
 30
0.0
  9
$PUCSBASE
  2

  9
$PUCSNAME
  2

  9
$PUCSORG
 10
0.0
 20
0.0
 30
0.0
  9
$PUCSXDIR
 10
1.0
 20
0.0
 30
0.0
  9
$PUCSYDIR
 10
0.0
 20
1.0
 30
0.0
  9
$PUCSORTHOREF
  2

  9
$PUCSORTHOVIEW
 70
     0
  9
$PUCSORGTOP
 10
0.0
 20
0.0
 30
0.0
  9
$PUCSORGBOTTOM
 10
0.0
 20
0.0
 30
0.0
  9
$PUCSORGLEFT
 10
0.0
 20
0.0
 30
0.0
  9
$PUCSORGRIGHT
 10
0.0
 20
0.0
 30
0.0
  9
$PUCSORGFRONT
 10
0.0
 20
0.0
 30
0.0
  9
$PUCSORGBACK
 10
0.0
 20
0.0
 30
0.0
  9
$USERI1
 70
     3
  9
$USERI2
 70
     0
  9
$USERI3
 70
     0
  9
$USERI4
 70
     0
  9
$USERI5
 70
     0
  9
$USERR1
 40
2.5
  9
$USERR2
 40
1.0
  9
$USERR3
 40
15.0
  9
$USERR4
 40
1.0
  9
$USERR5
 40
5.0
  9
$WORLDVIEW
 70
     1
  9
$SHADEDGE
 70
     3
  9
$SHADEDIF
 70
    70
  9
$TILEMODE
 70
     1
  9
$MAXACTVP
 70
    64
  9
$PINSBASE
 10
0.0
 20
0.0
 30
0.0
  9
$PLIMCHECK
 70
     0
  9
$PEXTMIN
 10
-10.01835592131328
 20
-10.01299674582856
 30
-0.0015258207003583
  9
$PEXTMAX
 10
590.0366018691502
 20
415.0130182616429
 30
0.0000000349246037
  9
$PLIMMIN
 10
-8.391071047101702
 20
-8.391068322317941
  9
$PLIMMAX
 10
591.5327222006661
 20
415.9098611559186
  9
$UNITMODE
 70
     0
  9
$VISRETAIN
 70
     1
  9
$PLINEGEN
 70
     0
  9
$PSLTSCALE
 70
     1
  9
$TREEDEPTH
 70
  3020
  9
$CMLSTYLE
  2
Standard
  9
$CMLJUST
 70
     0
  9
$CMLSCALE
 40
1.0
  9
$PROXYGRAPHICS
 70
     1
  9
$MEASUREMENT
 70
     1
  9
$CELWEIGHT
370
    -1
  9
$ENDCAPS
280
     0
  9
$JOINSTYLE
280
     0
  9
$LWDISPLAY
290
     0
  9
$INSUNITS
 70
     4
  9
$HYPERLINKBASE
  1

  9
$STYLESHEET
  1

  9
$XEDIT
290
     1
  9
$CEPSNTYPE
380
     0
  9
$PSTYLEMODE
290
     1
  9
$FINGERPRINTGUID
  2
{10FEDD02-E5A2-40D9-A786-CF42A3322498}
  9
$VERSIONGUID
  2
{08BE4ADB-4438-4429-8724-1FB89DF144B4}
  9
$EXTNAMES
290
     1
  9
$PSVPSCALE
 40
0.0
  9
$OLESTARTUP
290
     0
  0
ENDSEC
  0
SECTION
  2
CLASSES
  0
CLASS
  1
ACDBDICTIONARYWDFLT
  2
AcDbDictionaryWithDefault
  3
ObjectDBX Classes
 90
        0
280
     0
281
     0
  0
CLASS
  1
ACDBPLACEHOLDER
  2
AcDbPlaceHolder
  3
ObjectDBX Classes
 90
        0
280
     0
281
     0
  0
CLASS
  1
LAYOUT
  2
AcDbLayout
  3
ObjectDBX Classes
 90
        0
280
     0
281
     0
  0
CLASS
  1
ACME_DOCUMENT
  2
AcMeDbDoc
  3
AcMeServices
 90
    33792
280
     0
281
     0
  0
CLASS
  1
AMGSETTINGSOBJ
  2
AmgSettingsObj
  3
"AcadM|Product Description: AutoCAD Mechanical|Company: Autodesk, Inc."
 90
     1024
280
     0
281
     0
  0
CLASS
  1
ACMESCOPE
  2
AcMeScope
  3
AcMeServices
 90
     1024
280
     0
281
     0
  0
CLASS
  1
ACMECOMMANDHISTORY
  2
AcMeCommandHistory
  3
AcMeServices
 90
    33792
280
     0
281
     0
  0
CLASS
  1
ACIMSYSVARMAN
  2
AcImSysVarManager
  3
AcMeServices
 90
     1024
280
     0
281
     0
  0
CLASS
  1
ACIMREALSYSVAR
  2
AcImRealSysVar
  3
AcMeServices
 90
     1024
280
     0
281
     0
  0
CLASS
  1
ACIMINTSYSVAR
  2
AcImIntSysVar
  3
AcMeServices
 90
     1024
280
     0
281
     0
  0
CLASS
  1
ACMEDRAWINGMAN
  2
AcMeDrawingMan
  3
AcMeServices
 90
    33792
280
     0
281
     0
  0
CLASS
  1
ACMEVIEW
  2
AcMeView
  3
AcMeServices
 90
    33792
280
     0
281
     0
  0
CLASS
  1
ACDBENTITYCACHE
  2
AcMeEntityCache
  3
AcMeServices
 90
    33792
280
     0
281
     0
  0
CLASS
  1
GSMANAGER
  2
AcMeGSManager
  3
AcMeServices
 90
    33792
280
     1
281
     0
  0
CLASS
  1
AMDTINTERNALREACTOR
  2
AmdtInternalReactor
  3
AcMeServices
 90
     1024
280
     0
281
     0
  0
CLASS
  1
ACMESTATEMGR
  2
AcMeStateMgr
  3
AcMeServices
 90
     1024
280
     0
281
     0
  0
CLASS
  1
ACGREFMASTER
  2
AcGrefMaster
  3
AcAttribServices
 90
     1024
280
     0
281
     0
  0
CLASS
  1
ACME_DATABASE
  2
AcMeDbDatabase
  3
AcMeServices
 90
    33792
280
     0
281
     0
  0
CLASS
  1
ACRFINSADJUSTERMGR
  2
AcRfInsAdjusterMgr
  3
AcMeServices
 90
    33792
280
     0
281
     0
  0
CLASS
  1
ACGREFACADMASTER
  2
AcGrefacadMaster
  3
AcGrefServices
 90
    33792
280
     0
281
     0
  0
CLASS
  1
AMIMASTER
  2
AmiMaster
  3
AmiServices
 90
    33792
280
     0
281
     0
  0
CLASS
  1
ACMDATADICTIONARY
  2
AcmDataDictionary
  3
"AcmSymBB|Product Description: AutoCAD Mechanical|Company: Autodesk, Inc."
 90
     1024
280
     0
281
     0
  0
CLASS
  1
ACMDATAENTRYBLOCK
  2
AcmDataEntryBlock
  3
AcmSymBB|Product Description: AutoCAD Mechanical|Company: Autodesk, Inc.
 90
     1024
280
     0
281
     0
  0
CLASS
  1
ACIMSTRSYSVAR
  2
AcImStrSysVar
  3
AcMeServices
 90
     1024
280
     0
281
     0
  0
CLASS
  1
ACMSTANDARDANSI
  2
AcmStandardANSI
  3
"Amdt_StdImp|Product Description: AutoCAD Mechanical|Company: Autodesk, Inc."
 90
    33792
280
     0
281
     0
  0
CLASS
  1
AMGOBJPROPCFG
  2
AmgObjPropCfg
  3
"AmgLay|Product Description: AutoCAD Mechanical|Company: Autodesk, Inc."
 90
     1024
280
     0
281
     0
  0
CLASS
  1
ACMSURFSTANDARDANSI
  2
AcmSurfTextStdANSI
  3
"Amdt_StdImp|Product Description: AutoCAD Mechanical|Company: Autodesk, Inc."
 90
    33792
280
     0
281
     0
  0
CLASS
  1
ACMFCFSTANDARDANSI
  2
AcmFCFStdANSI
  3
"Amdt_StdImp|Product Description: AutoCAD Mechanical|Company: Autodesk, Inc."
 90
    33792
280
     0
281
     0
  0
CLASS
  1
ACMWELDSTANDARDANSI
  2
AcmWeldingStdANSI
  3
"Amdt_StdImp|Product Description: AutoCAD Mechanical|Company: Autodesk, Inc."
 90
    33792
280
     0
281
     0
  0
CLASS
  1
ACMIDSTANDARDANSI
  2
AcmIdStdANSI
  3
"Amdt_StdImp|Product Description: AutoCAD Mechanical|Company: Autodesk, Inc."
 90
    33792
280
     0
281
     0
  0
CLASS
  1
ACMDATUMSTANDARDANSI
  2
AcmDatumStdANSI
  3
"Amdt_StdImp|Product Description: AutoCAD Mechanical|Company: Autodesk, Inc."
 90
    33792
280
     0
281
     0
  0
CLASS
  1
ACMBOMSTANDARDANSI
  2
AcmBOMStdANSI
  3
"Amdt_StdImp|Product Description: AutoCAD Mechanical|Company: Autodesk, Inc."
 90
    33792
280
     0
281
     0
  0
CLASS
  1
ACMDETAILSTANDARDANSI
  2
AmdtDetailSymStdANSI
  3
"Amdt_StdImp|Product Description: AutoCAD Mechanical|Company: Autodesk, Inc."
 90
    33792
280
     0
281
     0
  0
CLASS
  1
ACMSECTIONSTANDARDANSI
  2
AmdtSectionSymStdANSI
  3
"Amdt_StdImp|Product Description: AutoCAD Mechanical|Company: Autodesk, Inc."
 90
    33792
280
     0
281
     0
  0
CLASS
  1
ACMCENTERLINESTANDARDANSI
  2
AmdtCenterLineStdANSI
  3
"Amdt_StdImp|Product Description: AutoCAD Mechanical|Company: Autodesk, Inc."
 90
    33792
280
     0
281
     0
  0
CLASS
  1
ACMNOTESTANDARDANSI
  2
AmdtNoteStdANSI
  3
"Amdt_StdImp|Product Description: AutoCAD Mechanical|Company: Autodesk, Inc."
 90
    33792
280
     0
281
     0
  0
CLASS
  1
ACAMGLAYSTD
  2
AcAmgLayStd
  3
"AmgLay|Product Description: AutoCAD Mechanical|Company: Autodesk, Inc."
 90
     1024
280
     0
281
     0
  0
CLASS
  1
ACAMGDIMSTD
  2
AcAmgDimStd
  3
"AmgDim|Product Description: AutoCAD Mechanical|Company: Autodesk, Inc."
 90
     1024
280
     0
281
     0
  0
CLASS
  1
ACAMGHOLECHARTSTDANSI
  2
AcAmgHoleChartStdANSI
  3
AmgDim|Product Description: AutoCAD Mechanical|Company: Autodesk, Inc.
 90
    33792
280
     0
281
     0
  0
CLASS
  1
ACAMGTITLESTD
  2
AcAmgTitleStd
  3
"AmgTitle|Product Description: AutoCAD Mechanical|Company: Autodesk, Inc."
 90
     1024
280
     0
281
     0
  0
CLASS
  1
ACAMGFILTERDAT
  2
AcAmgFilterDat
  3
"AcadM|Product Description: AutoCAD Mechanical|Company: Autodesk, Inc."
 90
    33792
280
     0
281
     0
  0
CLASS
  1
ACMSTANDARDJIS
  2
AcmStandardJIS
  3
"Amdt_StdImp|Product Description: AutoCAD Mechanical|Company: Autodesk, Inc."
 90
     1024
280
     0
281
     0
  0
CLASS
  1
ACMSURFSTANDARDJIS
  2
AcmSurfTextStdJIS
  3
"Amdt_StdImp|Product Description: AutoCAD Mechanical|Company: Autodesk, Inc."
 90
     1024
280
     0
281
     0
  0
CLASS
  1
ACMFCFSTANDARDJIS98
  2
AcmFCFStdJIS98
  3
"Amdt_StdImp|Product Description: AutoCAD Mechanical|Company: Autodesk, Inc."
 90
     1024
280
     0
281
     0
  0
CLASS
  1
ACMWELDSTANDARDJIS
  2
AcmWeldingStdJIS
  3
"Amdt_StdImp|Product Description: AutoCAD Mechanical|Company: Autodesk, Inc."
 90
     1024
280
     0
281
     0
  0
CLASS
  1
ACMIDSTANDARDJIS
  2
AcmIdStdJIS
  3
"Amdt_StdImp|Product Description: AutoCAD Mechanical|Company: Autodesk, Inc."
 90
     1024
280
     0
281
     0
  0
CLASS
  1
ACMDATUMSTANDARDJIS
  2
AcmDatumStdJIS
  3
"Amdt_StdImp|Product Description: AutoCAD Mechanical|Company: Autodesk, Inc."
 90
     1024
280
     0
281
     0
  0
CLASS
  1
ACMBOMSTANDARDJIS
  2
AcmBOMStdJIS
  3
"Amdt_StdImp|Product Description: AutoCAD Mechanical|Company: Autodesk, Inc."
 90
     1024
280
     0
281
     0
  0
CLASS
  1
ACMDETAILSTANDARDJIS
  2
AmdtDetailSymStdJIS
  3
"Amdt_StdImp|Product Description: AutoCAD Mechanical|Company: Autodesk, Inc."
 90
     1024
280
     0
281
     0
  0
CLASS
  1
ACMSECTIONSTANDARDJIS
  2
AmdtSectionSymStdJIS
  3
"Amdt_StdImp|Product Description: AutoCAD Mechanical|Company: Autodesk, Inc."
 90
     1024
280
     0
281
     0
  0
CLASS
  1
ACMCENTERLINESTANDARDJIS
  2
AmdtCenterLineStdJIS
  3
"Amdt_StdImp|Product Description: AutoCAD Mechanical|Company: Autodesk, Inc."
 90
     1024
280
     0
281
     0
  0
CLASS
  1
ACMNOTESTANDARDJIS
  2
AmdtNoteStdJIS
  3
"Amdt_StdImp|Product Description: AutoCAD Mechanical|Company: Autodesk, Inc."
 90
     1024
280
     0
281
     0
  0
CLASS
  1
ACAMGHOLECHARTSTDJIS
  2
AcAmgHoleChartStdJIS
  3
AmgDim|Product Description: AutoCAD Mechanical|Company: Autodesk, Inc.
 90
     1024
280
     0
281
     0
  0
CLASS
  1
DIMASSOC
  2
AcDbDimAssoc
  3
"AcDbDimAssoc|Product Desc:     AcDim ARX App For Dimension|Company:          Autodesk, Inc.|WEB Address:      www.autodesk.com"
 90
        0
280
     0
281
     0
  0
CLASS
  1
LAYER_INDEX
  2
AcDbLayerIndex
  3
ObjectDBX Classes
 90
    32768
280
     0
281
     0
  0
CLASS
  1
IDBUFFER
  2
AcDbIdBuffer
  3
ObjectDBX Classes
 90
    32768
280
     0
281
     0
  0
CLASS
  1
DICTIONARYVAR
  2
AcDbDictionaryVar
  3
ObjectDBX Classes
 90
        0
280
     0
281
     0
  0
CLASS
  1
ACMSTANDARDISO
  2
AcmStandardISO
  3
"Amdt_StdImp|Product Description: AutoCAD Mechanical|Company: Autodesk, Inc."
 90
    33792
280
     0
281
     0
  0
CLASS
  1
AMDTEDGESTANDARDISO
  2
AmdtEdgeStdISO
  3
"Amdt_StdImp|Product Description: AutoCAD Mechanical|Company: Autodesk, Inc."
 90
    33792
280
     0
281
     0
  0
CLASS
  1
ACMSURFSTANDARDISO
  2
AcmSurfTextStdISO
  3
"Amdt_StdImp|Product Description: AutoCAD Mechanical|Company: Autodesk, Inc."
 90
    33792
280
     0
281
     0
  0
CLASS
  1
ACMFCFSTANDARDISO
  2
AcmFCFStdISO
  3
"Amdt_StdImp|Product Description: AutoCAD Mechanical|Company: Autodesk, Inc."
 90
    33792
280
     0
281
     0
  0
CLASS
  1
ACMWELDSTANDARDISO
  2
AcmWeldingStdISO
  3
"Amdt_StdImp|Product Description: AutoCAD Mechanical|Company: Autodesk, Inc."
 90
    33792
280
     0
281
     0
  0
CLASS
  1
ACMIDSTANDARDISO
  2
AcmIdStdISO
  3
"Amdt_StdImp|Product Description: AutoCAD Mechanical|Company: Autodesk, Inc."
 90
    33792
280
     0
281
     0
  0
CLASS
  1
ACMDATUMSTANDARDISO
  2
AcmDatumStdISO
  3
"Amdt_StdImp|Product Description: AutoCAD Mechanical|Company: Autodesk, Inc."
 90
    33792
280
     0
281
     0
  0
CLASS
  1
ACMBOMSTANDARDISO
  2
AcmBOMStdISO
  3
"Amdt_StdImp|Product Description: AutoCAD Mechanical|Company: Autodesk, Inc."
 90
    33792
280
     0
281
     0
  0
CLASS
  1
ACMDETAILSTANDARDISO
  2
AmdtDetailSymStdISO
  3
"Amdt_StdImp|Product Description: AutoCAD Mechanical|Company: Autodesk, Inc."
 90
    33792
280
     0
281
     0
  0
CLASS
  1
ACMSECTIONSTANDARDISO
  2
AmdtSectionSymStdISO
  3
"Amdt_StdImp|Product Description: AutoCAD Mechanical|Company: Autodesk, Inc."
 90
    33792
280
     0
281
     0
  0
CLASS
  1
ACMCENTERLINESTANDARDISO
  2
AmdtCenterLineStdISO
  3
"Amdt_StdImp|Product Description: AutoCAD Mechanical|Company: Autodesk, Inc."
 90
    33792
280
     0
281
     0
  0
CLASS
  1
ACMNOTESTANDARDISO
  2
AmdtNoteStdISO
  3
"Amdt_StdImp|Product Description: AutoCAD Mechanical|Company: Autodesk, Inc."
 90
    33792
280
     0
281
     0
  0
CLASS
  1
ACAMGHOLECHARTSTDISO
  2
AcAmgHoleChartStdISO
  3
AmgDim|Product Description: AutoCAD Mechanical|Company: Autodesk, Inc.
 90
    33792
280
     0
281
     0
  0
CLASS
  1
AMDTFORMULAUPDATEDISPATCHER
  2
AmdtFormulaUpdateDispatcher
  3
AcMeServices
 90
    33792
280
     0
281
     0
  0
CLASS
  1
STDPART2D
  2
AmgStdPart
  3
AmgStdPart|Product Description: AutoCAD Mechanical|Company: Autodesk, Inc.
 90
    33792
280
     0
281
     1
  0
CLASS
  1
ACMDATAENTRYPART
  2
AcmDataEntryPart
  3
AcmSymBB|Product Description: AutoCAD Mechanical|Company: Autodesk, Inc.
 90
    33792
280
     0
281
     0
  0
CLASS
  1
ACMPARTREF
  2
AcmPartRef
  3
"AcmSymBB|Product Description: AutoCAD Mechanical|Company: Autodesk, Inc."
 90
    33792
280
     0
281
     1
  0
CLASS
  1
ACDBSTDPARTRES_LINE
  2
AcDbStdPartRes_Line
  3
AmgStdPart|Product Description: AutoCAD Mechanical|Company: Autodesk, Inc.
 90
    33792
280
     0
281
     0
  0
CLASS
  1
AMDTNOTE
  2
AmdtNote
  3
"AcmSymBB|Product Description: AutoCAD Mechanical|Company: Autodesk, Inc."
 90
    33792
280
     0
281
     1
  0
CLASS
  1
MATERIAL
  2
AcDbMaterial
  3
ObjectDBX Classes
 90
     1153
280
     0
281
     0
  0
CLASS
  1
VISUALSTYLE
  2
AcDbVisualStyle
  3
ObjectDBX Classes
 90
     4095
280
     0
281
     0
  0
CLASS
  1
TABLESTYLE
  2
AcDbTableStyle
  3
ObjectDBX Classes
 90
     4095
280
     0
281
     0
  0
CLASS
  1
AM_DRAWING_MGR
  2
AcDmDwgMgr
  3
AcMechDwgViewMgmt
 90
     1024
280
     0
281
     0
  0
CLASS
  1
AM_DWG_DOCUMENT
  2
AcDmDwgDocument
  3
AcMechDwgViewMgmt
 90
     1024
280
     0
281
     0
  0
CLASS
  1
AM_DWG_SHEET
  2
AcDmSheet
  3
AcMechDwgViewMgmt
 90
     1024
280
     0
281
     0
  0
CLASS
  1
AM_VIEWDIMPARMAP
  2
AcDmViewDimParMap
  3
AcMechDwgViewMgmt
 90
     1024
280
     0
281
     0
  0
CLASS
  1
AM_DWGMGR_NAME
  2
AcDmDwgMgrName
  3
AcMechDwgViewMgmt
 90
     1024
280
     0
281
     0
  0
CLASS
  1
AMDTMENUSTATEMGR
  2
AmdtMenuStateMgr
  3
McadcomServices
 90
    33792
280
     0
281
     0
  0
CLASS
  1
AMDTMCOMMENUSTATE
  2
AmdtMcomMenuState
  3
McadcomServices
 90
    33792
280
     0
281
     0
  0
CLASS
  1
MAPIAMMOUDLE
  2
MApiAmModule
  3
MApiAmServices
 90
    33792
280
     0
281
     0
  0
CLASS
  1
AMDTADMENUSTATE
  2
AmdtAdMenuState
  3
DesignerServices
 90
    33792
280
     1
281
     0
  0
CLASS
  1
ADAPPL
  2
AcAdAppl
  3
DesignerAssemblies
 90
    33792
280
     0
281
     0
  0
CLASS
  1
DEPMGR
  2
AcAdDepMgr
  3
DesignerAssemblies
 90
    33792
280
     0
281
     0
  0
CLASS
  1
PARAMMGR
  2
AcAdParamMgr
  3
DesignerAssemblies
 90
    33792
280
     0
281
     0
  0
CLASS
  1
PARAMSCOPE
  2
AcAdParamScope
  3
DesignerAssemblies
 90
    33792
280
     0
281
     0
  0
CLASS
  1
NAMEDAPPL
  2
AcAdNamedAppl
  3
DesignerAssemblies
 90
    33792
280
     0
281
     0
  0
CLASS
  1
AMDTDMMENUSTATE
  2
AmdtDmMenuState
  3
AcMechDwgViewMgmt
 90
    33792
280
     1
281
     0
  0
CLASS
  1
AMDTAMMENUSTATE
  2
AmdtAmMenuState
  3
DesignerAssemblies
 90
    33792
280
     0
281
     0
  0
CLASS
  1
ACAMPROJECT
  2
AcAmProject
  3
DesignerAssemblies
 90
    33792
280
     0
281
     0
  0
CLASS
  1
ACAMGRCOMPDEF
  2
AcAmGrCompDef
  3
DesignerAssemblies
 90
    33792
280
     0
281
     0
  0
CLASS
  1
ACCMCONTEXT
  2
AcCmContext
  3
DesignerAssemblies
 90
    33792
280
     0
281
     0
  0
CLASS
  1
ACAMCOMPDEF
  2
AcAmCompDef
  3
DesignerAssemblies
 90
    33792
280
     0
281
     0
  0
CLASS
  1
ACAMCOMPDEFMGR
  2
AcAmCompDefMgr
  3
DesignerAssemblies
 90
    33792
280
     0
281
     0
  0
CLASS
  1
AMCONTEXTMGR
  2
AcAmContextMgr
  3
DesignerAssemblies
 90
    33792
280
     0
281
     0
  0
CLASS
  1
ACAMCONTEXTMODELER
  2
AcAmContextModeler
  3
DesignerAssemblies
 90
    33792
280
     0
281
     0
  0
CLASS
  1
ACRFATTGENMGR
  2
AcRfAttGeneralMgr
  3
AcAttribServices
 90
    33792
280
     0
281
     0
  0
CLASS
  1
ACRFOBJATTMGR
  2
AcRfObjAttGroupMgr
  3
AcAttribServices
 90
    33792
280
     0
281
     0
  0
CLASS
  1
ACRFMCADAPIATTHOLDER
  2
AcRfMCADAPIAttHolder
  3
AcAttribServices
 90
    33792
280
     0
281
     0
  0
CLASS
  1
AMDTSYSATTR
  2
AmdtSystemAttribute
  3
AcAttribServices
 90
    33792
280
     0
281
     0
  0
CLASS
  1
ACMTHREADLINESTANDARDANSI
  2
AmdtThreadLineStdANSI
  3
"Amdt_StdImp|Product Description: AutoCAD Mechanical|Company: Autodesk, Inc."
 90
    33792
280
     0
281
     0
  0
CLASS
  1
ACMTAPERSTANDARDANSI
  2
AcmTaperStdANSI
  3
"Amdt_StdImp|Product Description: AutoCAD Mechanical|Company: Autodesk, Inc."
 90
    33792
280
     0
281
     0
  0
CLASS
  1
ACMTHREADLINESTANDARDJIS
  2
AmdtThreadLineStdJIS
  3
"Amdt_StdImp|Product Description: AutoCAD Mechanical|Company: Autodesk, Inc."
 90
     1024
280
     0
281
     0
  0
CLASS
  1
ACMTAPERSTANDARDJIS
  2
AcmTaperStdJIS
  3
"Amdt_StdImp|Product Description: AutoCAD Mechanical|Company: Autodesk, Inc."
 90
     1024
280
     0
281
     0
  0
CLASS
  1
ACMTHREADLINESTANDARDISO
  2
AmdtThreadLineStdISO
  3
"Amdt_StdImp|Product Description: AutoCAD Mechanical|Company: Autodesk, Inc."
 90
    33792
280
     0
281
     0
  0
CLASS
  1
ACMTAPERSTANDARDISO
  2
AcmTaperStdISO
  3
"Amdt_StdImp|Product Description: AutoCAD Mechanical|Company: Autodesk, Inc."
 90
    33792
280
     0
281
     0
  0
CLASS
  1
CATALOGSTATE
  2
AcAmCatalogState
  3
DesignerAssemblies
 90
    33792
280
     0
281
     0
  0
CLASS
  1
ACAMGRCOMPDEFSET
  2
AcAmGrCompDefSet
  3
DesignerAssemblies
 90
    33792
280
     0
281
     0
  0
CLASS
  1
AMDTBROWSERDBTAB
  2
AmdtBrowserDbTab
  3
McadcomServices
 90
    33792
280
     0
281
     0
  0
CLASS
  1
CBROWSERAPPOBJECT
  2
CBrowserAppObject
  3
McadcomServices
 90
    33792
280
     0
281
     0
  0
CLASS
  1
DM_PLACEHOLDER
  2
AcDmSelsetPlaceholder
  3
McadcomServices
 90
    33792
280
     0
281
     0
  0
CLASS
  1
SORTENTSTABLE
  2
AcDbSortentsTable
  3
ObjectDBX Classes
 90
        0
280
     0
281
     0
  0
CLASS
  1
CAMSSTRUCTBTNSTATE
  2
StructBtnState
  3
DesignerAssemblies
 90
    33792
280
     0
281
     0
  0
CLASS
  1
PLOTSETTINGS
  2
AcDbPlotSettings
  3
ObjectDBX Classes
 90
    32768
280
     0
281
     0
  0
CLASS
  1
SCALE
  2
AcDbScale
  3
ObjectDBX Classes
 90
     1153
280
     0
281
     0
  0
CLASS
  1
MLEADERSTYLE
  2
AcDbMLeaderStyle
  3
ACDB_MLEADERSTYLE_CLASS
 90
    36863
280
     0
281
     0
  0
CLASS
  1
ACMANOOTATIONVIEWSTANDARDANSI
  2
AmdtAnViewStdANSI
  3
"Amdt_StdImp|Product Description: AutoCAD Mechanical|Company: Autodesk, Inc."
 90
    33792
280
     0
281
     0
  0
CLASS
  1
ACMANOOTATIONVIEWSTANDARDJIS
  2
AmdtAnViewStdJIS
  3
"Amdt_StdImp|Product Description: AutoCAD Mechanical|Company: Autodesk, Inc."
 90
     1024
280
     0
281
     0
  0
CLASS
  1
ACMANOOTATIONVIEWSTANDARDISO
  2
AmdtAnViewStdISO
  3
"Amdt_StdImp|Product Description: AutoCAD Mechanical|Company: Autodesk, Inc."
 90
    33792
280
     0
281
     0
  0
CLASS
  1
CELLSTYLEMAP
  2
AcDbCellStyleMap
  3
ObjectDBX Classes
 90
     1152
280
     0
281
     0
  0
CLASS
  1
SOLID_BACKGROUND
  2
AcDbSolidBackground
  3
SCENEOE
 90
    36863
280
     0
281
     0
  0
CLASS
  1
NPOCOLLECTION
  2
AcDbImpNonPersistentObjectsCollection
  3
ObjectDBX Classes
 90
    33921
280
     0
281
     0
  0
CLASS
  1
ACDBSECTIONVIEWSTYLE
  2
AcDbSectionViewStyle
  3
ObjectDBX Classes
 90
     1025
280
     0
281
     0
  0
CLASS
  1
ACDBDETAILVIEWSTYLE
  2
AcDbDetailViewStyle
  3
ObjectDBX Classes
 90
     1025
280
     0
281
     0
  0
CLASS
  1
ACMSECTIONSTANDARDCUSTOM
  2
AmdtSectionSymStdCustom
  3
"Amdt_StdImp|Product Description: AutoCAD Mechanical|Company: Autodesk, Inc."
 90
     1024
280
     0
281
     0
  0
CLASS
  1
ACMDETAILTANDARDCUSTOM
  2
AmdtDetailSymStdCustom
  3
"Amdt_StdImp|Product Description: AutoCAD Mechanical|Company: Autodesk, Inc."
 90
     1024
280
     0
281
     0
  0
CLASS
  1
AMDTEDGESTANDARDJIS
  2
AmdtEdgeStdJIS
  3
"Amdt_StdImp|Product Description: AutoCAD Mechanical|Company: Autodesk, Inc."
 90
     1024
280
     0
281
     0
  0
CLASS
  1
FIELD
  2
AcDbField
  3
ObjectDBX Classes
 90
     1152
280
     0
281
     0
  0
CLASS
  1
FIELDLIST
  2
AcDbFieldList
  3
ObjectDBX Classes
 90
     1152
280
     0
281
     0
  0
CLASS
  1
EXACXREFPANELOBJECT
  2
ExAcXREFPanelObject
  3
EXAC_ESW
 90
    33793
280
     0
281
     0
  0
ENDSEC
  0
SECTION
  2
TABLES
  0
TABLE
  2
VPORT
  5
2D
330
0
100
AcDbSymbolTable
 70
     1
  0
VPORT
  5
2E
330
2D
100
AcDbSymbolTableRecord
100
AcDbViewportTableRecord
  2
*Active
 70
     0
 10
0.0
 20
0.0
 11
1.0
 21
1.0
 12
-46.74951852453893
 22
-1989.962256976631
 13
0.0
 23
0.0
 14
2.5
 24
2.5
 15
10.0
 25
10.0
 16
0.0
 26
0.0
 36
1.0
 17
0.0
 27
0.0
 37
0.0
 40
304.6012858120248
 41
2.230392156862745
 42
50.0
 43
0.0
 44
0.0
 50
0.0
 51
0.0
 71
     0
 72
  1000
 73
     1
 74
     2
 75
     0
 76
     0
 77
     0
 78
     0
281
     0
 65
     1
110
0.0
120
0.0
130
0.0
111
1.0
121
0.0
131
0.0
112
0.0
122
1.0
132
0.0
 79
     0
146
0.0
1001
ACAD_NAV_VCDISPLAY
1070
     3
  0
ENDTAB
  0
TABLE
  2
LTYPE
  5
28
330
0
100
AcDbSymbolTable
 70
    12
  0
LTYPE
  5
29
330
28
100
AcDbSymbolTableRecord
100
AcDbLinetypeTableRecord
  2
ByBlock
 70
     0
  3

 72
    65
 73
     0
 40
0.0
  0
LTYPE
  5
2A
330
28
100
AcDbSymbolTableRecord
100
AcDbLinetypeTableRecord
  2
ByLayer
 70
     0
  3

 72
    65
 73
     0
 40
0.0
  0
LTYPE
  5
19
330
28
100
AcDbSymbolTableRecord
100
AcDbLinetypeTableRecord
  2
CONTINUOUS
 70
     0
  3
Solid line
 72
    65
 73
     0
 40
0.0
  0
LTYPE
  5
241
330
28
100
AcDbSymbolTableRecord
100
AcDbLinetypeTableRecord
  2
CENTERS
 70
     0
  3
0.5,-0.1,0,-0.1
 72
    65
 73
     4
 40
0.7
 49
0.5
 74
     0
 49
-0.1
 74
     0
 49
0.0
 74
     0
 49
-0.1
 74
     0
  0
LTYPE
  5
3E8
330
28
100
AcDbSymbolTableRecord
100
AcDbLinetypeTableRecord
  2
AM_ISO02W050
 70
     0
  3
__ __ __ __ __ __ __ __ __ __ __ __ __ __ __
 72
    65
 73
     2
 40
7.5
 49
6.0
 74
     0
 49
-1.5
 74
     0
  0
LTYPE
  5
3E9
330
28
100
AcDbSymbolTableRecord
100
AcDbLinetypeTableRecord
  2
AM_ISO08W050
 70
     0
  3
____ . ____ . ____ . ____ . ____ . ____ . ____
 72
    65
 73
     4
 40
18.0
 49
12.0
 74
     0
 49
-1.5
 74
     0
 49
3.0
 74
     0
 49
-1.5
 74
     0
  0
LTYPE
  5
3EA
330
28
100
AcDbSymbolTableRecord
100
AcDbLinetypeTableRecord
  2
AM_ISO09W050
 70
     0
  3
_____ . . _____ . . _____ . . ____ .. ____
 72
    65
 73
     6
 40
22.5
 49
12.0
 74
     0
 49
-1.5
 74
     0
 49
3.0
 74
     0
 49
-1.5
 74
     0
 49
3.0
 74
     0
 49
-1.5
 74
     0
  0
LTYPE
  5
3EB
330
28
100
AcDbSymbolTableRecord
100
AcDbLinetypeTableRecord
  2
Amconstr
 70
     0
  3
_______________________
 72
    65
 73
     2
 40
9999.0
 49
9999.0
 74
     0
 49
0.0
 74
     0
  0
LTYPE
  5
3EC
330
28
100
AcDbSymbolTableRecord
100
AcDbLinetypeTableRecord
  2
Amzigzag
 70
     0
  3
/\/-/\/-/\/-/\/-/\/-/\/
 72
    65
 73
     2
 40
11.0001
 49
0.0001
 74
     4
 75
   135
340
3ED
 46
0.04
 50
0.0
 44
0.0
 45
0.0
 49
-11.0
 74
     0
  0
LTYPE
  5
12B
330
28
100
AcDbSymbolTableRecord
100
AcDbLinetypeTableRecord
  2
CENTER
 70
     0
  3
0.5,-0.1,0,-0.1____ _ ____ _ ____ _ ____ _ ____
 72
    65
 73
     4
 40
0.7
 49
0.5
 74
     0
 49
-0.1
 74
     0
 49
0.0
 74
     0
 49
-0.1
 74
     0
  0
LTYPE
  5
400
330
28
100
AcDbSymbolTableRecord
100
AcDbLinetypeTableRecord
  2
ACJISTGB
 70
     0
  3
__ . . __ . .
 72
    65
 73
     6
 40
9.0
 49
4.0
 74
     0
 49
-1.0
 74
     0
 49
1.0
 74
     0
 49
-1.0
 74
     0
 49
1.0
 74
     0
 49
-1.0
 74
     0
  0
LTYPE
  5
401
330
28
100
AcDbSymbolTableRecord
100
AcDbLinetypeTableRecord
  2
ACJISTGL
 70
     0
  3
_ _ _ _ _
 72
    65
 73
     2
 40
3.0
 49
2.0
 74
     0
 49
-1.0
 74
     0
  0
LTYPE
  5
12D
330
28
100
AcDbSymbolTableRecord
100
AcDbLinetypeTableRecord
  2
HIDDEN
 70
     0
  3
0.1,-0.1Hidden __ __ __ __ __ __ __ __ __ __ __
 72
    65
 73
     2
 40
0.2
 49
0.1
 74
     0
 49
-0.1
 74
     0
  0
LTYPE
  5
121
330
28
100
AcDbSymbolTableRecord
100
AcDbLinetypeTableRecord
  2
PHANTOM
 70
     0
  3
0.4,-0.1,0,-0.1,0,-0.1Phantom ______  __  __  _
 72
    65
 73
     6
 40
0.7000000000000001
 49
0.4
 74
     0
 49
-0.1
 74
     0
 49
0.0
 74
     0
 49
-0.1
 74
     0
 49
0.0
 74
     0
 49
-0.1
 74
     0
  0
ENDTAB
  0
TABLE
  2
LAYER
  5
11
102
{ACAD_XDICTIONARY
360
1A
102
}
330
0
100
AcDbSymbolTable
 70
     7
  0
LAYER
  5
12
102
{ACAD_XDICTIONARY
360
13
102
}
330
11
100
AcDbSymbolTableRecord
100
AcDbLayerTableRecord
  2
0
 70
     0
 62
     7
  6
CONTINUOUS
370
    -3
390
15
  0
LAYER
  5
4F
102
{ACAD_XDICTIONARY
360
50
102
}
330
11
100
AcDbSymbolTableRecord
100
AcDbLayerTableRecord
  2
K-1
 70
     0
 62
     7
  6
CONTINUOUS
370
     0
390
15
  0
LAYER
  5
2D2
102
{ACAD_XDICTIONARY
360
2D3
102
}
330
11
100
AcDbSymbolTableRecord
100
AcDbLayerTableRecord
  2
SUNPO
 70
     0
 62
     1
  6
CONTINUOUS
370
     0
390
15
  0
LAYER
  5
2DC
330
11
100
AcDbSymbolTableRecord
100
AcDbLayerTableRecord
  2
Defpoints
 70
     0
 62
     7
  6
CONTINUOUS
290
     0
370
    -3
390
15
  0
LAYER
  5
11B
102
{ACAD_XDICTIONARY
360
11C
102
}
330
11
100
AcDbSymbolTableRecord
100
AcDbLayerTableRecord
  2
Sunpou
 70
     0
 62
     1
  6
CONTINUOUS
290
     0
370
    -3
390
15
  0
LAYER
  5
8B
102
{ACAD_XDICTIONARY
360
8C
102
}
330
11
100
AcDbSymbolTableRecord
100
AcDbLayerTableRecord
  2
A3WAKU
 70
     0
 62
     7
  6
CONTINUOUS
370
    -3
390
15
  0
LAYER
  5
6C
102
{ACAD_XDICTIONARY
360
6D
102
}
330
11
100
AcDbSymbolTableRecord
100
AcDbLayerTableRecord
  2
A4WAKU
 70
     0
 62
     7
  6
CONTINUOUS
370
    -3
390
15
  0
ENDTAB
  0
TABLE
  2
STYLE
  5
25
330
0
100
AcDbSymbolTable
 70
     5
  0
STYLE
  5
26
330
25
100
AcDbSymbolTableRecord
100
AcDbTextStyleTableRecord
  2
STANDARD
 70
     0
 40
0.0
 41
1.0
 50
0.0
 71
     0
 42
0.2
  3
ISOCP.SHX
  4

  0
STYLE
  5
36
330
25
100
AcDbSymbolTableRecord
100
AcDbTextStyleTableRecord
  2
K1
 70
     0
 40
0.0
 41
0.8
 50
0.0
 71
     0
 42
2.5
  3
SSE
  4
BIGFONT
  0
STYLE
  5
3ED
330
25
100
AcDbSymbolTableRecord
100
AcDbTextStyleTableRecord
  2

 70
     1
 40
0.0
 41
1.0
 50
0.0
 71
     0
 42
2.5
  3
ltypeshp.shx
  4

  0
STYLE
  5
3F9
330
25
100
AcDbSymbolTableRecord
100
AcDbTextStyleTableRecord
  2
ACJISTS
 70
     0
 40
1.0
 41
1.0
 50
0.0
 71
     0
 42
2.5
  3
isocp.shx
  4
extfont.shx
  0
STYLE
  5
3FC
330
25
100
AcDbSymbolTableRecord
100
AcDbTextStyleTableRecord
  2
ACJISGDT
 70
     0
 40
0.0
 41
1.0
 50
0.0
 71
     0
 42
2.5
  3
amgdt.shx
  4

  0
ENDTAB
  0
TABLE
  2
VIEW
  5
2B
330
0
100
AcDbSymbolTable
 70
     0
  0
ENDTAB
  0
TABLE
  2
UCS
  5
2C
330
0
100
AcDbSymbolTable
 70
     0
  0
ENDTAB
  0
TABLE
  2
APPID
  5
32
330
0
100
AcDbSymbolTable
 70
    14
  0
APPID
  5
33
330
32
100
AcDbSymbolTableRecord
100
AcDbRegAppTableRecord
  2
ACAD
 70
     0
  0
APPID
  5
22F
330
32
100
AcDbSymbolTableRecord
100
AcDbRegAppTableRecord
  2
GENIUS_GENODEF_13
 70
     0
  0
APPID
  5
27D
330
32
100
AcDbSymbolTableRecord
100
AcDbRegAppTableRecord
  2
GENIUS_GENOBJ-N-CEN_13
 70
     0
  0
APPID
  5
22E
330
32
100
AcDbSymbolTableRecord
100
AcDbRegAppTableRecord
  2
GENIUS_GENREC_14
 70
     0
  0
APPID
  5
230
330
32
100
AcDbSymbolTableRecord
100
AcDbRegAppTableRecord
  2
GENIUS_GENOBJ-N-REC_13
 70
     0
  0
APPID
  5
2E0
330
32
100
AcDbSymbolTableRecord
100
AcDbRegAppTableRecord
  2
ACAD_DSTYLE_DIMRADIAL_EXTENSION
 70
     0
  0
APPID
  5
2E1
330
32
100
AcDbSymbolTableRecord
100
AcDbRegAppTableRecord
  2
ACAD_DSTYLE_DIMINSPECT
 70
     0
  0
APPID
  5
27E
330
32
100
AcDbSymbolTableRecord
100
AcDbRegAppTableRecord
  2
GENIUS_GENCEN_19
 70
     0
  0
APPID
  5
31
330
32
100
AcDbSymbolTableRecord
100
AcDbRegAppTableRecord
  2
ACAD_NAV_VCDISPLAY
 70
     0
  0
APPID
  5
42A
330
32
100
AcDbSymbolTableRecord
100
AcDbRegAppTableRecord
  2
AD_DRAW
 70
     0
  0
APPID
  5
42B
330
32
100
AcDbSymbolTableRecord
100
AcDbRegAppTableRecord
  2
MCAD_NO_VIS
 70
     0
  0
APPID
  5
42C
330
32
100
AcDbSymbolTableRecord
100
AcDbRegAppTableRecord
  2
ACADM_DIM_EDIT
 70
     0
  0
APPID
  5
42D
330
32
100
AcDbSymbolTableRecord
100
AcDbRegAppTableRecord
  2
AMDT_DM_ADJ
 70
     0
  0
APPID
  5
44F
330
32
100
AcDbSymbolTableRecord
100
AcDbRegAppTableRecord
  2
ACATTRIBSERVICES
 70
     0
  0
ENDTAB
  0
TABLE
  2
DIMSTYLE
  5
34
330
0
100
AcDbSymbolTable
 70
    11
100
AcDbDimStyleTable
 71
     5
340
35
340
3D
340
3E
340
3F
340
40
  0
DIMSTYLE
105
3D
330
34
100
AcDbSymbolTableRecord
100
AcDbDimStyleTableRecord
  2
AM_JIS
 70
     0
  4
"
 41
3.0
 42
1.0
 43
10.0
 44
1.0
 47
0.02
 48
0.02
 73
     0
 74
     0
 77
     3
 78
     8
 79
     2
140
4.0
141
0.0
143
0.0393701
146
0.71
147
1.5
172
     1
176
   256
177
   256
178
     7
179
     2
271
     2
272
     2
284
     8
340
36
341
37
342
37
371
    -1
372
    -1
  0
DIMSTYLE
105
2DF
102
{ACAD_REACTORS
330
2CF
330
3C4
102
}
330
34
100
AcDbSymbolTableRecord
100
AcDbDimStyleTableRecord
  2
AM_JIS$3
 70
     0
  4
"
 41
3.0
 42
1.0
 43
10.0
 44
1.0
 47
0.02
 48
0.02
 73
     0
 77
     3
 78
     8
 79
     2
140
4.0
141
0.0
143
0.0393701
146
0.71
147
1.5
176
   256
177
   256
178
     7
179
     2
271
     2
272
     2
284
     8
340
36
341
37
342
37
371
    -1
372
    -1
  0
DIMSTYLE
105
2FC
102
{ACAD_REACTORS
330
2F2
330
399
102
}
330
34
100
AcDbSymbolTableRecord
100
AcDbDimStyleTableRecord
  2
AM_JIS$4
 70
     0
  4
"
 41
3.0
 42
1.0
 43
10.0
 44
1.0
 47
0.02
 48
0.02
 73
     0
 74
     0
 77
     3
 78
     8
 79
     2
140
4.0
141
0.0
143
0.0393701
146
0.71
147
1.5
172
     1
176
   256
177
   256
178
     7
179
     2
271
     2
272
     2
284
     8
288
     1
340
36
341
37
342
37
371
    -1
372
    -1
  0
DIMSTYLE
105
41F
330
34
100
AcDbSymbolTableRecord
100
AcDbDimStyleTableRecord
  2
AM_JIS$6
 70
     0
  4
"
 41
3.0
 42
1.0
 43
10.0
 44
1.0
 47
0.02
 48
0.02
 73
     0
 74
     0
 78
     8
 79
     2
140
4.0
141
0.0
143
0.0393701
146
0.71
147
1.5
172
     1
176
   256
177
   256
178
     7
179
     2
271
     2
272
     2
284
     8
340
36
341
37
342
37
371
    -1
372
    -1
  0
DIMSTYLE
105
3D1
330
34
100
AcDbSymbolTableRecord
100
AcDbDimStyleTableRecord
  2
AM_JIS$7
 70
     0
  4
"
 41
3.0
 42
1.0
 43
10.0
 44
1.0
 47
0.02
 48
0.02
 73
     0
 74
     0
 77
     3
 78
     8
 79
     2
140
4.0
141
0.0
143
0.0393701
146
0.71
147
1.5
172
     1
176
   256
177
   256
178
     7
179
     2
271
     2
272
     2
280
     3
284
     8
340
36
341
37
342
37
371
    -1
372
    -1
  0
DIMSTYLE
105
3F
330
34
100
AcDbSymbolTableRecord
100
AcDbDimStyleTableRecord
  2
AM_JIS$SF
 70
     0
  4
"
 41
3.0
 42
1.0
 43
10.0
 44
1.0
 47
0.1
 48
0.1
 73
     0
 74
     0
 75
     1
 76
     1
 77
     3
 78
     8
 79
     2
140
4.0
141
0.0
143
0.0393701
146
0.71
147
1.5
172
     1
176
   256
177
   256
178
     7
271
     2
272
     2
283
     0
284
     8
340
36
341
37
342
37
371
    -1
372
    -1
  0
DIMSTYLE
105
40
330
34
100
AcDbSymbolTableRecord
100
AcDbDimStyleTableRecord
  2
AM_JIS$SH
 70
     0
  4
"
 41
3.0
 42
1.0
 43
10.0
 44
1.0
 47
0.1
 48
0.1
 73
     0
 74
     0
 75
     1
 76
     1
 77
     3
 78
     8
 79
     2
140
4.0
141
0.0
143
0.0393701
144
2.0
146
0.71
147
1.5
172
     1
173
     1
176
   256
177
   256
178
     7
271
     2
272
     2
283
     0
284
     8
340
36
341
37
343
41
344
37
371
    -1
372
    -1
  0
DIMSTYLE
105
3B4
102
{ACAD_REACTORS
330
3A5
102
}
330
34
100
AcDbSymbolTableRecord
100
AcDbDimStyleTableRecord
  2
AM_JIS$2
 70
     0
  4
"
 41
3.0
 42
1.0
 43
10.0
 44
1.0
 47
0.02
 48
0.02
 73
     0
 74
     0
 77
     3
 78
     8
 79
     2
140
4.0
141
0.0
143
0.0393701
146
0.71
147
1.5
172
     1
176
   256
177
   256
178
     7
179
     2
271
     2
272
     2
284
     8
289
     2
340
36
341
37
342
37
371
    -1
372
    -1
  0
DIMSTYLE
105
2F1
102
{ACAD_REACTORS
330
2E2
330
2FD
330
30E
330
31D
330
32C
330
33D
330
34C
330
35B
330
36A
330
379
330
388
330
3B5
102
}
330
34
100
AcDbSymbolTableRecord
100
AcDbDimStyleTableRecord
  2
AM_JIS$0
 70
     0
  4
"
 41
3.0
 42
1.0
 43
10.0
 44
1.0
 47
0.02
 48
0.02
 73
     0
 74
     0
 77
     3
 78
     8
 79
     2
140
4.0
141
0.0
143
0.0393701
146
0.71
147
1.5
172
     1
176
   256
177
   256
178
     7
179
     2
271
     2
272
     2
284
     8
340
36
341
37
342
37
371
    -1
372
    -1
  0
DIMSTYLE
105
3E
330
34
100
AcDbSymbolTableRecord
100
AcDbDimStyleTableRecord
  2
AM_JIS_PCD
 70
     0
  4
"
 41
3.0
 42
1.0
 43
10.0
 44
1.0
 47
0.02
 48
0.02
 73
     0
 74
     0
 77
     3
 78
     8
 79
     2
140
4.0
141
0.0
143
0.0393701
146
0.71
147
1.5
172
     1
176
   256
177
   256
178
     7
179
     2
271
     2
272
     2
284
     8
288
     1
289
     2
340
36
341
37
342
37
371
    -1
372
    -1
  0
DIMSTYLE
105
35
330
34
100
AcDbSymbolTableRecord
100
AcDbDimStyleTableRecord
  2
PCD_AM_JIS
 70
     0
  3
P.C.D<>
  4
"
 41
3.0
 42
0.4999999999999997
 43
10.0
 44
1.0
 47
0.02
 48
0.02
 73
     0
 74
     0
 77
     3
 78
     8
 79
     2
140
4.0
141
0.0
143
0.0393701
146
0.71
147
1.5
172
     1
176
   256
177
   256
178
     7
271
     8
272
     8
283
     0
284
     8
289
     2
340
36
341
37
342
37
371
    -1
372
    -1
  0
ENDTAB
  0
TABLE
  2
BLOCK_RECORD
  5
1
330
0
100
AcDbSymbolTable
 70
    32
  0
BLOCK_RECORD
  5
2
102
{ACAD_XDICTIONARY
360
3
102
}
330
1
100
AcDbSymbolTableRecord
100
AcDbBlockTableRecord
  2
*Model_Space
340
7
  0
BLOCK_RECORD
  5
A
102
{ACAD_XDICTIONARY
360
B
102
}
330
1
100
AcDbSymbolTableRecord
100
AcDbBlockTableRecord
  2
*Paper_Space
340
F
  0
BLOCK_RECORD
  5
41
330
1
100
AcDbSymbolTableRecord
100
AcDbBlockTableRecord
  2
GENAXEH
340
0
  0
BLOCK_RECORD
  5
37
330
1
100
AcDbSymbolTableRecord
100
AcDbBlockTableRecord
  2
_Open30
340
0
102
{BLKREFS
331
354
331
355
331
363
331
364
331
372
331
373
331
381
331
382
331
393
331
394
331
3A1
331
3AB
331
3AC
331
3BD
331
3BE
331
3CC
331
2DA
331
2EA
331
2EB
331
2F8
331
307
331
308
331
316
331
317
331
325
331
326
331
336
331
337
331
345
331
346
102
}
  0
BLOCK_RECORD
  5
66
102
{ACAD_XDICTIONARY
360
67
102
}
330
1
100
AcDbSymbolTableRecord
100
AcDbBlockTableRecord
  2
表題覧_ver.1
340
0
310
2800000020000000200000000100080000000000000400000000000000000000000000000000000000000000000080000080000000808000800000008000800080800000C0C0C000C0DCC000F0CAA6000020400000206000002080000020A0000020C0000020E00000400000004020000040400000406000004080000040A0
310
000040C0000040E00000600000006020000060400000606000006080000060A0000060C0000060E00000800000008020000080400000806000008080000080A0000080C0000080E00000A0000000A0200000A0400000A0600000A0800000A0A00000A0C00000A0E00000C0000000C0200000C0400000C0600000C0800000C0
310
A00000C0C00000C0E00000E0000000E0200000E0400000E0600000E0800000E0A00000E0C00000E0E00040000000400020004000400040006000400080004000A0004000C0004000E00040200000402020004020400040206000402080004020A0004020C0004020E000404000004040200040404000404060004040800040
310
40A0004040C0004040E00040600000406020004060400040606000406080004060A0004060C0004060E00040800000408020004080400040806000408080004080A0004080C0004080E00040A0000040A0200040A0400040A0600040A0800040A0A00040A0C00040A0E00040C0000040C0200040C0400040C0600040C08000
310
40C0A00040C0C00040C0E00040E0000040E0200040E0400040E0600040E0800040E0A00040E0C00040E0E00080000000800020008000400080006000800080008000A0008000C0008000E00080200000802020008020400080206000802080008020A0008020C0008020E00080400000804020008040400080406000804080
310
008040A0008040C0008040E00080600000806020008060400080606000806080008060A0008060C0008060E00080800000808020008080400080806000808080008080A0008080C0008080E00080A0000080A0200080A0400080A0600080A0800080A0A00080A0C00080A0E00080C0000080C0200080C0400080C0600080C0
310
800080C0A00080C0C00080C0E00080E0000080E0200080E0400080E0600080E0800080E0A00080E0C00080E0E000C0000000C0002000C0004000C0006000C0008000C000A000C000C000C000E000C0200000C0202000C0204000C0206000C0208000C020A000C020C000C020E000C0400000C0402000C0404000C0406000C0
310
408000C040A000C040C000C040E000C0600000C0602000C0604000C0606000C0608000C060A000C060C000C060E000C0800000C0802000C0804000C0806000C0808000C080A000C080C000C080E000C0A00000C0A02000C0A04000C0A06000C0A08000C0A0A000C0A0C000C0A0E000C0C00000C0C02000C0C04000C0C06000
310
C0C08000C0C0A000F0FBFF00A4A0A000808080000000FF0000FF000000FFFF00FF000000FF00FF00FFFF0000FFFFFF0000000000000000000000000000000000000000000000000000000000000000000000000000000000000000000000000000000000000000000000000000000000000000000000000000000000000000
310
00000000000000000000000000000000000000000000000000000000000000000000000000000000000000000000000000000000000000000000000000000000000000000000000000000000000000000000000000000000000000000000000000000000000000000000000000000000000000000000000000000000000000
310
00000000000000000000000000000000000000000000000000000000000000000000000000000000000000000000000000000000000000000000000000000000000000000000000000000000000000000000000000000000000000000000000000000000000000000000000000000000000000000000000000000000000000
310
00000000000000000000000000000000000000000000000000000000000000000000000000000000000000000000000000000000000000000000000000000000000000000000000000000000000000000000000000FFFFFFFFFF00000000000000000000FFFFFFFFFFFFFFFFFFFFFFFFFF00000000FFFFFFFFFF0000000000
310
0000000000FFFFFFFFFFFFFFFFFFFFFFFF0000000000FFFFFFFFFF0000000000000000000000000000000000000000000000000000FFFFFFFFFFFF0000FFFFFF00000000000000FFFFFFFFFF000000000000000000FFFFFFFFFFFF000000000000000000000000FFFFFFFFFF00000000000000000000000000000000000000
310
0000000000FFFFFFFFFFFF00FFFFFFFFFFFFFFFF0000000000000000000000000000000000000000000000000000000000000000000000000000000000000000000000000000000000000000000000000000000000000000000000000000000000000000000000000000000000000000000000000000000000000000000000
310
00000000000000000000000000000000000000000000000000000000000000000000000000000000000000000000000000000000000000000000000000000000000000000000000000000000000000000000000000000000000000000000000000000000000000000000000000000000000000000000000000000000000000
310
00000000000000000000000000000000000000000000000000000000000000000000000000000000000000000000000000000000000000000000000000000000000000000000000000000000000000000000000000000000000000000000000000000000000000000000000000000000000000000000000000000000000000
310
0000000000000000000000000000000000000000000000000000000000000000000000000000000000000000000000000000000000000000
102
{BLKREFS
331
65
102
}
1001
ACAD
1000
DesignCenter Data
1002
{
1070
     1
1070
     4
1002
}
  0
BLOCK_RECORD
  5
82
102
{ACAD_XDICTIONARY
360
83
102
}
330
1
100
AcDbSymbolTableRecord
100
AcDbBlockTableRecord
  2
流用枠1-A
340
0
102
{BLKREFS
331
81
331
96
102
}
1001
ACAD
1000
DesignCenter Data
1002
{
1070
     1
1070
     4
1002
}
  0
BLOCK_RECORD
  5
1BB
102
{ACAD_XDICTIONARY
360
1BC
102
}
330
1
100
AcDbSymbolTableRecord
100
AcDbBlockTableRecord
  2
ハンドル外観図-B
340
0
102
{BLKREFS
331
1BA
102
}
  0
BLOCK_RECORD
  5
20B
102
{ACAD_XDICTIONARY
360
20C
102
}
330
1
100
AcDbSymbolTableRecord
100
AcDbBlockTableRecord
  2
HFT-015M50-P1_正面図-A1
340
0
310
2800000020000000200000000100080000000000000400000000000000000000000000000000000000000000000080000080000000808000800000008000800080800000C0C0C000C0DCC000F0CAA6000020400000206000002080000020A0000020C0000020E00000400000004020000040400000406000004080000040A0
310
000040C0000040E00000600000006020000060400000606000006080000060A0000060C0000060E00000800000008020000080400000806000008080000080A0000080C0000080E00000A0000000A0200000A0400000A0600000A0800000A0A00000A0C00000A0E00000C0000000C0200000C0400000C0600000C0800000C0
310
A00000C0C00000C0E00000E0000000E0200000E0400000E0600000E0800000E0A00000E0C00000E0E00040000000400020004000400040006000400080004000A0004000C0004000E00040200000402020004020400040206000402080004020A0004020C0004020E000404000004040200040404000404060004040800040
310
40A0004040C0004040E00040600000406020004060400040606000406080004060A0004060C0004060E00040800000408020004080400040806000408080004080A0004080C0004080E00040A0000040A0200040A0400040A0600040A0800040A0A00040A0C00040A0E00040C0000040C0200040C0400040C0600040C08000
310
40C0A00040C0C00040C0E00040E0000040E0200040E0400040E0600040E0800040E0A00040E0C00040E0E00080000000800020008000400080006000800080008000A0008000C0008000E00080200000802020008020400080206000802080008020A0008020C0008020E00080400000804020008040400080406000804080
310
008040A0008040C0008040E00080600000806020008060400080606000806080008060A0008060C0008060E00080800000808020008080400080806000808080008080A0008080C0008080E00080A0000080A0200080A0400080A0600080A0800080A0A00080A0C00080A0E00080C0000080C0200080C0400080C0600080C0
310
800080C0A00080C0C00080C0E00080E0000080E0200080E0400080E0600080E0800080E0A00080E0C00080E0E000C0000000C0002000C0004000C0006000C0008000C000A000C000C000C000E000C0200000C0202000C0204000C0206000C0208000C020A000C020C000C020E000C0400000C0402000C0404000C0406000C0
310
408000C040A000C040C000C040E000C0600000C0602000C0604000C0606000C0608000C060A000C060C000C060E000C0800000C0802000C0804000C0806000C0808000C080A000C080C000C080E000C0A00000C0A02000C0A04000C0A06000C0A08000C0A0A000C0A0C000C0A0E000C0C00000C0C02000C0C04000C0C06000
310
C0C08000C0C0A000F0FBFF00A4A0A000808080000000FF0000FF000000FFFF00FF000000FF00FF00FFFF0000FFFFFF00000000000000000000000000000000000000000000000000000000000000000000000000000000000000000000000000FB000000000000000000000000000000000000000000000000000000000000
310
00FB00000000000000000000000000000000000000000000000000000000FFFAFAFBFAFF00000000000000000000000000000000000000000000000000FBFFFAFAFBFAFFFB00000000000000000000000000000000000000000000000000FDFFFFFBFFFD0000000000000000000000000000000000000000000000000000FD
310
0000FB00FD0000000000000000000000000000000000000000000000000000FDFDFDFBFDFD0000000000000000000000000000000000000000000000000000FF0000FB00FF0000000000000000000000000000000000000000000000000000FF0000FB00FF0000000000000000000000000000000000000000000000000000
310
FF0000FB00FF0000000000000000000000000000000000000000000000000000FF0000FB00FF0000000000000000000000000000000000000000000000000000FF0000FB00FF0000000000000000000000000000000000000000000000000000FF0000FB00FF00000000000000000000000000000000000000000000000000
310
00FF0000FB00FF0000000000000000000000000000000000000000000000000000FF00FDFB00FF0000000000000000000000000000000000000000000000000000FF00FAFBFDFF0000000000000000000000000000000000000000000000000000FFFD00FBFDFF000000000000000000000000000000000000000000000000
310
0000FFFFFBFBFBFF0000000000000000000000000000000000000000000000000000FFFF00FBFFFF0000000000000000000000000000000000000000000000000000FFFFFAFBFFFF00000000000000000000000000000000000000000000000000FFFFFBFBFBFBFCFC00000000000000000000000000000000000000000000
310
0000FFFFFFFFFBFFFCFC00000000000000000000000000000000000000000000000000FFFFFFFBFFFF00000000000000000000000000000000000000000000000000FFFFFFFFFBFFFFFF000000000000000000000000000000000000000000000000FFFFFBFFFBFFFFFF000000000000000000000000000000000000000000
310
000000FAFAFFFAFBFFFAFA0000000000000000000000000000000000000000000000FBFBFAFAFFFBFAFAFBFB000000000000000000000000000000000000000000000000FA00FFFBFFFA000000000000000000000000000000000000000000000000000000FFFFFBFF00000000000000000000000000000000000000000000
310
0000000000000000FB0000000000000000000000000000000000000000000000000000000000000000000000000000000000000000000000
102
{BLKREFS
331
20A
102
}
1001
ACAD
1000
DesignCenter Data
1002
{
1070
     1
1070
     4
1002
}
  0
BLOCK_RECORD
  5
2B4
102
{ACAD_XDICTIONARY
360
2B5
102
}
330
1
100
AcDbSymbolTableRecord
100
AcDbBlockTableRecord
  2
スペーサ
340
0
310
2800000020000000200000000100080000000000000400000000000000000000000000000000000000000000000080000080000000808000800000008000800080800000C0C0C000C0DCC000F0CAA6000020400000206000002080000020A0000020C0000020E00000400000004020000040400000406000004080000040A0
310
000040C0000040E00000600000006020000060400000606000006080000060A0000060C0000060E00000800000008020000080400000806000008080000080A0000080C0000080E00000A0000000A0200000A0400000A0600000A0800000A0A00000A0C00000A0E00000C0000000C0200000C0400000C0600000C0800000C0
310
A00000C0C00000C0E00000E0000000E0200000E0400000E0600000E0800000E0A00000E0C00000E0E00040000000400020004000400040006000400080004000A0004000C0004000E00040200000402020004020400040206000402080004020A0004020C0004020E000404000004040200040404000404060004040800040
310
40A0004040C0004040E00040600000406020004060400040606000406080004060A0004060C0004060E00040800000408020004080400040806000408080004080A0004080C0004080E00040A0000040A0200040A0400040A0600040A0800040A0A00040A0C00040A0E00040C0000040C0200040C0400040C0600040C08000
310
40C0A00040C0C00040C0E00040E0000040E0200040E0400040E0600040E0800040E0A00040E0C00040E0E00080000000800020008000400080006000800080008000A0008000C0008000E00080200000802020008020400080206000802080008020A0008020C0008020E00080400000804020008040400080406000804080
310
008040A0008040C0008040E00080600000806020008060400080606000806080008060A0008060C0008060E00080800000808020008080400080806000808080008080A0008080C0008080E00080A0000080A0200080A0400080A0600080A0800080A0A00080A0C00080A0E00080C0000080C0200080C0400080C0600080C0
310
800080C0A00080C0C00080C0E00080E0000080E0200080E0400080E0600080E0800080E0A00080E0C00080E0E000C0000000C0002000C0004000C0006000C0008000C000A000C000C000C000E000C0200000C0202000C0204000C0206000C0208000C020A000C020C000C020E000C0400000C0402000C0404000C0406000C0
310
408000C040A000C040C000C040E000C0600000C0602000C0604000C0606000C0608000C060A000C060C000C060E000C0800000C0802000C0804000C0806000C0808000C080A000C080C000C080E000C0A00000C0A02000C0A04000C0A06000C0A08000C0A0A000C0A0C000C0A0E000C0C00000C0C02000C0C04000C0C06000
310
C0C08000C0C0A000F0FBFF00A4A0A000808080000000FF0000FF000000FFFF00FF000000FF00FF00FFFF0000FFFFFF0000000000000000000000000000000000000000000000000000000000000000000000000000000000000000000000000000000000000000000000000000000000000000000000000000000000000000
310
000000000000000000000000000000000000000000000000000000000000000000000000000000000000000000000000000000000000000000000000000000000000000000000000000000000000000000000000000000000000000000000000000000000000000000000000000000000000000000000000FDFDFDFDFD0000
310
000000000000FDFDFDFDFD0000000000000000000000000000FD000000FD0000000000000000FD000000FD00000000000000000000FDFDFDFDFD000000FD0000000000000000FD000000FDFDFDFDFD0000000000FD0000000000000000FD0000000000000000FD0000000000000000FD000000FD000000000000000000FD00
310
00000000000000FD000000000000000000FD0000FD000000000000000000FD0000000000000000FD000000000000000000FD0000FD000000000000000000FD0000000000000000FD000000000000000000FD0000FD000000000000000000FD0000000000000000FD000000000000000000FD0000FD000000000000000000FD
310
0000000000000000FD000000000000000000FD0000FD000000000000000000FD0000000000000000FD000000000000000000FD0000FD000000000000000000FD0000000000000000FD000000000000000000FD0000FD000000000000000000FD0000000000000000FD000000000000000000FD0000FD000000000000000000
310
FD0000000000000000FD000000000000000000FD0000FD000000000000000000FD0000000000000000FD000000000000000000FD0000FD000000000000000000FD0000000000000000FD000000000000000000FD0000FD000000000000000000FD0000000000000000FD000000000000000000FD000000FD00000000000000
310
00FD0000000000000000FD0000000000000000FD0000000000FDFDFDFDFD000000FD0000000000000000FD000000FDFDFDFDFD00000000000000000000FD000000FD0000000000000000FD000000FD0000000000000000000000000000FDFDFDFDFD0000000000000000FDFDFDFDFD00000000000000000000000000000000
310
00000000000000000000000000000000000000000000000000000000000000000000000000000000000000000000000000000000000000000000000000000000000000000000000000000000000000000000000000000000000000000000000000000000000000000000000000000000000000000000000000000000000000
310
0000000000000000000000000000000000000000000000000000000000000000000000000000000000000000000000000000000000000000
102
{BLKREFS
331
2B3
102
}
1001
ACAD
1000
DesignCenter Data
1002
{
1070
     1
1070
     4
1002
}
  0
BLOCK_RECORD
  5
122
102
{ACAD_XDICTIONARY
360
123
102
}
330
1
100
AcDbSymbolTableRecord
100
AcDbBlockTableRecord
  2
HFT-015M50-P1_側面図-A
340
0
102
{BLKREFS
331
120
102
}
  0
BLOCK_RECORD
  5
29F
330
1
100
AcDbSymbolTableRecord
100
AcDbBlockTableRecord
  2
BCB4-25_A
340
0
102
{BLKREFS
331
29E
102
}
  0
BLOCK_RECORD
  5
A1
102
{ACAD_XDICTIONARY
360
A2
102
}
330
1
100
AcDbSymbolTableRecord
100
AcDbBlockTableRecord
  2
配布先表
340
0
102
{BLKREFS
331
A0
102
}
  0
BLOCK_RECORD
  5
B3
102
{ACAD_XDICTIONARY
360
B4
102
}
330
1
100
AcDbSymbolTableRecord
100
AcDbBlockTableRecord
  2
普通公差&規格表
340
0
102
{BLKREFS
331
B2
102
}
  0
BLOCK_RECORD
  5
9C
102
{ACAD_XDICTIONARY
360
9D
102
}
330
1
100
AcDbSymbolTableRecord
100
AcDbBlockTableRecord
  2
WAKUA3_ver.1
340
0
310
2800000020000000200000000100080000000000000400000000000000000000000000000000000000000000000080000080000000808000800000008000800080800000C0C0C000C0DCC000F0CAA6000020400000206000002080000020A0000020C0000020E00000400000004020000040400000406000004080000040A0
310
000040C0000040E00000600000006020000060400000606000006080000060A0000060C0000060E00000800000008020000080400000806000008080000080A0000080C0000080E00000A0000000A0200000A0400000A0600000A0800000A0A00000A0C00000A0E00000C0000000C0200000C0400000C0600000C0800000C0
310
A00000C0C00000C0E00000E0000000E0200000E0400000E0600000E0800000E0A00000E0C00000E0E00040000000400020004000400040006000400080004000A0004000C0004000E00040200000402020004020400040206000402080004020A0004020C0004020E000404000004040200040404000404060004040800040
310
40A0004040C0004040E00040600000406020004060400040606000406080004060A0004060C0004060E00040800000408020004080400040806000408080004080A0004080C0004080E00040A0000040A0200040A0400040A0600040A0800040A0A00040A0C00040A0E00040C0000040C0200040C0400040C0600040C08000
310
40C0A00040C0C00040C0E00040E0000040E0200040E0400040E0600040E0800040E0A00040E0C00040E0E00080000000800020008000400080006000800080008000A0008000C0008000E00080200000802020008020400080206000802080008020A0008020C0008020E00080400000804020008040400080406000804080
310
008040A0008040C0008040E00080600000806020008060400080606000806080008060A0008060C0008060E00080800000808020008080400080806000808080008080A0008080C0008080E00080A0000080A0200080A0400080A0600080A0800080A0A00080A0C00080A0E00080C0000080C0200080C0400080C0600080C0
310
800080C0A00080C0C00080C0E00080E0000080E0200080E0400080E0600080E0800080E0A00080E0C00080E0E000C0000000C0002000C0004000C0006000C0008000C000A000C000C000C000E000C0200000C0202000C0204000C0206000C0208000C020A000C020C000C020E000C0400000C0402000C0404000C0406000C0
310
408000C040A000C040C000C040E000C0600000C0602000C0604000C0606000C0608000C060A000C060C000C060E000C0800000C0802000C0804000C0806000C0808000C080A000C080C000C080E000C0A00000C0A02000C0A04000C0A06000C0A08000C0A0A000C0A0C000C0A0E000C0C00000C0C02000C0C04000C0C06000
310
C0C08000C0C0A000F0FBFF00A4A0A000808080000000FF0000FF000000FFFF00FF000000FF00FF00FFFF0000FFFFFF0000000000000000000000000000000000000000000000000000000000000000000000000000000000000000000000000000000000000000000000000000000000000000000000000000000000000000
310
000000000000000000000000000000000000000000000000000000000000000000000000000000000000000000000000000000000000000000000000000000000000000000000000000000000000000000000000000000000000000000000000000000000000000000000000000000000000FEFEFEFEFEFEFEFEFEFEFEFEFE
310
FEFEFEFEFEFEFEFEFEFEFEFEFEFEFEFEFE0000FE0000000000000000000000000000FEFDFDFEFEFEFDFDFEA7A7FEFEFEFE0000FE0000000000000000000000000000FEFDFDA7A7FEFEFEA7FEFEFEFEFEFE0000FE00000000000000000000000000000000000000000000FEA7FDA7A7FEFE0000FE0000000000000000000000
310
0000000000000000000000000000000000FD0000FE00000000000000000000000000000000000000000000000000000000FD0000FE00000000000000000000000000000000000000000000000000000000FD0000FE00000000000000000000000000000000000000000000000000000000FD0000FE00000000000000000000
310
000000000000000000000000000000000000FD0000FE00000000000000000000000000000000000000000000000000000000FD0000FE00000000000000000000000000000000000000000000000000000000FD0000FE00000000000000000000000000000000000000000000000000000000FD0000FE000000000000000000
310
00000000000000000000000000000000000000FD0000FE00000000000000000000000000000000000000000000000000000000FD0000FE00000000000000000000000000000000000000000000000000000000FD0000FE00000000000000000000000000000000000000000000000000000000FD0000FE0000000000000000
310
0000000000000000000000000000000000000000FD0000FE00000000000000000000000000000000000000000000000000000000FD0000FE00000000000000000000000000000000000000000000000000000000FD0000FEFEFEFEFEFEFEFEFEFEFEFEFEFEFEFEFEFEFEFEFEFEFEFEFEFEFEFEFEFD00000000000000000000
310
00000000000000000000000000000000000000000000000000000000000000000000000000000000000000000000000000000000000000000000000000000000000000000000000000000000000000000000000000000000000000000000000000000000000000000000000000000000000000000000000000000000000000
310
0000000000000000000000000000000000000000000000000000000000000000000000000000000000000000000000000000000000000000
102
{BLKREFS
331
9B
102
}
  0
BLOCK_RECORD
  5
D8
330
1
100
AcDbSymbolTableRecord
100
AcDbBlockTableRecord
  2
WAKUA3
340
0
310
2800000020000000200000000100080000000000000400000000000000000000000000000000000000000000000080000080000000808000800000008000800080800000C0C0C000C0DCC000F0CAA6000020400000206000002080000020A0000020C0000020E00000400000004020000040400000406000004080000040A0
310
000040C0000040E00000600000006020000060400000606000006080000060A0000060C0000060E00000800000008020000080400000806000008080000080A0000080C0000080E00000A0000000A0200000A0400000A0600000A0800000A0A00000A0C00000A0E00000C0000000C0200000C0400000C0600000C0800000C0
310
A00000C0C00000C0E00000E0000000E0200000E0400000E0600000E0800000E0A00000E0C00000E0E00040000000400020004000400040006000400080004000A0004000C0004000E00040200000402020004020400040206000402080004020A0004020C0004020E000404000004040200040404000404060004040800040
310
40A0004040C0004040E00040600000406020004060400040606000406080004060A0004060C0004060E00040800000408020004080400040806000408080004080A0004080C0004080E00040A0000040A0200040A0400040A0600040A0800040A0A00040A0C00040A0E00040C0000040C0200040C0400040C0600040C08000
310
40C0A00040C0C00040C0E00040E0000040E0200040E0400040E0600040E0800040E0A00040E0C00040E0E00080000000800020008000400080006000800080008000A0008000C0008000E00080200000802020008020400080206000802080008020A0008020C0008020E00080400000804020008040400080406000804080
310
008040A0008040C0008040E00080600000806020008060400080606000806080008060A0008060C0008060E00080800000808020008080400080806000808080008080A0008080C0008080E00080A0000080A0200080A0400080A0600080A0800080A0A00080A0C00080A0E00080C0000080C0200080C0400080C0600080C0
310
800080C0A00080C0C00080C0E00080E0000080E0200080E0400080E0600080E0800080E0A00080E0C00080E0E000C0000000C0002000C0004000C0006000C0008000C000A000C000C000C000E000C0200000C0202000C0204000C0206000C0208000C020A000C020C000C020E000C0400000C0402000C0404000C0406000C0
310
408000C040A000C040C000C040E000C0600000C0602000C0604000C0606000C0608000C060A000C060C000C060E000C0800000C0802000C0804000C0806000C0808000C080A000C080C000C080E000C0A00000C0A02000C0A04000C0A06000C0A08000C0A0A000C0A0C000C0A0E000C0C00000C0C02000C0C04000C0C06000
310
C0C08000C0C0A000F0FBFF00A4A0A000808080000000FF0000FF000000FFFF00FF000000FF00FF00FFFF0000FFFFFF0000000000000000000000000000000000000000000000000000000000000000000000000000000000000000000000000000000000000000000000000000000000000000000000000000000000000000
310
000000000000000000000000000000000000000000000000000000000000000000000000000000000000000000000000000000000000000000000000000000000000000000000000000000000000000000000000000000000000000000000000000000000000000000000000000000000000FEFEFEFEFEFEFEFEFEFEFEFEFE
310
FEFEFEFEFEFEFEFEFEFEFEFEFEFEFEFEFE0000FE00000000000000000000000000000000000000FEFDFDFEA7A7FEFEFEFE0000FE00000000000000000000000000000000000000FEFEFEA7FEFEFEFEFEFE0000FE00000000000000000000000000000000000000000000FEA7FDA7A7FEFE0000FE0000000000000000000000
310
0000000000000000000000000000000000FD0000FE00000000000000000000000000000000000000000000000000000000FD0000FE00000000000000000000000000000000000000000000000000000000FD0000FE00000000000000000000000000000000000000000000000000000000FD0000FE00000000000000000000
310
000000000000000000000000000000000000FD0000FE00000000000000000000000000000000000000000000000000000000FD0000FE00000000000000000000000000000000000000000000000000000000FD0000FE00000000000000000000000000000000000000000000000000000000FD0000FE000000000000000000
310
00000000000000000000000000000000000000FD0000FE00000000000000000000000000000000000000000000000000000000FD0000FE00000000000000000000000000000000000000000000000000000000FD0000FE00000000000000000000000000000000000000000000000000000000FD0000FE0000000000000000
310
0000000000000000000000000000000000000000FD0000FE00000000000000000000000000000000000000000000000000000000FD0000FE00000000000000000000000000000000000000000000000000000000FD0000FEFEFEFEFEFEFEFEFEFEFEFEFEFEFEFEFEFEFEFEFEFEFEFEFEFEFEFEFEFD00000000000000000000
310
00000000000000000000000000000000000000000000000000000000000000000000000000000000000000000000000000000000000000000000000000000000000000000000000000000000000000000000000000000000000000000000000000000000000000000000000000000000000000000000000000000000000000
310
0000000000000000000000000000000000000000000000000000000000000000000000000000000000000000000000000000000000000000
102
{BLKREFS
331
D7
102
}
1001
ACAD
1000
DesignCenter Data
1002
{
1070
     1
1070
     4
1002
}
  0
BLOCK_RECORD
  5
3D3
102
{ACAD_XDICTIONARY
360
3D4
102
}
330
1
100
AcDbSymbolTableRecord
100
AcDbBlockTableRecord
  2
風船フォーマット1
340
0
310
2800000020000000200000000100080000000000000400000000000000000000000000000000000000000000000080000080000000808000800000008000800080800000C0C0C000C0DCC000F0CAA6000020400000206000002080000020A0000020C0000020E00000400000004020000040400000406000004080000040A0
310
000040C0000040E00000600000006020000060400000606000006080000060A0000060C0000060E00000800000008020000080400000806000008080000080A0000080C0000080E00000A0000000A0200000A0400000A0600000A0800000A0A00000A0C00000A0E00000C0000000C0200000C0400000C0600000C0800000C0
310
A00000C0C00000C0E00000E0000000E0200000E0400000E0600000E0800000E0A00000E0C00000E0E00040000000400020004000400040006000400080004000A0004000C0004000E00040200000402020004020400040206000402080004020A0004020C0004020E000404000004040200040404000404060004040800040
310
40A0004040C0004040E00040600000406020004060400040606000406080004060A0004060C0004060E00040800000408020004080400040806000408080004080A0004080C0004080E00040A0000040A0200040A0400040A0600040A0800040A0A00040A0C00040A0E00040C0000040C0200040C0400040C0600040C08000
310
40C0A00040C0C00040C0E00040E0000040E0200040E0400040E0600040E0800040E0A00040E0C00040E0E00080000000800020008000400080006000800080008000A0008000C0008000E00080200000802020008020400080206000802080008020A0008020C0008020E00080400000804020008040400080406000804080
310
008040A0008040C0008040E00080600000806020008060400080606000806080008060A0008060C0008060E00080800000808020008080400080806000808080008080A0008080C0008080E00080A0000080A0200080A0400080A0600080A0800080A0A00080A0C00080A0E00080C0000080C0200080C0400080C0600080C0
310
800080C0A00080C0C00080C0E00080E0000080E0200080E0400080E0600080E0800080E0A00080E0C00080E0E000C0000000C0002000C0004000C0006000C0008000C000A000C000C000C000E000C0200000C0202000C0204000C0206000C0208000C020A000C020C000C020E000C0400000C0402000C0404000C0406000C0
310
408000C040A000C040C000C040E000C0600000C0602000C0604000C0606000C0608000C060A000C060C000C060E000C0800000C0802000C0804000C0806000C0808000C080A000C080C000C080E000C0A00000C0A02000C0A04000C0A06000C0A08000C0A0A000C0A0C000C0A0E000C0C00000C0C02000C0C04000C0C06000
310
C0C08000C0C0A000F0FBFF00A4A0A000808080000000FF0000FF000000FFFF00FF000000FF00FF00FFFF0000FFFFFF00000000000000000000000000000000000000000000000000000000000000000000000000000000000000000000000000000000000000000000000000000000000000000000000000000000000000F9
310
F9F9F9F9000000000000000000000000000000000000000000F9F9F9F9F9F90000000000F9F9000000000000000000000000000000000000F900000000000000000000000000F9F900000000000000000000000000000000F9000000000000000000000000000000F9F900000000000000000000000000F900000000000000
310
0000000000000000000000F9F900000000000000000000F90000000000000000000000000000000000000000F9000000000000000000F900000000000000000000000000000000000000000000F90000000000000000F9000000000000000000000000FF000000000000000000F900000000000000F9000000000000000000
310
00000000FF00000000000000000000F90000000000F90000000000000000000000000000FF00000000000000000000F90000000000F90000000000000000000000000000FF00000000000000000000F90000000000F90000000000000000000000000000FF0000000000000000000000F900000000F9000000000000000000
310
0000000000FF0000000000000000000000F900000000F90000000000000000000000000000FF000000000000000000000000F9000000F90000000000000000000000000000FF000000000000000000000000F9000000F90000000000000000000000000000FF000000000000000000000000F9000000F90000000000000000
310
000000000000FF0000000000000000000000F900000000F90000000000000000000000000000FF0000000000000000000000F900000000F90000000000000000000000FFFF00FF00000000000000000000F9000000000000F9000000000000000000000000FFFF00000000000000000000F900000000000000F90000000000
310
00000000000000FF000000000000000000F90000000000000000F900000000000000000000000000000000000000000000F9000000000000000000F90000000000000000000000000000000000000000F90000000000000000000000F900000000000000000000000000000000000000F9000000000000000000000000F900
310
000000000000000000000000000000F9F900000000000000000000000000F90000000000000000000000000000F9F900000000000000000000000000000000F9F9F9F9F900000000000000F9F90000000000000000000000000000000000000000000000F9F9F9F9F9F9F90000000000000000000000000000000000000000
310
0000000000000000000000000000000000000000000000000000000000000000000000000000000000000000000000000000000000000000
102
{BLKREFS
331
3D2
102
}
1001
ACAD
1000
DesignCenter Data
1002
{
1070
     1
1070
     4
1002
}
  0
BLOCK_RECORD
  5
2D5
330
1
100
AcDbSymbolTableRecord
100
AcDbBlockTableRecord
  2
*D14
340
0
  0
BLOCK_RECORD
  5
2E5
330
1
100
AcDbSymbolTableRecord
100
AcDbBlockTableRecord
  2
*D15
340
0
  0
BLOCK_RECORD
  5
2F3
330
1
100
AcDbSymbolTableRecord
100
AcDbBlockTableRecord
  2
*D16
340
0
  0
BLOCK_RECORD
  5
300
330
1
100
AcDbSymbolTableRecord
100
AcDbBlockTableRecord
  2
*D17
340
0
  0
BLOCK_RECORD
  5
311
330
1
100
AcDbSymbolTableRecord
100
AcDbBlockTableRecord
  2
*D18
340
0
  0
BLOCK_RECORD
  5
320
330
1
100
AcDbSymbolTableRecord
100
AcDbBlockTableRecord
  2
*D19
340
0
  0
BLOCK_RECORD
  5
32F
330
1
100
AcDbSymbolTableRecord
100
AcDbBlockTableRecord
  2
*D20
340
0
  0
BLOCK_RECORD
  5
340
330
1
100
AcDbSymbolTableRecord
100
AcDbBlockTableRecord
  2
*D21
340
0
  0
BLOCK_RECORD
  5
34F
330
1
100
AcDbSymbolTableRecord
100
AcDbBlockTableRecord
  2
*D22
340
0
  0
BLOCK_RECORD
  5
35E
330
1
100
AcDbSymbolTableRecord
100
AcDbBlockTableRecord
  2
*D23
340
0
  0
BLOCK_RECORD
  5
36D
330
1
100
AcDbSymbolTableRecord
100
AcDbBlockTableRecord
  2
*D24
340
0
  0
BLOCK_RECORD
  5
37C
330
1
100
AcDbSymbolTableRecord
100
AcDbBlockTableRecord
  2
*D25
340
0
  0
BLOCK_RECORD
  5
38B
330
1
100
AcDbSymbolTableRecord
100
AcDbBlockTableRecord
  2
*D26
340
0
  0
BLOCK_RECORD
  5
39C
330
1
100
AcDbSymbolTableRecord
100
AcDbBlockTableRecord
  2
*D27
340
0
  0
BLOCK_RECORD
  5
3A8
330
1
100
AcDbSymbolTableRecord
100
AcDbBlockTableRecord
  2
*D28
340
0
  0
BLOCK_RECORD
  5
3B8
330
1
100
AcDbSymbolTableRecord
100
AcDbBlockTableRecord
  2
*D29
340
0
  0
BLOCK_RECORD
  5
3C7
330
1
100
AcDbSymbolTableRecord
100
AcDbBlockTableRecord
  2
*D30
340
0
  0
BLOCK_RECORD
  5
407
330
1
100
AcDbSymbolTableRecord
100
AcDbBlockTableRecord
  2
_ACMOPEN15
340
0
  0
ENDTAB
  0
ENDSEC
  0
SECTION
  2
BLOCKS
  0
BLOCK
  5
5
330
2
100
AcDbEntity
  8
0
 62
     0
100
AcDbBlockBegin
  2
*Model_Space
 70
     0
 10
0.0
 20
0.0
 30
0.0
  3
*Model_Space
  1

  0
ENDBLK
  5
6
330
2
100
AcDbEntity
  8
0
 62
     0
100
AcDbBlockEnd
  0
BLOCK
  5
D
330
A
100
AcDbEntity
 67
     1
  8
0
 62
     0
100
AcDbBlockBegin
  2
*Paper_Space
 70
     0
 10
0.0
 20
0.0
 30
0.0
  3
*Paper_Space
  1

  0
ENDBLK
  5
E
330
A
100
AcDbEntity
 67
     1
  8
0
 62
     0
100
AcDbBlockEnd
  0
BLOCK
  5
42
330
41
100
AcDbEntity
  8
0
 62
     0
100
AcDbBlockBegin
  2
GENAXEH
 70
     0
 10
0.0
 20
0.0
 30
0.0
  3
GENAXEH
  1

  0
LINE
  5
43
330
41
100
AcDbEntity
  8
0
100
AcDbLine
 10
-1.0
 20
0.0
 30
0.0
 11
1.0
 21
0.0
 31
0.0
  0
ENDBLK
  5
44
330
41
100
AcDbEntity
  8
0
 62
     0
100
AcDbBlockEnd
  0
BLOCK
  5
38
330
37
100
AcDbEntity
  8
0
 62
     0
100
AcDbBlockBegin
  2
_Open30
 70
     0
 10
0.0
 20
0.0
 30
0.0
  3
_Open30
  1

  0
LINE
  5
39
330
37
100
AcDbEntity
  8
0
  6
ByBlock
 62
     7
370
    -2
100
AcDbLine
 10
-1.0
 20
0.2679491900000244
 30
0.0
 11
0.0
 21
0.0
 31
0.0
  0
LINE
  5
3A
330
37
100
AcDbEntity
  8
0
  6
ByBlock
 62
     7
370
    -2
100
AcDbLine
 10
0.0
 20
0.0
 30
0.0
 11
-1.0
 21
-0.2679491900000244
 31
0.0
  0
LINE
  5
3B
330
37
100
AcDbEntity
  8
0
  6
ByBlock
 62
     0
370
    -2
100
AcDbLine
 10
0.0
 20
0.0
 30
0.0
 11
-1.0
 21
0.0
 31
0.0
  0
ENDBLK
  5
3C
330
37
100
AcDbEntity
  8
0
 62
     0
100
AcDbBlockEnd
  0
BLOCK
  5
69
330
66
100
AcDbEntity
  8
0
100
AcDbBlockBegin
  2
表題覧_ver.1
 70
     2
 10
0.0
 20
0.0
 30
0.0
  3
表題覧_ver.1
  1

  0
ATTDEF
  5
6A
330
66
100
AcDbEntity
  8
0
100
AcDbText
 10
-73.10399192270904
 20
27.54999999999782
 30
0.0
 40
4.0
  1
AAAA
 41
1.646590909090915
  7
K1
 72
     5
 11
-48.95399192270895
 21
27.54999999999782
 31
0.0
100
AcDbAttributeDefinition
  3
JOB_No?
  2
JOB_NO
 70
     4
  0
ATTDEF
  5
6B
330
66
100
AcDbEntity
  8
A4WAKU
100
AcDbText
 10
-56.74219840503115
 20
17.54999999999779
 30
0.0
 40
6.0
  1
DDDD
 41
0.8
  7
K1
 72
     4
 11
-47.94219840503115
 21
20.54999999999779
 31
0.0
100
AcDbAttributeDefinition
  3
2.TITLE?
  2
TITLE
 70
     4
  0
ATTDEF
  5
6F
330
66
100
AcDbEntity
  8
A4WAKU
100
AcDbText
 10
-68.07175800089066
 20
3.499999999997726
 30
0.0
 40
6.0
  1
CCCC
 41
2.806363636363637
  7
K1
 72
     5
 11
-6.331758000890658
 21
3.499999999997726
 31
0.0
100
AcDbAttributeDefinition
  3
3.DRAWING_No?
  2
DRAWING_NO.
 70
     4
  0
ATTDEF
  5
70
330
66
100
AcDbEntity
  8
A4WAKU
100
AcDbText
 10
-110.9421984050312
 20
17.04999999999779
 30
0.0
 40
3.0
  1
1/1
 41
1.981874999999988
  7
K1
 72
     5
 11
-100.3721984050313
 21
17.04999999999779
 31
0.0
100
AcDbAttributeDefinition
  3
4.SCALE?
  2
SCALE
 70
     4
  0
ATTDEF
  5
71
330
66
100
AcDbEntity
  8
A4WAKU
100
AcDbText
 10
-143.1840859713084
 20
18.65999999999781
 30
0.0
 40
3.5
  1
SS400
  7
K1
 72
     2
 11
-127.2396415268639
 21
18.65999999999781
 31
0.0
100
AcDbAttributeDefinition
  3
7.MATERIAL?
  2
MATERIAL
 70
     4
  0
ATTDEF
  5
72
330
66
100
AcDbEntity
  8
0
100
AcDbText
 10
-35.2555555555569
 20
27.49999999999787
 30
0.0
 40
4.0
  1
1
 41
0.8
  7
K1
 72
     4
 11
-34.90000000000134
 21
29.49999999999787
 31
0.0
100
AcDbAttributeDefinition
  3
6.KAZU?
  2
AMT
 70
     4
  0
ATTDEF
  5
73
330
66
100
AcDbEntity
  8
A4WAKU
100
AcDbText
 10
-134.7063081935306
 20
9.829999999997824
 30
0.0
 40
3.5
  1
黒染
  7
K1
 72
     2
 11
-127.2396415268639
 21
9.829999999997824
 31
0.0
100
AcDbAttributeDefinition
  3
7.REMARK?
  2
REMARK
 70
     4
  0
ATTDEF
  5
74
330
66
100
AcDbEntity
  8
0
100
AcDbText
 10
-26.20399192270895
 20
27.5499999999978
 30
0.0
 40
4.0
  1
BBBB
 41
1.646590909090915
  7
K1
 72
     5
 11
-2.05399192270886
 21
27.5499999999978
 31
0.0
100
AcDbAttributeDefinition
  3
DATE?
  2
DATE
 70
     4
  0
ATTDEF
  5
75
330
66
100
AcDbEntity
  8
A4WAKU
100
AcDbText
 10
-140.7922955427447
 20
0.9999999999978115
 30
0.0
 40
3.5
  1
0.00
  7
K1
 72
     2
 11
-130.2922955427447
 21
0.9999999999978115
 31
0.0
100
AcDbAttributeDefinition
  3
7.WEIGHT?
  2
WEIGHT
 70
     4
  0
ENDBLK
  5
76
330
66
100
AcDbEntity
  8
0
100
AcDbBlockEnd
  0
BLOCK
  5
84
330
82
100
AcDbEntity
  8
0
 62
     0
100
AcDbBlockBegin
  2
流用枠1-A
 70
     2
 10
0.0
 20
0.0
 30
0.0
  3
流用枠1-A
  1

  0
LWPOLYLINE
  5
85
330
82
100
AcDbEntity
  8
0
 62
     4
100
AcDbPolyline
 90
        3
 70
     0
 43
0.0
 10
0.0
 20
0.0
 10
0.0
 20
8.999999999999971
 10
74.89999999999963
 20
8.999999999999971
  0
TEXT
  5
86
330
82
100
AcDbEntity
  8
0
 62
    11
100
AcDbText
 10
0.6999999999998181
 20
6.349999999999937
 30
0.0
 40
2.0
  1
ＪＯＢ　ＮＯ．工事記号
 41
0.5412371134020617
  7
K1
 72
     5
 11
14.69999999999982
 21
6.349999999999937
 31
0.0
100
AcDbText
  0
ATTDEF
  5
87
330
82
100
AcDbEntity
  8
0
100
AcDbText
 10
1.469999999999799
 20
1.049999999999926
 30
0.0
 40
4.0
  1

 41
1.646590909090915
  7
K1
 72
     5
 11
25.61999999999989
 21
1.049999999999926
 31
0.0
100
AcDbAttributeDefinition
  3
JOB_No?
  2
AAAA
 70
     4
  0
LINE
  5
88
330
82
100
AcDbEntity
  8
0
 62
     6
100
AcDbLine
 10
46.90000000000009
 20
-0.0000000000000284
 30
0.0
 11
46.90000000000009
 21
8.999999999999971
 31
0.0
  0
ATTDEF
  5
89
330
82
100
AcDbEntity
  8
0
100
AcDbText
 10
40.0
 20
2.999999999999971
 30
0.0
 40
4.0
  1

 41
0.8
  7
K1
 72
     4
 11
40.0
 21
2.999999999999971
 31
0.0
100
AcDbAttributeDefinition
  3
6.KAZU?
  2
1
 70
     4
  0
TEXT
  5
8A
330
82
100
AcDbEntity
  8
A3WAKU
 62
    11
100
AcDbText
 10
28.69999999999982
 20
6.349999999999937
 30
0.0
 40
2.0
  1
ＡＭＴ.所要数（個）
 41
0.670212765957447
  7
K1
 72
     5
 11
42.69999999999981
 21
6.349999999999937
 31
0.0
100
AcDbText
  0
LINE
  5
8E
330
82
100
AcDbEntity
  8
0
 62
     6
100
AcDbLine
 10
28.0
 20
-0.0000000000000284
 30
0.0
 11
28.0
 21
8.999999999999971
 31
0.0
  0
TEXT
  5
8F
330
82
100
AcDbEntity
  8
A3WAKU
 62
    11
100
AcDbText
 10
47.5999999999999
 20
6.349999999999937
 30
0.0
 40
2.0
  1
DATE.
 41
0.7297297297297299
  7
K1
 72
     5
 11
53.59999999999991
 21
6.349999999999937
 31
0.0
100
AcDbText
  0
ATTDEF
  5
90
330
82
100
AcDbEntity
  8
0
100
AcDbText
 10
48.36999999999989
 20
1.049999999999897
 30
0.0
 40
4.0
  1

 41
1.646590909090915
  7
K1
 72
     5
 11
72.51999999999998
 21
1.049999999999897
 31
0.0
100
AcDbAttributeDefinition
  3
DATE?
  2
BBBB
 70
     4
  0
ENDBLK
  5
91
330
82
100
AcDbEntity
  8
0
 62
     0
100
AcDbBlockEnd
  0
BLOCK
  5
1BE
330
1BB
100
AcDbEntity
  8
0
100
AcDbBlockBegin
  2
ハンドル外観図-B
 70
     0
 10
0.0
 20
0.0
 30
0.0
  3
ハンドル外観図-B
  1

  0
CIRCLE
  5
1BF
330
1BB
100
AcDbEntity
  8
K-1
  6
ByBlock
 62
     0
370
    25
100
AcDbCircle
 10
24.19829893242422
 20
131.9999999993783
 30
0.0
 40
4.25
  0
CIRCLE
  5
1C0
330
1BB
100
AcDbEntity
  8
K-1
  6
ByBlock
 62
     0
370
    25
100
AcDbCircle
 10
-35.30170106758942
 20
131.9999999993765
 30
0.0
 40
4.25
  0
ARC
  5
1C1
330
1BB
100
AcDbEntity
  8
K-1
  6
ByBlock
 62
     0
100
AcDbCircle
 10
-26.99418699964918
 20
3.36360940474924
 30
0.0
 40
9.0
100
AcDbArc
 50
307.2660444507638
 51
87.16041159309565
  0
LINE
  5
1C2
330
1BB
100
AcDbEntity
  8
K-1
  6
ByBlock
 62
     0
100
AcDbLine
 10
-55.80170106758306
 20
112.200000000628
 30
0.0
 11
-54.74005562036928
 21
112.2000000006273
 31
0.0
  0
LWPOLYLINE
  5
1C3
330
1BB
100
AcDbEntity
  8
K-1
  6
ByBlock
 62
     0
370
    25
100
AcDbPolyline
 90
        4
 70
     1
 43
0.0
 10
-21.80170106758942
 20
121.0000000018799
 10
-29.80170106758578
 20
121.0000000018785
 42
-0.9999999999999998
 10
-29.80170106760033
 20
127.0000000018785
 10
-21.80170106757669
 20
127.0000000018776
 42
-0.9999999999999998
  0
LINE
  5
1C4
330
1BB
100
AcDbEntity
  8
K-1
  6
ByBlock
 62
     0
100
AcDbLine
 10
52.19829893241694
 20
127.9999999993802
 30
0.0
 11
52.19829893243058
 21
120.352653960796
 31
0.0
  0
LINE
  5
1C5
330
1BB
100
AcDbEntity
  8
K-1
  6
ByBlock
 62
     0
370
    25
100
AcDbLine
 10
-23.39984810407532
 20
23.29049395502693
 30
0.0
 11
-35.64188083768931
 21
76.31656339285973
 31
0.0
  0
LINE
  5
1C6
330
1BB
100
AcDbEntity
  8
K-1
  6
ByBlock
 62
     0
100
AcDbLine
 10
52.19829893241694
 20
127.9999999993802
 30
0.0
 11
52.19829893240512
 21
136.9999999993811
 31
0.0
  0
LINE
  5
1C7
330
1BB
100
AcDbEntity
  8
K-1
  6
ByBlock
 62
     0
370
    25
100
AcDbLine
 10
-49.80170106759215
 20
87.51729889415992
 30
0.0
 11
-49.8017010675785
 21
89.75378874940725
 31
0.0
  0
LINE
  5
1C8
330
1BB
100
AcDbEntity
  8
K-1
  6
ByBlock
 62
     0
370
    25
100
AcDbLine
 10
-57.80170106758214
 20
114.2000000006285
 30
0.0
 11
-57.8017010675785
 21
129.4999999993752
 31
0.0
  0
LINE
  5
1C9
330
1BB
100
AcDbEntity
  8
K-1
  6
ByBlock
 62
     0
100
AcDbLine
 10
-24.62019382531617
 20
-4.341204441677291
 30
0.0
 11
21.6657705664893
 21
3.820259908705338
 31
0.0
  0
LINE
  5
1CA
330
1BB
100
AcDbEntity
  8
K-1
  6
ByBlock
 62
     0
370
    25
100
AcDbLine
 10
51.69829893240785
 20
137.499999999382
 30
0.0
 11
-57.30170106758487
 21
137.4999999993811
 31
0.0
  0
ARC
  5
1CB
330
1BB
100
AcDbEntity
  8
K-1
  6
ByBlock
 62
     0
370
    25
100
AcDbCircle
 10
51.69829893240967
 20
136.9999999993829
 30
0.0
 40
0.5
100
AcDbArc
 50
0.0000000000521102
 51
90.0
  0
LINE
  5
1CC
330
1BB
100
AcDbEntity
  8
K-1
  6
ByBlock
 62
     0
370
    25
100
AcDbLine
 10
12.62062390255596
 20
113.3740420193203
 30
0.0
 11
52.19829893243058
 21
120.352653960796
 31
0.0
  0
LINE
  5
1CD
330
1BB
100
AcDbEntity
  8
K-1
  6
ByBlock
 62
     0
100
AcDbLine
 10
-57.8017010675785
 20
129.4999999993752
 30
0.0
 11
-57.80170106758487
 21
136.9999999993829
 31
0.0
  0
ARC
  5
1CE
330
1BB
100
AcDbEntity
  8
K-1
  6
ByBlock
 62
     0
100
AcDbCircle
 10
-57.30170106759397
 20
136.9999999993847
 30
0.0
 40
0.5
100
AcDbArc
 50
90.0
 51
180.0
  0
CIRCLE
  5
1CF
330
1BB
100
AcDbEntity
  8
K-1
  6
ByBlock
 62
     0
100
AcDbCircle
 10
24.19829893240148
 20
131.9999999993783
 30
0.0
 40
2.25
  0
CIRCLE
  5
1D0
330
1BB
100
AcDbEntity
  8
K-1
  6
ByBlock
 62
     0
100
AcDbCircle
 10
-35.30170106758851
 20
131.9999999993774
 30
0.0
 40
2.25
  0
LINE
  5
1D1
330
1BB
100
AcDbEntity
  8
K-1
  6
ByBlock
 62
     0
370
    25
100
AcDbLine
 10
23.2880897171799
 20
6.13717177006265
 30
0.0
 11
20.73470268744586
 21
20.61814921029827
 31
0.0
  0
ARC
  5
1D2
330
1BB
100
AcDbEntity
  8
K-1
  6
ByBlock
 62
     0
100
AcDbCircle
 10
-26.00937924663867
 20
3.537257582416032
 30
0.0
 40
8.0
100
AcDbArc
 50
130.0000000000209
 51
280.0000000000052
  0
LINE
  5
1D3
330
1BB
100
AcDbEntity
  8
K-1
  6
ByBlock
 62
     0
370
    25
100
AcDbLine
 10
-43.64909970886674
 20
83.91513037954201
 30
0.0
 11
-47.32264560058502
 21
84.56287563512296
 31
0.0
  0
ARC
  5
1D4
330
1BB
100
AcDbEntity
  8
K-1
  6
ByBlock
 62
     0
100
AcDbCircle
 10
-46.80170106759852
 20
87.51729889416173
 30
0.0
 40
3.0
100
AcDbArc
 50
180.0
 51
259.9999999999948
  0
LINE
  5
1D5
330
1BB
100
AcDbEntity
  8
K-1
  6
ByBlock
 62
     6
100
AcDbLine
 10
-57.80170106759943
 20
118.9999999993765
 30
0.0
 11
-54.8017010675776
 21
118.9999999993763
 31
0.0
  0
LINE
  5
1D6
330
1BB
100
AcDbEntity
  8
K-1
  6
ByBlock
 62
     6
100
AcDbLine
 10
2.19829893241058
 20
118.9999999993756
 30
0.0
 11
52.19829893241239
 21
127.8163490347974
 31
0.0
  0
ARC
  5
1D7
330
1BB
100
AcDbEntity
  8
K-1
  6
ByBlock
 62
     0
100
AcDbCircle
 10
-65.80170106758941
 20
98.00000000062802
 30
0.0
 40
18.0
100
AcDbArc
 50
332.7339555493606
 51
52.0817973435526
  0
CIRCLE
  5
1D8
330
1BB
100
AcDbEntity
  8
K-1
  6
ByBlock
 62
     0
100
AcDbCircle
 10
-51.8017010675776
 20
118.9999999993792
 30
0.0
 40
3.0
  0
LINE
  5
1D9
330
1BB
100
AcDbEntity
  8
K-1
  6
ByBlock
 62
     6
100
AcDbLine
 10
-57.8017010675785
 20
126.9999999993774
 30
0.0
 11
2.198298932405123
 21
126.9999999993779
 31
0.0
  0
LINE
  5
1DA
330
1BB
100
AcDbEntity
  8
K-1
  6
ByBlock
 62
     6
100
AcDbLine
 10
2.198298932405123
 20
126.9999999993779
 30
0.0
 11
20.53064276999339
 21
129.8527230553893
 31
0.0
  0
ARC
  5
1DB
330
1BB
100
AcDbEntity
  8
K-1
  6
ByBlock
 62
     0
370
    25
100
AcDbCircle
 10
-45.38558148554057
 20
74.06705284942018
 30
0.0
 40
10.0
100
AcDbArc
 50
13.0000000000266
 51
79.99999999999484
  0
ARC
  5
1DC
330
1BB
100
AcDbEntity
  8
K-1
  6
ByBlock
 62
     0
100
AcDbCircle
 10
-30.98666941620923
 20
20.24733186617959
 30
0.0
 40
8.0
100
AcDbArc
 50
310.0000000000209
 51
10.00000000021942
  0
LINE
  5
1DD
330
1BB
100
AcDbEntity
  8
K-1
  6
ByBlock
 62
     0
370
    25
100
AcDbLine
 10
-23.10820739213068
 20
21.63651728754167
 30
0.0
 11
-23.39984810407532
 21
23.29049395502693
 31
0.0
  0
LINE
  5
1DE
330
1BB
100
AcDbEntity
  8
K-1
  6
ByBlock
 62
     0
370
    25
100
AcDbLine
 10
-25.8443685387274
 20
14.11897632122964
 30
0.0
 11
-31.15168012413779
 21
9.665613127367123
 31
0.0
  0
LINE
  5
1DF
330
1BB
100
AcDbEntity
  8
K-1
  6
ByBlock
 62
     6
370
    25
100
AcDbLine
 10
20.58708953455789
 20
21.4553050005311
 30
0.0
 11
20.50971887451851
 21
21.89409581826112
 31
0.0
  0
ARC
  5
1E0
330
1BB
100
AcDbEntity
  8
K-1
  6
ByBlock
 62
     0
100
AcDbCircle
 10
-147.1912062944311
 20
40.05248559163078
 30
0.0
 40
160.0
100
AcDbArc
 50
358.8873100836182
 51
20.47637507234677
  0
ARC
  5
1E1
330
1BB
100
AcDbEntity
  8
K-1
  6
ByBlock
 62
     0
100
AcDbCircle
 10
14.87805021222539
 20
100.5715412301615
 30
0.0
 40
13.0
100
AcDbArc
 50
100.0000000000051
 51
200.4763750723468
  0
LINE
  5
1E2
330
1BB
100
AcDbEntity
  8
K-1
  6
ByBlock
 62
     6
100
AcDbLine
 10
20.1653303966541
 20
22.31855242457186
 30
0.0
 11
20.50971887450851
 21
21.89409581825839
 31
0.0
  0
ARC
  5
1E3
330
1BB
100
AcDbEntity
  8
K-1
  6
ByBlock
 62
     0
100
AcDbCircle
 10
15.81066392238426
 20
19.74990832196226
 30
0.0
 40
5.0
100
AcDbArc
 50
10.00000000000269
 51
39.0546041007617
  0
ARC
  5
1E4
330
1BB
100
AcDbEntity
  8
K-1
  6
ByBlock
 62
     0
100
AcDbCircle
 10
23.42095641481501
 20
34.17749969901115
 30
0.0
 40
10.0
100
AcDbArc
 50
190.0000000000151
 51
219.0546041007617
  0
LINE
  5
1E5
330
1BB
100
AcDbEntity
  8
K-1
  6
ByBlock
 62
     0
100
AcDbLine
 10
15.65549788619591
 20
27.87689228065028
 30
0.0
 11
19.69339318669426
 21
22.90021203114293
 31
0.0
  0
LINE
  5
1E6
330
1BB
100
AcDbEntity
  8
K-1
  6
ByBlock
 62
     0
370
    25
100
AcDbLine
 10
13.57287888470364
 20
32.44101792232596
 30
0.0
 11
12.77862342301705
 21
36.94546448228221
 31
0.0
  0
ARC
  5
1E7
330
1BB
100
AcDbEntity
  8
K-1
  6
ByBlock
 62
     0
370
    25
100
AcDbCircle
 10
21.31847421115526
 20
5.789875414729294
 30
0.0
 40
2.0
100
AcDbArc
 50
280.0000000000052
 51
9.999999999977831
  0
LINE
  5
1E8
330
1BB
100
AcDbEntity
  8
K-1
  6
ByBlock
 62
     6
100
AcDbLine
 10
-4.520312955928602
 20
26.61946538488951
 30
0.0
 11
14.35922219221811
 21
29.94843681475186
 31
0.0
  0
LINE
  5
1E9
330
1BB
100
AcDbEntity
  8
K-1
  6
ByBlock
 62
     6
100
AcDbLine
 10
23.28808971717899
 20
6.13717177006174
 30
0.0
 11
-19.3460066921325
 21
-1.380369725023001
 31
0.0
  0
LINE
  5
1EA
330
1BB
100
AcDbEntity
  8
K-1
  6
ByBlock
 62
     0
100
AcDbLine
 10
-26.54832806858849
 20
12.35255872119296
 30
0.0
 11
-26.72892046967081
 21
13.37674912221837
 31
0.0
  0
LINE
  5
1EB
330
1BB
100
AcDbEntity
  8
K-1
  6
ByBlock
 62
     6
100
AcDbLine
 10
-49.8017010675785
 20
126.9999999993774
 30
0.0
 11
-49.80170106758487
 21
137.4999999993811
 31
0.0
  0
LINE
  5
1EC
330
1BB
100
AcDbEntity
  8
K-1
  6
ByBlock
 62
     6
100
AcDbLine
 10
28.34501253313101
 20
131.0687286566915
 30
0.0
 11
52.1982989324224
 21
134.7805737254812
 31
0.0
  0
LINE
  5
1ED
330
1BB
100
AcDbEntity
  8
K-1
  6
ByBlock
 62
     6
100
AcDbLine
 10
-46.80170106758033
 20
118.9999999993795
 30
0.0
 11
2.19829893241058
 21
118.9999999993756
 31
0.0
  0
ARC
  5
1EE
330
1BB
100
AcDbEntity
  8
K-1
  6
ByBlock
 62
     0
370
    25
100
AcDbCircle
 10
-55.80170106758214
 20
114.200000000628
 30
0.0
 40
2.0
100
AcDbArc
 50
179.999999999987
 51
269.9999999999479
  0
CIRCLE
  5
1EF
330
1BB
100
AcDbEntity
  8
K-1
  6
ByBlock
 62
     0
100
AcDbCircle
 10
-51.80170106758033
 20
118.9999999993426
 30
0.0
 40
1.25
  0
LINE
  5
1F0
330
1BB
100
AcDbEntity
  8
K-1
  6
ByBlock
 62
     6
100
AcDbLine
 10
2.198298932405123
 20
126.9999999993774
 30
0.0
 11
2.19829893241058
 21
118.9999999993752
 31
0.0
  0
LINE
  5
1F1
330
1BB
100
AcDbEntity
  8
K-1
  6
ByBlock
 62
     6
100
AcDbLine
 10
20.34153103368135
 20
21.86443976409441
 30
0.0
 11
-26.44541443245453
 21
13.61463893348195
 31
0.0
  0
ARC
  5
1F2
330
1BB
100
AcDbEntity
  8
K-1
  6
ByBlock
 62
     6
370
    25
100
AcDbCircle
 10
-35.80170106757942
 20
100.0000000006366
 30
0.0
 40
9.999999999999886
100
AcDbArc
 50
277.7591642306519
 51
79.5390343140601
  0
LINE
  5
1F3
330
1BB
100
AcDbEntity
  8
K-1
  6
ByBlock
 62
     6
370
    25
100
AcDbLine
 10
-49.80170106758942
 20
88.00000000062619
 30
0.0
 11
-34.45160693175149
 21
90.0915568421783
 31
0.0
  0
LINE
  5
1F4
330
1BB
100
AcDbEntity
  8
K-1
  6
ByBlock
 62
     6
370
    25
100
AcDbLine
 10
-44.10104027737998
 20
111.7013649695693
 30
0.0
 11
-33.98604492755476
 21
109.833788323617
 31
0.0
  0
ARC
  5
1F5
330
1BB
100
AcDbEntity
  8
K-1
  6
ByBlock
 62
     6
370
    25
100
AcDbCircle
 10
-49.54800869745486
 20
82.20000000062738
 30
0.0
 40
30.0
100
AcDbArc
 50
79.5390343140601
 51
84.74758521865481
  0
ARC
  5
1F6
330
1BB
100
AcDbEntity
  8
K-1
  6
ByBlock
 62
     6
370
    25
100
AcDbCircle
 10
-41.80170106758033
 20
116.3613382312103
 30
0.0
 40
5.0
100
AcDbArc
 50
180.0
 51
259.5390343140601
  0
LWPOLYLINE
  5
1F7
330
1BB
100
AcDbEntity
  8
K-1
  6
ByBlock
 62
     0
370
    25
100
AcDbPolyline
 90
        5
 70
     0
 43
0.0
 10
-46.80170106758033
 20
107.0736942529104
 10
-46.80170106758033
 20
118.9999999993795
 42
0.4142135623708708
 10
-51.80170106758033
 20
123.9999999993415
 10
-55.88649144068949
 20
123.9999999993415
 10
-54.10766833544676
 20
120.9189880033839
  0
ENDBLK
  5
1F8
330
1BB
100
AcDbEntity
  8
0
100
AcDbBlockEnd
  0
BLOCK
  5
20E
330
20B
100
AcDbEntity
  8
0
 62
     3
370
    25
100
AcDbBlockBegin
  2
HFT-015M50-P1_正面図-A1
 70
     0
 10
0.0
 20
0.0
 30
0.0
  3
HFT-015M50-P1_正面図-A1
  1

  0
LINE
  5
20F
330
20B
100
AcDbEntity
  8
K-1
  6
ByBlock
 62
     0
100
AcDbLine
 10
-5.644700878509183
 20
1.067469363158124
 30
0.0
 11
-3.406516613948387
 21
3.305653627719038
 31
0.0
  0
CIRCLE
  5
210
330
20B
100
AcDbEntity
  8
K-1
  6
ByBlock
 62
     0
370
    25
100
AcDbCircle
 10
-10.00221434567811
 20
-0.0091230852426634
 30
0.0
 40
1.55
  0
CIRCLE
  5
211
330
20B
100
AcDbEntity
  8
K-1
  6
ByBlock
 62
     0
370
    25
100
AcDbCircle
 10
0.0015652739662073
 20
-10.00534489361143
 30
0.0
 40
1.55
  0
CIRCLE
  5
212
330
20B
100
AcDbEntity
  8
K-1
  6
ByBlock
 62
     0
370
    25
100
AcDbCircle
 10
9.997787082334525
 20
-0.0015652739666621
 30
0.0
 40
1.55
  0
LINE
  5
213
330
20B
100
AcDbEntity
  8
K-1
  6
ByBlock
 62
     0
100
AcDbLine
 10
-1.062125183553234
 20
-5.650045058114301
 30
0.0
 11
-5.644700878508956
 21
-1.067469363158124
 31
0.0
  0
LINE
  5
214
330
20B
100
AcDbEntity
  8
K-1
  6
ByBlock
 62
     0
100
AcDbLine
 10
5.655389237718964
 20
-1.067469363158579
 30
0.0
 11
1.072813542763242
 21
-5.650045058114301
 31
0.0
  0
LINE
  5
215
330
20B
100
AcDbEntity
  8
K-1
  6
ByBlock
 62
     0
100
AcDbLine
 10
3.417204973158227
 20
3.305653627719038
 30
0.0
 11
5.655389237718964
 21
1.067469363158124
 31
0.0
  0
LINE
  5
216
330
20B
100
AcDbEntity
  8
K-1
  6
ByBlock
 62
     0
100
AcDbLine
 10
-16.84072529793184
 20
-13.99999999999454
 30
0.0
 11
-19.48824451001701
 21
-13.99999999999454
 31
0.0
  0
LINE
  5
217
330
20B
100
AcDbEntity
  8
K-1
  6
ByBlock
 62
     0
100
AcDbLine
 10
-22.00000000000045
 20
-9.579395990202556
 30
0.0
 11
-22.00000000000015
 21
3.305653627719038
 31
0.0
  0
LINE
  5
218
330
20B
100
AcDbEntity
  8
K-1
  6
ByBlock
 62
     0
100
AcDbLine
 10
22.00000000000015
 20
3.305653627719038
 30
0.0
 11
22.00000000000045
 21
-9.603911460563722
 31
0.0
  0
LINE
  5
219
330
20B
100
AcDbEntity
  8
K-1
  6
ByBlock
 62
     0
100
AcDbLine
 10
19.49893286922679
 20
-13.99999999999454
 30
0.0
 11
16.84072529793184
 21
-13.99999999999454
 31
0.0
  0
LINE
  5
21A
330
20B
100
AcDbEntity
  8
K-1
  6
ByBlock
 62
     0
370
    25
100
AcDbLine
 10
-16.93767959997285
 20
-14.49999999999454
 30
0.0
 11
-19.49465582039534
 21
-14.49999999999409
 31
0.0
  0
LINE
  5
21B
330
20B
100
AcDbEntity
  8
K-1
  6
ByBlock
 62
     0
370
    25
100
AcDbLine
 10
-19.49465582039511
 20
-14.49999999999409
 30
0.0
 11
-19.49465582039511
 21
-24.99999999999955
 31
0.0
  0
LINE
  5
21C
330
20B
100
AcDbEntity
  8
K-1
  6
ByBlock
 62
     0
370
    25
100
AcDbLine
 10
-19.49465582039511
 20
-24.99999999999955
 30
0.0
 11
-14.99465582039511
 21
-33.00000000000137
 31
0.0
  0
LINE
  5
21D
330
20B
100
AcDbEntity
  8
K-1
  6
ByBlock
 62
     0
370
    25
100
AcDbLine
 10
-14.99465582039511
 20
-33.00000000000137
 30
0.0
 11
-14.99465582039511
 21
-51.99999999874989
 31
0.0
  0
LINE
  5
21E
330
20B
100
AcDbEntity
  8
K-1
  6
ByBlock
 62
     0
100
AcDbLine
 10
-19.99465582039533
 20
-134.0000000000009
 30
0.0
 11
-19.99465582039533
 21
-149.9999999999995
 31
0.0
  0
LINE
  5
21F
330
20B
100
AcDbEntity
  8
K-1
  6
ByBlock
 62
     0
100
AcDbLine
 10
20.00534417960557
 20
-149.9999999999995
 30
0.0
 11
20.00534417960557
 21
-133.9999999999982
 31
0.0
  0
ARC
  5
220
330
20B
100
AcDbEntity
  8
K-1
  6
ByBlock
 62
     0
100
AcDbCircle
 10
18.00534417960466
 20
-149.9999999999995
 30
0.0
 40
2.0
100
AcDbArc
 50
300.5967036891901
 51
359.999999999974
  0
LINE
  5
221
330
20B
100
AcDbEntity
  8
K-1
  6
ByBlock
 62
     0
370
    25
100
AcDbLine
 10
16.93767959997376
 20
-14.49999999999454
 30
0.0
 11
19.5053441796058
 21
-14.49999999999454
 31
0.0
  0
LINE
  5
222
330
20B
100
AcDbEntity
  8
K-1
  6
ByBlock
 62
     0
370
    25
100
AcDbLine
 10
19.5053441796058
 20
-14.49999999999409
 30
0.0
 11
19.5053441796058
 21
-25.0
 31
0.0
  0
LINE
  5
223
330
20B
100
AcDbEntity
  8
K-1
  6
ByBlock
 62
     0
370
    25
100
AcDbLine
 10
19.5053441796058
 20
-25.0
 30
0.0
 11
15.0053441796058
 21
-33.00000000000137
 31
0.0
  0
LINE
  5
224
330
20B
100
AcDbEntity
  8
K-1
  6
ByBlock
 62
     0
370
    25
100
AcDbLine
 10
15.0053441796058
 20
-33.00000000000137
 30
0.0
 11
15.00534417960579
 21
-51.99999999874989
 31
0.0
  0
LINE
  5
225
330
20B
100
AcDbEntity
  8
K-1
  6
ByBlock
 62
     0
100
AcDbLine
 10
20.00534417960557
 20
-134.0000000000009
 30
0.0
 11
16.00534417960648
 21
-125.4101906687715
 31
0.0
  0
ARC
  5
226
330
20B
100
AcDbEntity
  8
K-1
  6
ByBlock
 62
     0
100
AcDbCircle
 10
0.0000000000004547
 20
0.0053441796048901
 30
0.0
 40
22.3
100
AcDbArc
 50
220.5765844080394
 51
319.4234155919949
  0
LINE
  5
227
330
20B
100
AcDbEntity
  8
K-1
  6
ByBlock
 62
     0
100
AcDbLine
 10
16.00534417960648
 20
-125.4101906687715
 30
0.0
 11
15.00534417963672
 21
-52.00000000000091
 31
0.0
  0
LINE
  5
228
330
20B
100
AcDbEntity
  8
K-1
  6
ByBlock
 62
     0
100
AcDbLine
 10
-19.99465582039443
 20
-134.0000000000009
 30
0.0
 11
-15.99465582039442
 21
-125.4101906687699
 31
0.0
  0
LINE
  5
229
330
20B
100
AcDbEntity
  8
K-1
  6
ByBlock
 62
     0
100
AcDbLine
 10
-15.99465582039442
 20
-125.4101906687699
 30
0.0
 11
-14.99465582042512
 21
-52.00000000000091
 31
0.0
  0
ARC
  5
22A
330
20B
100
AcDbEntity
  8
K-1
  6
ByBlock
 62
     0
100
AcDbCircle
 10
-2.994655820396019
 20
-56.99955371439319
 30
0.0
 40
10.0
100
AcDbArc
 50
180.0
 51
269.9914787089145
  0
LINE
  5
22B
330
20B
100
AcDbEntity
  8
K-1
  6
ByBlock
 62
     0
100
AcDbLine
 10
-2.996143066253807
 20
-66.99955360379817
 30
0.0
 11
3.003856933747101
 21
-67.00044595132249
 31
0.0
  0
ARC
  5
22C
330
20B
100
AcDbEntity
  8
K-1
  6
ByBlock
 62
     0
100
AcDbCircle
 10
3.00534417960489
 20
-57.0004460619175
 30
0.0
 40
10.0
100
AcDbArc
 50
269.9914787089145
 51
0.0
  0
LINE
  5
22D
330
20B
100
AcDbEntity
  8
K-1
  6
ByBlock
 62
     0
100
AcDbLine
 10
-10.99465582039784
 20
-39.79999999875145
 30
0.0
 11
11.0053441796058
 21
-39.79999999875054
 31
0.0
1001
GENIUS_GENREC_14
1002
{
1000
PYDIR
1011
-7.994655820395109
1021
-64.19999999875017
1031
0.0
1002
}
1002
{
1000
PXDIR
1011
8.005344179604886
1021
-39.79999999875008
1031
0.0
1002
}
1002
{
1000
PORI
1011
-7.994655820395109
1021
-39.79999999875008
1031
0.0
1002
}
1002
{
1000
PINS
1011
-7.994655820395109
1021
-39.79999999875008
1031
0.0
1002
}
1002
{
1000
PINS2
1011
8.00534417960489
1021
-64.19999999875017
1031
0.0
1002
}
1002
{
1000
C
1070
     1
1002
}
1001
GENIUS_GENODEF_13
1002
{
1000
HIER
1070
     0
1002
}
1002
{
1000
MANEDIT
1070
     0
1002
}
1002
{
1000
NOSEL
1070
     0
1002
}
1002
{
1000
BEHIND
1070
     0
1002
}
1002
{
1000
OTHER
1070
     0
1002
}
1002
{
1000
REACTOR
1002
}
1001
GENIUS_GENOBJ-N-REC_13
1002
{
1000
OWNER
1000
GEN
1002
}
  0
LINE
  5
231
330
20B
100
AcDbEntity
  8
K-1
  6
ByBlock
 62
     0
100
AcDbLine
 10
8.005344179605796
 20
-39.79999999875008
 30
0.0
 11
8.00534417960489
 21
-59.19999999875017
 31
0.0
1001
GENIUS_GENREC_14
1002
{
1000
PYDIR
1011
-7.994655820395109
1021
-64.19999999875017
1031
0.0
1002
}
1002
{
1000
PXDIR
1011
8.005344179604886
1021
-39.79999999875008
1031
0.0
1002
}
1002
{
1000
PORI
1011
-7.994655820395109
1021
-39.79999999875008
1031
0.0
1002
}
1002
{
1000
PINS
1011
-7.994655820395109
1021
-39.79999999875008
1031
0.0
1002
}
1002
{
1000
PINS2
1011
8.00534417960489
1021
-64.19999999875017
1031
0.0
1002
}
1002
{
1000
C
1070
     1
1002
}
1001
GENIUS_GENODEF_13
1002
{
1000
HIER
1070
     0
1002
}
1002
{
1000
MANEDIT
1070
     0
1002
}
1002
{
1000
NOSEL
1070
     0
1002
}
1002
{
1000
BEHIND
1070
     0
1002
}
1002
{
1000
OTHER
1070
     0
1002
}
1002
{
1000
REACTOR
1002
}
1001
GENIUS_GENOBJ-N-REC_13
1002
{
1000
OWNER
1000
GEN
1002
}
  0
ARC
  5
232
330
20B
100
AcDbEntity
  8
K-1
  6
ByBlock
 62
     0
100
AcDbCircle
 10
3.00534417960489
 20
-59.19999999875017
 30
0.0
 40
5.0
100
AcDbArc
 50
270.0
 51
0.0
1001
GENIUS_GENREC_14
1002
{
1000
PYDIR
1011
-7.994655820395109
1021
-64.19999999875017
1031
0.0
1002
}
1002
{
1000
PXDIR
1011
8.005344179604886
1021
-39.79999999875008
1031
0.0
1002
}
1002
{
1000
PORI
1011
-7.994655820395109
1021
-39.79999999875008
1031
0.0
1002
}
1002
{
1000
PINS
1011
-7.994655820395109
1021
-39.79999999875008
1031
0.0
1002
}
1002
{
1000
PINS2
1011
8.00534417960489
1021
-64.19999999875017
1031
0.0
1002
}
1002
{
1000
C
1070
     1
1002
}
1001
GENIUS_GENODEF_13
1002
{
1000
HIER
1070
     0
1002
}
1002
{
1000
MANEDIT
1070
     0
1002
}
1002
{
1000
NOSEL
1070
     0
1002
}
1002
{
1000
BEHIND
1070
     0
1002
}
1002
{
1000
OTHER
1070
     0
1002
}
1002
{
1000
REACTOR
1002
}
1001
GENIUS_GENOBJ-N-REC_13
1002
{
1000
OWNER
1000
GEN
1002
}
  0
LINE
  5
233
330
20B
100
AcDbEntity
  8
K-1
  6
ByBlock
 62
     0
100
AcDbLine
 10
3.00534417960489
 20
-64.19999999875017
 30
0.0
 11
-2.994655820395109
 21
-64.19999999875017
 31
0.0
1001
GENIUS_GENREC_14
1002
{
1000
PYDIR
1011
-7.994655820395109
1021
-64.19999999875017
1031
0.0
1002
}
1002
{
1000
PXDIR
1011
8.005344179604886
1021
-39.79999999875008
1031
0.0
1002
}
1002
{
1000
PORI
1011
-7.994655820395109
1021
-39.79999999875008
1031
0.0
1002
}
1002
{
1000
PINS
1011
-7.994655820395109
1021
-39.79999999875008
1031
0.0
1002
}
1002
{
1000
PINS2
1011
8.00534417960489
1021
-64.19999999875017
1031
0.0
1002
}
1002
{
1000
C
1070
     1
1002
}
1001
GENIUS_GENODEF_13
1002
{
1000
HIER
1070
     0
1002
}
1002
{
1000
MANEDIT
1070
     0
1002
}
1002
{
1000
NOSEL
1070
     0
1002
}
1002
{
1000
BEHIND
1070
     0
1002
}
1002
{
1000
OTHER
1070
     0
1002
}
1002
{
1000
REACTOR
1002
}
1001
GENIUS_GENOBJ-N-REC_13
1002
{
1000
OWNER
1000
GEN
1002
}
  0
ARC
  5
234
330
20B
100
AcDbEntity
  8
K-1
  6
ByBlock
 62
     0
100
AcDbCircle
 10
-2.994655820395109
 20
-59.19999999875017
 30
0.0
 40
5.0
100
AcDbArc
 50
179.9999999999739
 51
270.0
1001
GENIUS_GENREC_14
1002
{
1000
PYDIR
1011
-7.994655820395109
1021
-64.19999999875017
1031
0.0
1002
}
1002
{
1000
PXDIR
1011
8.005344179604886
1021
-39.79999999875008
1031
0.0
1002
}
1002
{
1000
PORI
1011
-7.994655820395109
1021
-39.79999999875008
1031
0.0
1002
}
1002
{
1000
PINS
1011
-7.994655820395109
1021
-39.79999999875008
1031
0.0
1002
}
1002
{
1000
PINS2
1011
8.00534417960489
1021
-64.19999999875017
1031
0.0
1002
}
1002
{
1000
C
1070
     1
1002
}
1001
GENIUS_GENODEF_13
1002
{
1000
HIER
1070
     0
1002
}
1002
{
1000
MANEDIT
1070
     0
1002
}
1002
{
1000
NOSEL
1070
     0
1002
}
1002
{
1000
BEHIND
1070
     0
1002
}
1002
{
1000
OTHER
1070
     0
1002
}
1002
{
1000
REACTOR
1002
}
1001
GENIUS_GENOBJ-N-REC_13
1002
{
1000
OWNER
1000
GEN
1002
}
  0
LINE
  5
235
330
20B
100
AcDbEntity
  8
K-1
  6
ByBlock
 62
     0
100
AcDbLine
 10
-7.994655820395109
 20
-59.19999999874971
 30
0.0
 11
-7.9946558203942
 21
-39.79999999875008
 31
0.0
1001
GENIUS_GENREC_14
1002
{
1000
PYDIR
1011
-7.994655820395109
1021
-64.19999999875017
1031
0.0
1002
}
1002
{
1000
PXDIR
1011
8.005344179604886
1021
-39.79999999875008
1031
0.0
1002
}
1002
{
1000
PORI
1011
-7.994655820395109
1021
-39.79999999875008
1031
0.0
1002
}
1002
{
1000
PINS
1011
-7.994655820395109
1021
-39.79999999875008
1031
0.0
1002
}
1002
{
1000
PINS2
1011
8.00534417960489
1021
-64.19999999875017
1031
0.0
1002
}
1002
{
1000
C
1070
     1
1002
}
1001
GENIUS_GENODEF_13
1002
{
1000
HIER
1070
     0
1002
}
1002
{
1000
MANEDIT
1070
     0
1002
}
1002
{
1000
NOSEL
1070
     0
1002
}
1002
{
1000
BEHIND
1070
     0
1002
}
1002
{
1000
OTHER
1070
     0
1002
}
1002
{
1000
REACTOR
1002
}
1001
GENIUS_GENOBJ-N-REC_13
1002
{
1000
OWNER
1000
GEN
1002
}
  0
ARC
  5
236
330
20B
100
AcDbEntity
  8
K-1
  6
ByBlock
 62
     6
100
AcDbCircle
 10
-2.994655820396019
 20
-59.63650875450321
 30
0.0
 40
10.0
100
AcDbArc
 50
180.0
 51
269.9914787089145
  0
LINE
  5
237
330
20B
100
AcDbEntity
  8
K-1
  6
ByBlock
 62
     6
100
AcDbLine
 10
-2.996143066253807
 20
-69.6365086439082
 30
0.0
 11
3.003856933747101
 21
-69.63740099143251
 31
0.0
  0
ARC
  5
238
330
20B
100
AcDbEntity
  8
K-1
  6
ByBlock
 62
     6
100
AcDbCircle
 10
3.00534417960489
 20
-59.63740110202753
 30
0.0
 40
10.0
100
AcDbArc
 50
269.9914787089145
 51
0.0
  0
CIRCLE
  5
239
330
20B
100
AcDbEntity
  8
K-1
  6
HIDDEN
 62
     3
100
AcDbCircle
 10
0.0053441796048865
 20
-51.99999999874989
 30
0.0
 40
3.0
  0
LINE
  5
23A
330
20B
100
AcDbEntity
  8
K-1
  6
HIDDEN
 62
     3
100
AcDbLine
 10
8.005344179605796
 20
-39.79999999875008
 30
0.0
 11
8.005344179604886
 21
-38.4999999987499
 31
0.0
  0
LINE
  5
23B
330
20B
100
AcDbEntity
  8
K-1
  6
HIDDEN
 62
     3
100
AcDbLine
 10
-7.9946558203942
 20
-39.79999999875008
 30
0.0
 11
-7.994655820392388
 21
-38.4999999987499
 31
0.0
  0
LINE
  5
23C
330
20B
100
AcDbEntity
  8
K-1
  6
HIDDEN
 62
     3
100
AcDbLine
 10
-7.994655820392388
 20
-38.4999999987499
 30
0.0
 11
8.005344179604886
 21
-38.4999999987499
 31
0.0
  0
LINE
  5
23D
330
20B
100
AcDbEntity
  8
K-1
  6
HIDDEN
 62
     3
100
AcDbLine
 10
-4.494655820396019
 20
-63.96969600583452
 30
0.0
 11
-4.494655820395109
 21
-65.49999999874649
 31
0.0
  0
LINE
  5
23E
330
20B
100
AcDbEntity
  8
K-1
  6
HIDDEN
 62
     3
100
AcDbLine
 10
-4.494655820395109
 20
-65.49999999874649
 30
0.0
 11
4.505344179603071
 21
-65.49999999874649
 31
0.0
  0
LINE
  5
23F
330
20B
100
AcDbEntity
  8
K-1
  6
HIDDEN
 62
     3
100
AcDbLine
 10
4.505344179603071
 20
-65.49999999874649
 30
0.0
 11
4.505344179607618
 21
-63.96969600583384
 31
0.0
  0
LINE
  5
240
330
20B
100
AcDbEntity
  8
K-1
  6
CENTERS
 62
     2
100
AcDbLine
 10
-6.994655820395109
 20
-51.99999999874944
 30
0.0
 11
7.005344179604886
 21
-51.99999999874944
 31
0.0
  0
LINE
  5
242
330
20B
100
AcDbEntity
  8
K-1
  6
ByBlock
 62
     0
100
AcDbLine
 10
11.0053441796058
 20
-28.00000000001001
 30
0.0
 11
11.0053441796058
 21
-39.79999999875008
 31
0.0
  0
LINE
  5
243
330
20B
100
AcDbEntity
  8
K-1
  6
ByBlock
 62
     0
100
AcDbLine
 10
11.0053441796058
 20
-28.00000000001001
 30
0.0
 11
15.53342905491535
 21
-28.00000000001001
 31
0.0
  0
LINE
  5
244
330
20B
100
AcDbEntity
  8
K-1
  6
ByBlock
 62
     0
100
AcDbLine
 10
-10.99465582039784
 20
-28.00534417960444
 30
0.0
 11
-10.99465582039784
 21
-39.79999999875145
 31
0.0
  0
LINE
  5
245
330
20B
100
AcDbEntity
  8
K-1
  6
ByBlock
 62
     0
370
    25
100
AcDbLine
 10
3.005344179603753
 20
-156.4627424169703
 30
0.0
 11
10.45826793008586
 21
-156.4627424169705
 31
0.0
  0
ARC
  5
246
330
20B
100
AcDbEntity
  8
K-1
  6
ByBlock
 62
     0
370
    25
100
AcDbCircle
 10
10.45826793008586
 20
-154.4627424169705
 30
0.0
 40
2.0
100
AcDbArc
 50
270.0
 51
285.8749148743977
  0
LINE
  5
247
330
20B
100
AcDbEntity
  8
K-1
  6
ByBlock
 62
     0
370
    25
100
AcDbLine
 10
-2.994655820396246
 20
-156.4627424169703
 30
0.0
 11
-2.99465582039625
 21
-138.6624242824523
 31
0.0
  0
LINE
  5
248
330
20B
100
AcDbEntity
  8
K-1
  6
ByBlock
 62
     0
370
    25
100
AcDbLine
 10
-2.99465582039625
 20
-138.6624242824523
 30
0.0
 11
3.005344179603749
 21
-138.6624242824523
 31
0.0
  0
LINE
  5
249
330
20B
100
AcDbEntity
  8
K-1
  6
ByBlock
 62
     0
370
    25
100
AcDbLine
 10
3.005344179603749
 20
-138.6624242824523
 30
0.0
 11
3.005344179603753
 21
-156.4627424169703
 31
0.0
  0
LINE
  5
24A
330
20B
100
AcDbEntity
  8
K-1
  6
ByBlock
 62
     0
370
    25
100
AcDbLine
 10
3.005344179603753
 20
-155.8299369893334
 30
0.0
 11
-2.994655820396246
 21
-155.8299369893334
 31
0.0
  0
LINE
  5
24B
330
20B
100
AcDbEntity
  8
K-1
  6
ByBlock
 62
     0
370
    25
100
AcDbLine
 10
12.12801682668055
 20
-155.7988828405146
 30
0.0
 11
19.02332796990072
 21
-151.721542622967
 31
0.0
  0
LINE
  5
24C
330
20B
100
AcDbEntity
  8
K-1
  6
ByBlock
 62
     0
370
    25
100
AcDbLine
 10
11.00534417960375
 20
-156.3864647402836
 30
0.0
 11
11.00534417960375
 21
-138.6232508771682
 31
0.0
  0
LINE
  5
24D
330
20B
100
AcDbEntity
  8
K-1
  6
ByBlock
 62
     0
370
    25
100
AcDbLine
 10
11.00534417960375
 20
-138.6232508771682
 30
0.0
 11
14.39406199632799
 21
-138.6232508771682
 31
0.0
  0
ARC
  5
24E
330
20B
100
AcDbEntity
  8
K-1
  6
ByBlock
 62
     0
370
    25
100
AcDbCircle
 10
14.39406199632799
 20
-140.6232508771681
 30
0.0
 40
2.0
100
AcDbArc
 50
0.0
 51
90.0
  0
LINE
  5
24F
330
20B
100
AcDbEntity
  8
K-1
  6
ByBlock
 62
     0
370
    25
100
AcDbLine
 10
16.39406199632799
 20
-140.6232508771681
 30
0.0
 11
16.39406199632799
 21
-151.5649978566384
 31
0.0
  0
LINE
  5
250
330
20B
100
AcDbEntity
  8
K-1
  6
ByBlock
 62
     0
370
    25
100
AcDbLine
 10
12.12801682668055
 20
-155.7988828405146
 30
0.0
 11
11.00534417960375
 21
-155.7988828405148
 31
0.0
  0
ARC
  5
251
330
20B
100
AcDbEntity
  8
K-1
  6
ByBlock
 62
     0
370
    25
100
AcDbCircle
 10
13.39406199632799
 20
-151.5649978566384
 30
0.0
 40
3.0
100
AcDbArc
 50
300.5967036891901
 51
0.0
  0
ARC
  5
252
330
20B
100
AcDbEntity
  8
K-1
  6
ByBlock
 62
     0
100
AcDbCircle
 10
-17.99612486032197
 20
-149.9987032613367
 30
0.0
 40
1.999999999999999
100
AcDbArc
 50
179.9958725210634
 51
239.3991688318736
  0
LINE
  5
253
330
20B
100
AcDbEntity
  8
K-1
  6
ByBlock
 62
     0
370
    25
100
AcDbLine
 10
-2.996590462907761
 20
-156.4625262329948
 30
0.0
 11
-10.44951419405129
 21
-156.4619893385502
 31
0.0
  0
ARC
  5
254
330
20B
100
AcDbEntity
  8
K-1
  6
ByBlock
 62
     0
370
    25
100
AcDbCircle
 10
-10.44937011785692
 20
-154.4619893437397
 30
0.0
 40
1.999999999999999
100
AcDbArc
 50
254.1209576465999
 51
269.9958725210374
  0
LINE
  5
255
330
20B
100
AcDbEntity
  8
K-1
  6
ByBlock
 62
     0
370
    25
100
AcDbLine
 10
-12.11921526313358
 20
-155.7980094782838
 30
0.0
 11
-19.01423266463166
 21
-151.7201725462223
 31
0.0
  0
LINE
  5
256
330
20B
100
AcDbEntity
  8
K-1
  6
ByBlock
 62
     0
370
    25
100
AcDbLine
 10
-10.99658494725076
 20
-156.3856722517293
 30
0.0
 11
-10.99530531912546
 21
-138.6224584347046
 31
0.0
  0
LINE
  5
257
330
20B
100
AcDbEntity
  8
K-1
  6
ByBlock
 62
     0
370
    25
100
AcDbLine
 10
-10.99530531912546
 20
-138.6224584347046
 30
0.0
 11
-14.38402312705761
 21
-138.6222143179216
 31
0.0
  0
ARC
  5
258
330
20B
100
AcDbEntity
  8
K-1
  6
ByBlock
 62
     0
370
    25
100
AcDbCircle
 10
-14.38416720325199
 20
-140.6222143127322
 30
0.0
 40
1.999999999999999
100
AcDbArc
 50
89.99587252103742
 51
179.9958725210634
  0
LINE
  5
259
330
20B
100
AcDbEntity
  8
K-1
  6
ByBlock
 62
     0
370
    25
100
AcDbLine
 10
-16.38416719806241
 20
-140.6220702365381
 30
0.0
 11
-16.38495542069336
 21
-151.5638171876171
 31
0.0
  0
LINE
  5
25A
330
20B
100
AcDbEntity
  8
K-1
  6
ByBlock
 62
     0
370
    25
100
AcDbLine
 10
-12.11921526313358
 20
-155.7980094782838
 30
0.0
 11
-10.99654261896898
 21
-155.7980903534849
 31
0.0
  0
ARC
  5
25B
330
20B
100
AcDbEntity
  8
K-1
  6
ByBlock
 62
     0
370
    25
100
AcDbCircle
 10
-13.38495542847772
 20
-151.5640333019087
 30
0.0
 40
2.999999999999999
100
AcDbArc
 50
179.9958725210634
 51
239.3991688318736
  0
ELLIPSE
  5
25C
330
20B
100
AcDbEntity
  8
K-1
  6
ByBlock
 62
     6
370
    25
100
AcDbEllipse
 10
0.0083460557784747
 20
-125.4101906687706
 30
0.0
 11
-15.99699812382823
 21
0.0
 31
0.0
210
0.0
220
0.0
230
1.0
 40
0.2062459062715432
 41
0.0
 42
3.141592653589793
  0
LINE
  5
25D
330
20B
100
AcDbEntity
  8
K-1
  6
ByBlock
 62
     6
370
    25
100
AcDbLine
 10
-14.38402312705671
 20
-138.6222143179216
 30
0.0
 11
-19.99465582039443
 21
-134.0000000000009
 31
0.0
  0
LINE
  5
25E
330
20B
100
AcDbEntity
  8
K-1
  6
ByBlock
 62
     6
370
    25
100
AcDbLine
 10
14.39406199632799
 20
-138.6232508771682
 30
0.0
 11
20.00534417960557
 21
-133.9999999999982
 31
0.0
  0
ELLIPSE
  5
25F
330
20B
100
AcDbEntity
  8
K-1
  6
ByBlock
 62
     0
100
AcDbEllipse
 10
-19.8424474602582
 20
-0.0000000000009095
 30
0.0
 11
-0.0000000000000006
 21
-2.050000000000181
 31
0.0
210
0.0
220
0.0
230
1.0
 40
0.3639702342664626
 41
0.0
 42
6.283185307179586
  0
ELLIPSE
  5
260
330
20B
100
AcDbEntity
  8
K-1
  6
ByBlock
 62
     0
100
AcDbEllipse
 10
0.0053441796069329
 20
-19.84779163986331
 30
0.0
 11
2.050000000000181
 21
-0.0000000000000012
 31
0.0
210
0.0
220
0.0
230
1.0
 40
0.3639702342664626
 41
0.0
 42
6.283185307179586
  0
ELLIPSE
  5
261
330
20B
100
AcDbEntity
  8
K-1
  6
ByBlock
 62
     0
100
AcDbEllipse
 10
19.85313581946934
 20
0.0000000000009095
 30
0.0
 11
0.0000000000000022
 21
2.050000000000181
 31
0.0
210
0.0
220
0.0
230
1.0
 40
0.3639702342664626
 41
0.0
 42
6.283185307179586
  0
ARC
  5
262
330
20B
100
AcDbEntity
  8
K-1
  6
ByBlock
 62
     0
370
    25
100
AcDbCircle
 10
0.0053441796048901
 20
0.0
 30
0.0
 40
24.0
100
AcDbArc
 50
203.5245204370792
 51
215.6853347126309
  0
ARC
  5
263
330
20B
100
AcDbEntity
  8
K-1
  6
ByBlock
 62
     0
370
    25
100
AcDbCircle
 10
0.0053441796048901
 20
0.0
 30
0.0
 40
24.0
100
AcDbArc
 50
324.3146652873691
 51
336.4116326157128
  0
LINE
  5
264
330
20B
100
AcDbEntity
  8
K-1
  6
ByBlock
 62
     0
370
    25
100
AcDbLine
 10
-23.98931164079022
 20
-27.00534417960398
 30
0.0
 11
-21.67991056403116
 21
-31.00534417960398
 31
0.0
  0
LINE
  5
265
330
20B
100
AcDbEntity
  8
K-1
  6
ByBlock
 62
     0
100
AcDbLine
 10
19.01068835920978
 20
-25.87938812514813
 30
0.0
 11
19.01068835920978
 21
-27.00534417960444
 31
0.0
  0
LINE
  5
266
330
20B
100
AcDbEntity
  8
K-1
  6
ByBlock
 62
     0
370
    25
100
AcDbLine
 10
-19.49164971936761
 20
-25.00534417960398
 30
0.0
 11
-23.48931164079022
 21
-25.00534417960398
 31
0.0
  0
LINE
  5
267
330
20B
100
AcDbEntity
  8
K-1
  6
ByBlock
 62
     0
370
    25
100
AcDbLine
 10
16.41261214785663
 20
-31.00534417960444
 30
0.0
 11
16.12733807857876
 21
-31.00534417960444
 31
0.0
  0
LINE
  5
268
330
20B
100
AcDbEntity
  8
K-1
  6
ByBlock
 62
     0
370
    25
100
AcDbLine
 10
-16.11664971936852
 20
-31.00534417960398
 30
0.0
 11
-21.67991056403116
 21
-31.00534417960398
 31
0.0
  0
LINE
  5
269
330
20B
100
AcDbEntity
  8
K-1
  6
ByBlock
 62
     0
100
AcDbLine
 10
-23.98931164079022
 20
-25.50534417960398
 30
0.0
 11
-23.98931164079022
 21
-27.00534417960398
 31
0.0
  0
ARC
  5
26A
330
20B
100
AcDbEntity
  8
K-1
  6
ByBlock
 62
     0
100
AcDbCircle
 10
-23.48931164079022
 20
-25.50534417960398
 30
0.0
 40
0.5
100
AcDbArc
 50
90.0
 51
180.0
  0
ARC
  5
26B
330
20B
100
AcDbEntity
  8
K-1
  6
ByBlock
 62
     0
370
    25
100
AcDbCircle
 10
-21.39123542943707
 20
-30.50534417960489
 30
0.0
 40
0.5
100
AcDbArc
 50
209.9999999999398
 51
270.0
  0
LINE
  5
26C
330
20B
100
AcDbEntity
  8
K-1
  6
ByBlock
 62
     0
370
    25
100
AcDbLine
 10
19.01068835920978
 20
-27.00534417960444
 30
0.0
 11
16.84562484974867
 21
-30.75534417960444
 31
0.0
  0
ARC
  5
26D
330
20B
100
AcDbEntity
  8
K-1
  6
ByBlock
 62
     0
370
    25
100
AcDbCircle
 10
16.41261214785754
 20
-30.5053441796058
 30
0.0
 40
0.5
100
AcDbArc
 50
269.9999999998958
 51
330.0000000000903
  0
LWPOLYLINE
  5
26E
330
20B
100
AcDbEntity
  8
K-1
  6
PHANTOM
 62
     5
370
    25
100
AcDbPolyline
 90
        6
 70
     0
 43
0.0
 10
21.04658817349719
 20
-31.00534417960444
 42
0.2493177950539188
 10
21.46109621134565
 20
-30.78495656588075
 10
24.01068835920978
 20
-27.00534417960444
 10
24.01068835920978
 20
-25.50534417960444
 42
0.4142135623730951
 10
23.51068835920978
 20
-25.00534417960444
 10
19.50233807857808
 20
-25.00534417960444
  0
LINE
  5
26F
330
20B
100
AcDbEntity
  8
K-1
  6
PHANTOM
 62
     5
370
    25
100
AcDbLine
 10
21.04932089121303
 20
-31.00534417960444
 30
0.0
 11
16.12733807857876
 21
-31.00534417960444
 31
0.0
  0
LINE
  5
270
330
20B
100
AcDbEntity
  8
K-1
  6
ByBlock
 62
     0
100
AcDbLine
 10
-11.0053441796058
 20
-28.00000000001001
 30
0.0
 11
-15.53342905491536
 21
-28.00000000001001
 31
0.0
  0
ARC
  5
271
330
20B
100
AcDbEntity
  8
K-1
  6
CENTER
 62
     2
370
    25
100
AcDbCircle
 10
0.0
 20
0.0
 30
0.0
 40
10.00000142801268
100
AcDbArc
 50
160.6969085725699
 51
19.30309142743007
  0
ARC
  5
272
330
20B
100
AcDbEntity
  8
K-1
  6
ByBlock
 62
     0
100
AcDbCircle
 10
0.0
 20
0.0
 30
0.0
 40
16.25
100
AcDbArc
 50
168.2626938794097
 51
11.73730612059029
  0
ARC
  5
273
330
20B
100
AcDbEntity
  8
K-1
  6
ByBlock
 62
     0
370
    25
100
AcDbCircle
 10
0.0
 20
0.0
 30
0.0
 40
21.90000065206037
100
AcDbArc
 50
171.3184164270343
 51
8.681583572965672
  0
ARC
  5
274
330
20B
100
AcDbEntity
  8
K-1
  6
ByBlock
 62
     0
370
    25
100
AcDbCircle
 10
0.0053441796048901
 20
0.0
 30
0.0
 40
14.79999999999984
100
AcDbArc
 50
167.0938363952744
 51
12.90616360472556
  0
ARC
  5
275
330
20B
100
AcDbEntity
  8
K-1
  6
ByBlock
 62
     0
370
    25
100
AcDbCircle
 10
0.0
 20
0.0
 30
0.0
 40
12.30000116098567
100
AcDbArc
 50
164.4099649548888
 51
15.59003504511122
  0
ARC
  5
276
330
20B
100
AcDbEntity
  8
K-1
  6
ByBlock
 62
     0
370
    25
100
AcDbCircle
 10
0.0
 20
0.0
 30
0.0
 40
17.30000082544108
100
AcDbArc
 50
168.9842845423578
 51
11.01571545764218
  0
ARC
  5
277
330
20B
100
AcDbEntity
  8
K-1
  6
ByBlock
 62
     0
100
AcDbCircle
 10
0.0053441796048901
 20
0.0
 30
0.0
 40
6.0
100
AcDbArc
 50
146.5683192423908
 51
33.43168075760917
  0
ARC
  5
278
330
20B
100
AcDbEntity
  8
K-1
  6
ByBlock
 62
     6
100
AcDbCircle
 10
0.0053441796048901
 20
0.0
 30
0.0
 40
4.5
100
AcDbArc
 50
132.7274427633849
 51
47.27255723661502
  0
ARC
  5
279
330
20B
100
AcDbEntity
  8
K-1
  6
ByBlock
 62
     0
100
AcDbCircle
 10
0.0053441796048901
 20
0.0
 30
0.0
 40
5.75
100
AcDbArc
 50
144.907630839804
 51
35.09236916019603
  0
ARC
  5
27A
330
20B
100
AcDbEntity
  8
K-1
  6
ByBlock
 62
     0
100
AcDbCircle
 10
0.0
 20
0.0
 30
0.0
 40
6.5
100
AcDbArc
 50
149.4319009015593
 51
30.56809909844069
  0
ENDBLK
  5
27B
330
20B
100
AcDbEntity
  8
0
 62
     3
370
    25
100
AcDbBlockEnd
  0
BLOCK
  5
2B7
330
2B4
100
AcDbEntity
  8
0
100
AcDbBlockBegin
  2
スペーサ
 70
     0
 10
0.0
 20
0.0
 30
0.0
  3
スペーサ
  1

  0
LINE
  5
2B8
330
2B4
100
AcDbEntity
  8
K-1
  6
ByBlock
 62
     0
100
AcDbLine
 10
3.499999999776264
 20
-0.0000000000000036
 30
0.0
 11
4.69999999977972
 21
-0.0000000000000036
 31
0.0
1001
GENIUS_GENREC_14
1002
{
1000
PYDIR
1011
2.099999999778447
1021
-6.000000000000003
1031
0.0
1002
}
1002
{
1000
PXDIR
1011
4.999999999778083
1021
-0.0000000000000036
1031
0.0
1002
}
1002
{
1000
PORI
1011
2.099999999778447
1021
-0.0000000000000036
1031
0.0
1002
}
1002
{
1000
PINS
1011
2.099999999778447
1021
-0.0000000000000036
1031
0.0
1002
}
1002
{
1000
PINS2
1011
4.999999999778083
1021
-6.000000000000003
1031
0.0
1002
}
1002
{
1000
C
1070
     1
1002
}
1001
GENIUS_GENOBJ-N-REC_13
1002
{
1000
OWNER
1000
GEN
1002
}
1001
GENIUS_GENODEF_13
1002
{
1000
HIER
1070
     0
1002
}
1002
{
1000
MANEDIT
1070
     0
1002
}
1002
{
1000
NOSEL
1070
     0
1002
}
1002
{
1000
BEHIND
1070
     0
1002
}
1002
{
1000
OTHER
1070
     0
1002
}
1002
{
1000
REACTOR
1002
}
  0
LINE
  5
2B9
330
2B4
100
AcDbEntity
  8
K-1
  6
ByBlock
 62
     0
100
AcDbLine
 10
2.099999999778447
 20
0.9999999999999964
 30
0.0
 11
3.499999999776264
 21
0.9999999999999964
 31
0.0
1001
GENIUS_GENREC_14
1002
{
1000
PYDIR
1011
2.099999999778447
1021
-7.000000000000003
1031
0.0
1002
}
1002
{
1000
PXDIR
1011
5.999999999778083
1021
-1.000000000000003
1031
0.0
1002
}
1002
{
1000
PORI
1011
2.099999999778447
1021
-1.000000000000003
1031
0.0
1002
}
1002
{
1000
PINS
1011
2.099999999778447
1021
-1.000000000000003
1031
0.0
1002
}
1002
{
1000
PINS2
1011
5.999999999778083
1021
-7.000000000000003
1031
0.0
1002
}
1002
{
1000
C
1070
     1
1002
}
1001
GENIUS_GENOBJ-N-REC_13
1002
{
1000
OWNER
1000
GEN
1002
}
1001
GENIUS_GENODEF_13
1002
{
1000
HIER
1070
     0
1002
}
1002
{
1000
MANEDIT
1070
     0
1002
}
1002
{
1000
NOSEL
1070
     0
1002
}
1002
{
1000
BEHIND
1070
     0
1002
}
1002
{
1000
OTHER
1070
     0
1002
}
1002
{
1000
REACTOR
1002
}
  0
LINE
  5
2BA
330
2B4
100
AcDbEntity
  8
K-1
  6
ByBlock
 62
     0
100
AcDbLine
 10
4.999999999779902
 20
-0.2999999999999581
 30
0.0
 11
4.999999999779902
 21
-5.700000000000162
 31
0.0
1001
GENIUS_GENREC_14
1002
{
1000
PYDIR
1011
2.099999999778447
1021
-6.000000000000003
1031
0.0
1002
}
1002
{
1000
PXDIR
1011
4.999999999778083
1021
-0.0000000000000036
1031
0.0
1002
}
1002
{
1000
PORI
1011
2.099999999778447
1021
-0.0000000000000036
1031
0.0
1002
}
1002
{
1000
PINS
1011
2.099999999778447
1021
-0.0000000000000036
1031
0.0
1002
}
1002
{
1000
PINS2
1011
4.999999999778083
1021
-6.000000000000003
1031
0.0
1002
}
1002
{
1000
C
1070
     1
1002
}
1001
GENIUS_GENOBJ-N-REC_13
1002
{
1000
OWNER
1000
GEN
1002
}
1001
GENIUS_GENODEF_13
1002
{
1000
HIER
1070
     0
1002
}
1002
{
1000
MANEDIT
1070
     0
1002
}
1002
{
1000
NOSEL
1070
     0
1002
}
1002
{
1000
BEHIND
1070
     0
1002
}
1002
{
1000
OTHER
1070
     0
1002
}
1002
{
1000
REACTOR
1002
}
  0
LINE
  5
2BB
330
2B4
100
AcDbEntity
  8
K-1
  6
ByBlock
 62
     0
100
AcDbLine
 10
4.69999999977972
 20
-6.000000000000117
 30
0.0
 11
3.499999999776264
 21
-6.000000000000003
 31
0.0
1001
GENIUS_GENREC_14
1002
{
1000
PYDIR
1011
2.099999999778447
1021
-6.000000000000003
1031
0.0
1002
}
1002
{
1000
PXDIR
1011
4.999999999778083
1021
-0.0000000000000036
1031
0.0
1002
}
1002
{
1000
PORI
1011
2.099999999778447
1021
-0.0000000000000036
1031
0.0
1002
}
1002
{
1000
PINS
1011
2.099999999778447
1021
-0.0000000000000036
1031
0.0
1002
}
1002
{
1000
PINS2
1011
4.999999999778083
1021
-6.000000000000003
1031
0.0
1002
}
1002
{
1000
C
1070
     1
1002
}
1001
GENIUS_GENOBJ-N-REC_13
1002
{
1000
OWNER
1000
GEN
1002
}
1001
GENIUS_GENODEF_13
1002
{
1000
HIER
1070
     0
1002
}
1002
{
1000
MANEDIT
1070
     0
1002
}
1002
{
1000
NOSEL
1070
     0
1002
}
1002
{
1000
BEHIND
1070
     0
1002
}
1002
{
1000
OTHER
1070
     0
1002
}
1002
{
1000
REACTOR
1002
}
  0
LINE
  5
2BC
330
2B4
100
AcDbEntity
  8
K-1
  6
ByBlock
 62
     0
100
AcDbLine
 10
2.099999999779356
 20
-7.000000000000003
 30
0.0
 11
2.099999999778447
 21
0.9999999999999964
 31
0.0
1001
GENIUS_GENREC_14
1002
{
1000
PYDIR
1011
2.099999999778447
1021
-6.000000000000003
1031
0.0
1002
}
1002
{
1000
PXDIR
1011
5.999999999778083
1021
-0.0000000000000036
1031
0.0
1002
}
1002
{
1000
PORI
1011
2.099999999778447
1021
-0.0000000000000036
1031
0.0
1002
}
1002
{
1000
PINS
1011
2.099999999778447
1021
-0.0000000000000036
1031
0.0
1002
}
1002
{
1000
PINS2
1011
5.999999999778083
1021
-6.000000000000003
1031
0.0
1002
}
1002
{
1000
C
1070
     1
1002
}
1001
GENIUS_GENOBJ-N-REC_13
1002
{
1000
OWNER
1000
GEN
1002
}
1001
GENIUS_GENODEF_13
1002
{
1000
HIER
1070
     0
1002
}
1002
{
1000
MANEDIT
1070
     0
1002
}
1002
{
1000
NOSEL
1070
     0
1002
}
1002
{
1000
BEHIND
1070
     0
1002
}
1002
{
1000
OTHER
1070
     0
1002
}
1002
{
1000
REACTOR
1002
}
  0
LINE
  5
2BD
330
2B4
100
AcDbEntity
  8
K-1
  6
ByBlock
 62
     0
100
AcDbLine
 10
3.499999999776264
 20
-0.0000000000000036
 30
0.0
 11
3.499999999776264
 21
0.9999999999999964
 31
0.0
  0
LINE
  5
2BE
330
2B4
100
AcDbEntity
  8
K-1
  6
ByBlock
 62
     0
100
AcDbLine
 10
2.099999999779356
 20
-7.000000000000003
 30
0.0
 11
3.499999999776264
 21
-7.000000000000003
 31
0.0
1001
GENIUS_GENREC_14
1002
{
1000
PYDIR
1011
2.099999999778447
1021
0.9999999999999964
1031
0.0
1002
}
1002
{
1000
PXDIR
1011
5.999999999778083
1021
-5.000000000000003
1031
0.0
1002
}
1002
{
1000
PORI
1011
2.099999999778447
1021
-5.000000000000003
1031
0.0
1002
}
1002
{
1000
PINS
1011
2.099999999778447
1021
-5.000000000000003
1031
0.0
1002
}
1002
{
1000
PINS2
1011
5.999999999778083
1021
0.9999999999999964
1031
0.0
1002
}
1002
{
1000
C
1070
     1
1002
}
1001
GENIUS_GENOBJ-N-REC_13
1002
{
1000
OWNER
1000
GEN
1002
}
1001
GENIUS_GENODEF_13
1002
{
1000
HIER
1070
     0
1002
}
1002
{
1000
MANEDIT
1070
     0
1002
}
1002
{
1000
NOSEL
1070
     0
1002
}
1002
{
1000
BEHIND
1070
     0
1002
}
1002
{
1000
OTHER
1070
     0
1002
}
1002
{
1000
REACTOR
1002
}
  0
LINE
  5
2BF
330
2B4
100
AcDbEntity
  8
K-1
  6
ByBlock
 62
     0
100
AcDbLine
 10
3.499999999776264
 20
-6.000000000000003
 30
0.0
 11
3.499999999776264
 21
-7.000000000000003
 31
0.0
  0
LINE
  5
2C0
330
2B4
100
AcDbEntity
  8
K-1
  6
ByBlock
 62
     0
100
AcDbLine
 10
-3.500000000370164
 20
-0.0000000004141611
 30
0.0
 11
-4.70000000037271
 21
-0.000000000674504
 31
0.0
1001
GENIUS_GENREC_14
1002
{
1000
PYDIR
1011
-2.099999999662031
1021
-6.000000000248519
1031
0.0
1002
}
1002
{
1000
PXDIR
1011
-5.000000000371983
1021
-0.0000000007099743
1031
0.0
1002
}
1002
{
1000
PORI
1011
-2.100000000372347
1021
-0.0000000002485194
1031
0.0
1002
}
1002
{
1000
PINS
1011
-2.100000000372347
1021
-0.0000000002485194
1031
0.0
1002
}
1002
{
1000
PINS2
1011
-4.999999999661667
1021
-6.000000000709974
1031
0.0
1002
}
1002
{
1000
C
1070
     1
1002
}
1001
GENIUS_GENOBJ-N-REC_13
1002
{
1000
OWNER
1000
GEN
1002
}
1001
GENIUS_GENODEF_13
1002
{
1000
HIER
1070
     0
1002
}
1002
{
1000
MANEDIT
1070
     0
1002
}
1002
{
1000
NOSEL
1070
     0
1002
}
1002
{
1000
BEHIND
1070
     0
1002
}
1002
{
1000
OTHER
1070
     0
1002
}
1002
{
1000
REACTOR
1002
}
  0
LINE
  5
2C1
330
2B4
100
AcDbEntity
  8
K-1
  6
ByBlock
 62
     0
100
AcDbLine
 10
-2.100000000490581
 20
0.9999999997514805
 30
0.0
 11
-3.500000000488398
 21
0.9999999995858388
 31
0.0
1001
GENIUS_GENREC_14
1002
{
1000
PYDIR
1011
-2.099999999543797
1021
-7.000000000248519
1031
0.0
1002
}
1002
{
1000
PXDIR
1011
-6.000000000252839
1021
-1.000000000709974
1031
0.0
1002
}
1002
{
1000
PORI
1011
-2.100000000253203
1021
-1.000000000248519
1031
0.0
1002
}
1002
{
1000
PINS
1011
-2.100000000253203
1021
-1.000000000248519
1031
0.0
1002
}
1002
{
1000
PINS2
1011
-5.999999999543433
1021
-7.000000000709974
1031
0.0
1002
}
1002
{
1000
C
1070
     1
1002
}
1001
GENIUS_GENOBJ-N-REC_13
1002
{
1000
OWNER
1000
GEN
1002
}
1001
GENIUS_GENODEF_13
1002
{
1000
HIER
1070
     0
1002
}
1002
{
1000
MANEDIT
1070
     0
1002
}
1002
{
1000
NOSEL
1070
     0
1002
}
1002
{
1000
BEHIND
1070
     0
1002
}
1002
{
1000
OTHER
1070
     0
1002
}
1002
{
1000
REACTOR
1002
}
  0
LINE
  5
2C2
330
2B4
100
AcDbEntity
  8
K-1
  6
ByBlock
 62
     0
100
AcDbLine
 10
-5.000000000337422
 20
-0.3000000007099288
 30
0.0
 11
-4.999999999698047
 21
-5.700000000710019
 31
0.0
1001
GENIUS_GENREC_14
1002
{
1000
PYDIR
1011
-2.099999999662031
1021
-6.000000000248519
1031
0.0
1002
}
1002
{
1000
PXDIR
1011
-5.000000000371983
1021
-0.0000000007099743
1031
0.0
1002
}
1002
{
1000
PORI
1011
-2.100000000372347
1021
-0.0000000002485194
1031
0.0
1002
}
1002
{
1000
PINS
1011
-2.100000000372347
1021
-0.0000000002485194
1031
0.0
1002
}
1002
{
1000
PINS2
1011
-4.999999999661667
1021
-6.000000000709974
1031
0.0
1002
}
1002
{
1000
C
1070
     1
1002
}
1001
GENIUS_GENOBJ-N-REC_13
1002
{
1000
OWNER
1000
GEN
1002
}
1001
GENIUS_GENODEF_13
1002
{
1000
HIER
1070
     0
1002
}
1002
{
1000
MANEDIT
1070
     0
1002
}
1002
{
1000
NOSEL
1070
     0
1002
}
1002
{
1000
BEHIND
1070
     0
1002
}
1002
{
1000
OTHER
1070
     0
1002
}
1002
{
1000
REACTOR
1002
}
  0
LINE
  5
2C3
330
2B4
100
AcDbEntity
  8
K-1
  6
ByBlock
 62
     0
100
AcDbLine
 10
-4.699999999662395
 20
-6.000000000674504
 30
0.0
 11
-3.499999999659848
 21
-6.000000000414161
 31
0.0
1001
GENIUS_GENREC_14
1002
{
1000
PYDIR
1011
-2.099999999662031
1021
-6.000000000248519
1031
0.0
1002
}
1002
{
1000
PXDIR
1011
-5.000000000371983
1021
-0.0000000007099743
1031
0.0
1002
}
1002
{
1000
PORI
1011
-2.100000000372347
1021
-0.0000000002485194
1031
0.0
1002
}
1002
{
1000
PINS
1011
-2.100000000372347
1021
-0.0000000002485194
1031
0.0
1002
}
1002
{
1000
PINS2
1011
-4.999999999661667
1021
-6.000000000709974
1031
0.0
1002
}
1002
{
1000
C
1070
     1
1002
}
1001
GENIUS_GENOBJ-N-REC_13
1002
{
1000
OWNER
1000
GEN
1002
}
1001
GENIUS_GENODEF_13
1002
{
1000
HIER
1070
     0
1002
}
1002
{
1000
MANEDIT
1070
     0
1002
}
1002
{
1000
NOSEL
1070
     0
1002
}
1002
{
1000
BEHIND
1070
     0
1002
}
1002
{
1000
OTHER
1070
     0
1002
}
1002
{
1000
REACTOR
1002
}
  0
LINE
  5
2C4
330
2B4
100
AcDbEntity
  8
K-1
  6
ByBlock
 62
     0
100
AcDbLine
 10
-2.099999999544706
 20
-7.000000000248519
 30
0.0
 11
-2.100000000490581
 21
0.9999999997514805
 31
0.0
1001
GENIUS_GENREC_14
1002
{
1000
PYDIR
1011
-2.099999999662031
1021
-6.000000000248519
1031
0.0
1002
}
1002
{
1000
PXDIR
1011
-6.000000000371983
1021
-0.0000000007099743
1031
0.0
1002
}
1002
{
1000
PORI
1011
-2.100000000372347
1021
-0.0000000002485194
1031
0.0
1002
}
1002
{
1000
PINS
1011
-2.100000000372347
1021
-0.0000000002485194
1031
0.0
1002
}
1002
{
1000
PINS2
1011
-5.999999999661667
1021
-6.000000000709974
1031
0.0
1002
}
1002
{
1000
C
1070
     1
1002
}
1001
GENIUS_GENOBJ-N-REC_13
1002
{
1000
OWNER
1000
GEN
1002
}
1001
GENIUS_GENODEF_13
1002
{
1000
HIER
1070
     0
1002
}
1002
{
1000
MANEDIT
1070
     0
1002
}
1002
{
1000
NOSEL
1070
     0
1002
}
1002
{
1000
BEHIND
1070
     0
1002
}
1002
{
1000
OTHER
1070
     0
1002
}
1002
{
1000
REACTOR
1002
}
  0
LINE
  5
2C5
330
2B4
100
AcDbEntity
  8
K-1
  6
ByBlock
 62
     0
100
AcDbLine
 10
-3.500000000370164
 20
-0.0000000004141611
 30
0.0
 11
-3.500000000488398
 21
0.9999999995858388
 31
0.0
  0
LINE
  5
2C6
330
2B4
100
AcDbEntity
  8
K-1
  6
ByBlock
 62
     0
100
AcDbLine
 10
-2.099999999544706
 20
-7.000000000248519
 30
0.0
 11
-3.499999999541614
 21
-7.000000000414161
 31
0.0
1001
GENIUS_GENREC_14
1002
{
1000
PYDIR
1011
-2.100000000490581
1021
0.9999999997514805
1031
0.0
1002
}
1002
{
1000
PXDIR
1011
-5.999999999779902
1021
-5.000000000709974
1031
0.0
1002
}
1002
{
1000
PORI
1011
-2.099999999780266
1021
-5.000000000248519
1031
0.0
1002
}
1002
{
1000
PINS
1011
-2.099999999780266
1021
-5.000000000248519
1031
0.0
1002
}
1002
{
1000
PINS2
1011
-6.000000000490217
1021
0.9999999992900256
1031
0.0
1002
}
1002
{
1000
C
1070
     1
1002
}
1001
GENIUS_GENOBJ-N-REC_13
1002
{
1000
OWNER
1000
GEN
1002
}
1001
GENIUS_GENODEF_13
1002
{
1000
HIER
1070
     0
1002
}
1002
{
1000
MANEDIT
1070
     0
1002
}
1002
{
1000
NOSEL
1070
     0
1002
}
1002
{
1000
BEHIND
1070
     0
1002
}
1002
{
1000
OTHER
1070
     0
1002
}
1002
{
1000
REACTOR
1002
}
  0
LINE
  5
2C7
330
2B4
100
AcDbEntity
  8
K-1
  6
ByBlock
 62
     0
100
AcDbLine
 10
-3.499999999659848
 20
-6.000000000414161
 30
0.0
 11
-3.499999999541614
 21
-7.000000000414161
 31
0.0
  0
LINE
  5
2C8
330
2B4
100
AcDbEntity
  8
K-1
  6
ByBlock
 62
     0
100
AcDbLine
 10
-4.70000000037271
 20
-0.000000000674504
 30
0.0
 11
-5.000000000337422
 21
-0.3000000007099288
 31
0.0
1001
GENIUS_GENREC_14
1002
{
1000
PYDIR
1011
-2.099999999662031
1021
-6.000000000248519
1031
0.0
1002
}
1002
{
1000
PXDIR
1011
-5.000000000371983
1021
-0.0000000007099743
1031
0.0
1002
}
1002
{
1000
PORI
1011
-2.100000000372347
1021
-0.0000000002485194
1031
0.0
1002
}
1002
{
1000
PINS
1011
-2.100000000372347
1021
-0.0000000002485194
1031
0.0
1002
}
1002
{
1000
PINS2
1011
-4.999999999661667
1021
-6.000000000709974
1031
0.0
1002
}
1002
{
1000
C
1070
     1
1002
}
1001
GENIUS_GENOBJ-N-REC_13
1002
{
1000
OWNER
1000
GEN
1002
}
1001
GENIUS_GENODEF_13
1002
{
1000
HIER
1070
     0
1002
}
1002
{
1000
MANEDIT
1070
     0
1002
}
1002
{
1000
NOSEL
1070
     0
1002
}
1002
{
1000
BEHIND
1070
     0
1002
}
1002
{
1000
OTHER
1070
     0
1002
}
1002
{
1000
REACTOR
1002
}
  0
LINE
  5
2C9
330
2B4
100
AcDbEntity
  8
K-1
  6
ByBlock
 62
     0
100
AcDbLine
 10
-4.999999999698047
 20
-5.700000000710019
 30
0.0
 11
-4.699999999662395
 21
-6.000000000674504
 31
0.0
1001
GENIUS_GENREC_14
1002
{
1000
PYDIR
1011
-2.099999999662031
1021
-6.000000000248519
1031
0.0
1002
}
1002
{
1000
PXDIR
1011
-5.000000000371983
1021
-0.0000000007099743
1031
0.0
1002
}
1002
{
1000
PORI
1011
-2.100000000372347
1021
-0.0000000002485194
1031
0.0
1002
}
1002
{
1000
PINS
1011
-2.100000000372347
1021
-0.0000000002485194
1031
0.0
1002
}
1002
{
1000
PINS2
1011
-4.999999999661667
1021
-6.000000000709974
1031
0.0
1002
}
1002
{
1000
C
1070
     1
1002
}
1001
GENIUS_GENOBJ-N-REC_13
1002
{
1000
OWNER
1000
GEN
1002
}
1001
GENIUS_GENODEF_13
1002
{
1000
HIER
1070
     0
1002
}
1002
{
1000
MANEDIT
1070
     0
1002
}
1002
{
1000
NOSEL
1070
     0
1002
}
1002
{
1000
BEHIND
1070
     0
1002
}
1002
{
1000
OTHER
1070
     0
1002
}
1002
{
1000
REACTOR
1002
}
  0
LINE
  5
2CA
330
2B4
100
AcDbEntity
  8
K-1
  6
ByBlock
 62
     0
100
AcDbLine
 10
4.69999999977972
 20
-6.000000000000117
 30
0.0
 11
4.999999999779902
 21
-5.700000000000162
 31
0.0
1001
GENIUS_GENREC_14
1002
{
1000
PYDIR
1011
2.099999999778447
1021
-6.000000000000003
1031
0.0
1002
}
1002
{
1000
PXDIR
1011
4.999999999778083
1021
-0.0000000000000036
1031
0.0
1002
}
1002
{
1000
PORI
1011
2.099999999778447
1021
-0.0000000000000036
1031
0.0
1002
}
1002
{
1000
PINS
1011
2.099999999778447
1021
-0.0000000000000036
1031
0.0
1002
}
1002
{
1000
PINS2
1011
4.999999999778083
1021
-6.000000000000003
1031
0.0
1002
}
1002
{
1000
C
1070
     1
1002
}
1001
GENIUS_GENOBJ-N-REC_13
1002
{
1000
OWNER
1000
GEN
1002
}
1001
GENIUS_GENODEF_13
1002
{
1000
HIER
1070
     0
1002
}
1002
{
1000
MANEDIT
1070
     0
1002
}
1002
{
1000
NOSEL
1070
     0
1002
}
1002
{
1000
BEHIND
1070
     0
1002
}
1002
{
1000
OTHER
1070
     0
1002
}
1002
{
1000
REACTOR
1002
}
  0
LINE
  5
2CB
330
2B4
100
AcDbEntity
  8
K-1
  6
ByBlock
 62
     0
100
AcDbLine
 10
4.999999999779902
 20
-0.2999999999999581
 30
0.0
 11
4.69999999977972
 21
-0.0000000000000036
 31
0.0
1001
GENIUS_GENREC_14
1002
{
1000
PYDIR
1011
2.099999999778447
1021
-6.000000000000003
1031
0.0
1002
}
1002
{
1000
PXDIR
1011
4.999999999778083
1021
-0.0000000000000036
1031
0.0
1002
}
1002
{
1000
PORI
1011
2.099999999778447
1021
-0.0000000000000036
1031
0.0
1002
}
1002
{
1000
PINS
1011
2.099999999778447
1021
-0.0000000000000036
1031
0.0
1002
}
1002
{
1000
PINS2
1011
4.999999999778083
1021
-6.000000000000003
1031
0.0
1002
}
1002
{
1000
C
1070
     1
1002
}
1001
GENIUS_GENOBJ-N-REC_13
1002
{
1000
OWNER
1000
GEN
1002
}
1001
GENIUS_GENODEF_13
1002
{
1000
HIER
1070
     0
1002
}
1002
{
1000
MANEDIT
1070
     0
1002
}
1002
{
1000
NOSEL
1070
     0
1002
}
1002
{
1000
BEHIND
1070
     0
1002
}
1002
{
1000
OTHER
1070
     0
1002
}
1002
{
1000
REACTOR
1002
}
  0
ENDBLK
  5
2CC
330
2B4
100
AcDbEntity
  8
0
100
AcDbBlockEnd
  0
BLOCK
  5
125
330
122
100
AcDbEntity
  8
0
 62
     0
100
AcDbBlockBegin
  2
HFT-015M50-P1_側面図-A
 70
     0
 10
0.0
 20
0.0
 30
0.0
  3
HFT-015M50-P1_側面図-A
  1

  0
LINE
  5
126
330
122
100
AcDbEntity
  8
K-1
  6
ByBlock
 62
     0
100
AcDbLine
 10
79.0
 20
21.99999999875036
 30
0.0
 11
-20.50000000000046
 21
21.99999999875036
 31
0.0
  0
LINE
  5
127
330
122
100
AcDbEntity
  8
K-1
  6
ByBlock
 62
     0
100
AcDbLine
 10
-20.50000000000046
 20
21.99999999875036
 30
0.0
 11
-21.00000000000045
 21
21.49999999875035
 31
0.0
  0
LINE
  5
128
330
122
100
AcDbEntity
  8
K-1
  6
ByBlock
 62
     0
100
AcDbLine
 10
-21.00000000000045
 20
21.49999999875035
 30
0.0
 11
-21.00000000000091
 21
-14.50000000124373
 31
0.0
  0
LINE
  5
129
330
122
100
AcDbEntity
  8
K-1
  6
ByBlock
 62
     0
100
AcDbLine
 10
-21.00000000000045
 20
20.99999999875081
 30
0.0
 11
-22.00000000000045
 21
20.99999999875081
 31
0.0
  0
LINE
  5
12A
330
122
100
AcDbEntity
  8
K-1
  6
CENTER
 62
     2
100
AcDbLine
 10
-0.0000000000004547
 20
27.46762846824413
 30
0.0
 11
0.0
 21
-0.0000000012485089
 31
0.0
  0
LINE
  5
12C
330
122
100
AcDbEntity
  8
K-1
  6
HIDDEN
 62
     3
370
    25
100
AcDbLine
 10
-106.7500000000004
 20
-3.358757211884949
 30
0.0
 11
-106.7500000000004
 21
3.358757209387704
 31
0.0
  0
LINE
  5
12E
330
122
100
AcDbEntity
  8
K-1
  6
HIDDEN
 62
     3
370
    25
100
AcDbLine
 10
-110.2500000000004
 20
-3.358757211884949
 30
0.0
 11
-110.2500000000004
 21
3.358757209387704
 31
0.0
  0
LINE
  5
12F
330
122
100
AcDbEntity
  8
K-1
  6
ByBlock
 62
     0
100
AcDbLine
 10
-113.2783121635134
 20
-5.750000001248508
 30
0.0
 11
-114.0000000000004
 21
-4.500000001248508
 31
0.0
  0
LINE
  5
130
330
122
100
AcDbEntity
  8
K-1
  6
ByBlock
 62
     0
100
AcDbLine
 10
-114.0000000000004
 20
-4.500000001248508
 30
0.0
 11
-114.0000000000004
 21
4.499999998751491
 31
0.0
  0
LINE
  5
131
330
122
100
AcDbEntity
  8
K-1
  6
ByBlock
 62
     0
100
AcDbLine
 10
-113.2783121635134
 20
-0.7667020427186344
 30
0.0
 11
-113.2783121635134
 21
0.7667020402213894
 31
0.0
  0
LINE
  5
132
330
122
100
AcDbEntity
  8
K-1
  6
ByBlock
 62
     0
100
AcDbLine
 10
-113.2783121635134
 20
-0.7667020427186344
 30
0.0
 11
-103.0000000000004
 21
-0.7667020427186344
 31
0.0
  0
LINE
  5
133
330
122
100
AcDbEntity
  8
K-1
  6
ByBlock
 62
     0
100
AcDbLine
 10
-103.0000000000004
 20
-0.7667020427186344
 30
0.0
 11
-103.0000000000004
 21
-5.750000001248508
 31
0.0
  0
LINE
  5
134
330
122
100
AcDbEntity
  8
K-1
  6
ByBlock
 62
     0
100
AcDbLine
 10
-113.2783121635134
 20
0.7667020402213894
 30
0.0
 11
-103.0000000000004
 21
0.7667020402213894
 31
0.0
  0
LINE
  5
135
330
122
100
AcDbEntity
  8
K-1
  6
ByBlock
 62
     0
100
AcDbLine
 10
-103.0000000000004
 20
0.7667020402213894
 30
0.0
 11
-103.0000000000004
 21
5.749999998751491
 31
0.0
  0
LINE
  5
136
330
122
100
AcDbEntity
  8
K-1
  6
ByBlock
 62
     0
100
AcDbLine
 10
-102.7500000000004
 20
-6.000000001248508
 30
0.0
 11
-93.00000000000045
 21
-6.000000001248736
 31
0.0
  0
LINE
  5
137
330
122
100
AcDbEntity
  8
K-1
  6
ByBlock
 62
     0
370
    25
100
AcDbLine
 10
-103.0000000000004
 20
-5.750000001248508
 30
0.0
 11
-113.2783121635134
 21
-5.750000001248508
 31
0.0
  0
LINE
  5
138
330
122
100
AcDbEntity
  8
K-1
  6
ByBlock
 62
     0
100
AcDbLine
 10
-102.7500000000004
 20
-6.000000001248508
 30
0.0
 11
-103.0000000000004
 21
-5.750000001248508
 31
0.0
  0
ARC
  5
139
330
122
100
AcDbEntity
  8
K-1
  6
ByBlock
 62
     0
100
AcDbCircle
 10
-108.1904291087553
 20
-3.258351021983799
 30
0.0
 40
5.66523332394777
100
AcDbArc
 50
153.907985225521
 51
206.0920147744933
  0
LINE
  5
13A
330
122
100
AcDbEntity
  8
K-1
  6
ByBlock
 62
     0
370
    25
100
AcDbLine
 10
-103.0000000000004
 20
5.749999998751491
 30
0.0
 11
-113.2783121635134
 21
5.749999998751491
 31
0.0
  0
LINE
  5
13B
330
122
100
AcDbEntity
  8
K-1
  6
ByBlock
 62
     0
100
AcDbLine
 10
-102.7500000000004
 20
5.999999998751491
 30
0.0
 11
-103.0000000000004
 21
5.749999998751491
 31
0.0
  0
ARC
  5
13C
330
122
100
AcDbEntity
  8
K-1
  6
ByBlock
 62
     0
100
AcDbCircle
 10
-108.1904291087553
 20
3.258351019486553
 30
0.0
 40
5.66523332394777
100
AcDbArc
 50
153.9079852255067
 51
206.092014774479
  0
LINE
  5
13D
330
122
100
AcDbEntity
  8
K-1
  6
ByBlock
 62
     0
100
AcDbLine
 10
-113.2783121635134
 20
5.749999998751491
 30
0.0
 11
-114.0000000000004
 21
4.499999998751491
 31
0.0
  0
LINE
  5
13E
330
122
100
AcDbEntity
  8
K-1
  6
ByBlock
 62
     0
100
AcDbLine
 10
-102.7500000000004
 20
5.999999998751491
 30
0.0
 11
-92.99999999999954
 21
5.999999998751491
 31
0.0
  0
LINE
  5
13F
330
122
100
AcDbEntity
  8
K-1
  6
ByBlock
 62
     6
100
AcDbLine
 10
-102.7500000000004
 20
-6.000000001248508
 30
0.0
 11
-102.7500000000004
 21
5.999999998751491
 31
0.0
  0
LINE
  5
140
330
122
100
AcDbEntity
  8
K-1
  6
ByBlock
 62
     6
100
AcDbLine
 10
-113.2783121635134
 20
-0.7667020427186344
 30
0.0
 11
-109.7371762556099
 21
-2.483572970552131
 31
0.0
  0
LINE
  5
141
330
122
100
AcDbEntity
  8
K-1
  6
ByBlock
 62
     6
100
AcDbLine
 10
-106.8995836510948
 20
-3.859340626589755
 30
0.0
 11
-103.0000000000004
 21
-5.750000001248508
 31
0.0
  0
LINE
  5
142
330
122
100
AcDbEntity
  8
K-1
  6
ByBlock
 62
     6
100
AcDbLine
 10
-103.0000000000004
 20
-0.7667020427186344
 30
0.0
 11
-107.0093038768764
 21
-2.71055775627633
 31
0.0
  0
LINE
  5
143
330
122
100
AcDbEntity
  8
K-1
  6
ByBlock
 62
     6
100
AcDbLine
 10
-109.8923603881198
 20
-4.108367960739087
 30
0.0
 11
-113.2783121635125
 21
-5.750000001251009
 31
0.0
  0
ELLIPSE
  5
144
330
122
100
AcDbEntity
  8
K-1
  6
ByBlock
 62
     0
100
AcDbEllipse
 10
-108.5000000000004
 20
-3.358757211884949
 30
0.0
 11
-1.75
 21
0.0
 31
0.0
210
0.0
220
0.0
230
-1.0
 40
0.7071067811863421
 41
0.0
 42
6.283185307179586
  0
ELLIPSE
  5
145
330
122
100
AcDbEntity
  8
K-1
  6
HIDDEN
 62
     3
100
AcDbEllipse
 10
-108.5000000000004
 20
3.358757209387704
 30
0.0
 11
-1.75
 21
0.0
 31
0.0
210
0.0
220
0.0
230
1.0
 40
0.7071067811863421
 41
0.0
 42
6.283185307179586
  0
LINE
  5
146
330
122
100
AcDbEntity
  8
K-1
  6
ByBlock
 62
     6
100
AcDbLine
 10
-113.2783121635134
 20
0.7667020402216167
 30
0.0
 11
-103.0000000000004
 21
5.749999998751491
 31
0.0
  0
LINE
  5
147
330
122
100
AcDbEntity
  8
K-1
  6
ByBlock
 62
     6
100
AcDbLine
 10
-103.0000000000004
 20
0.7667020402216167
 30
0.0
 11
-113.2783121635125
 21
5.749999998753764
 31
0.0
  0
LINE
  5
148
330
122
100
AcDbEntity
  8
K-1
  6
ByBlock
 62
     0
100
AcDbLine
 10
-21.99999999999954
 20
-14.50000000124964
 30
0.0
 11
-21.99999999999954
 21
21.59999999875004
 31
0.0
  0
LINE
  5
149
330
122
100
AcDbEntity
  8
K-1
  6
ByBlock
 62
     0
370
    25
100
AcDbLine
 10
-33.83506425633687
 20
21.89999999875022
 30
0.0
 11
-22.29999999999973
 21
21.89999999874999
 31
0.0
  0
LINE
  5
14A
330
122
100
AcDbEntity
  8
K-1
  6
HIDDEN
 62
     3
370
    25
100
AcDbLine
 10
-45.05000000000018
 20
19.10165265836758
 30
0.0
 11
-45.05000000000018
 21
16.99999999875035
 31
0.0
  0
LINE
  5
14B
330
122
100
AcDbEntity
  8
K-1
  6
HIDDEN
 62
     3
370
    25
100
AcDbLine
 10
-40.94999999999981
 20
20.59393061885885
 30
0.0
 11
-40.94999999999981
 21
16.99999999875035
 31
0.0
  0
LINE
  5
14C
330
122
100
AcDbEntity
  8
K-1
  6
HIDDEN
 62
     3
370
    25
100
AcDbLine
 10
-40.94999999999981
 20
16.99999999875035
 30
0.0
 11
-45.05000000000018
 21
16.99999999875035
 31
0.0
  0
LINE
  5
14D
330
122
100
AcDbEntity
  8
K-1
  6
ByBlock
 62
     0
370
    25
100
AcDbLine
 10
-50.00000000000046
 20
-16.59979246303965
 30
0.0
 11
-50.0
 21
17.29999999875053
 31
0.0
  0
LINE
  5
14E
330
122
100
AcDbEntity
  8
K-1
  6
ByBlock
 62
     0
370
    25
100
AcDbLine
 10
-40.67546712284911
 20
20.69385241446912
 30
0.0
 11
-50.0
 21
17.29999999875053
 31
0.0
  0
ARC
  5
14F
330
122
100
AcDbEntity
  8
K-1
  6
ByBlock
 62
     0
370
    25
100
AcDbCircle
 10
-49.0
 20
16.59979246054081
 30
0.0
 40
1.0
100
AcDbArc
 50
109.999999999989
 51
180.0
  0
ARC
  5
150
330
122
100
AcDbEntity
  8
K-1
  6
ByBlock
 62
     0
370
    25
100
AcDbCircle
 10
-33.83506425633732
 20
1.899999998750445
 30
0.0
 40
20.0
100
AcDbArc
 50
90.0
 51
109.999999999989
  0
LINE
  5
151
330
122
100
AcDbEntity
  8
K-1
  6
ByBlock
 62
     0
370
    25
100
AcDbLine
 10
-33.83506425633641
 20
-21.90000000124928
 30
0.0
 11
-30.99999999999818
 21
-21.90000000125861
 31
0.0
  0
LINE
  5
152
330
122
100
AcDbEntity
  8
K-1
  6
HIDDEN
 62
     3
370
    25
100
AcDbLine
 10
-45.05000000000018
 20
-19.10165266086664
 30
0.0
 11
-45.05000000000018
 21
-17.00000000124942
 31
0.0
  0
LINE
  5
153
330
122
100
AcDbEntity
  8
K-1
  6
HIDDEN
 62
     3
370
    25
100
AcDbLine
 10
-40.94999999999981
 20
-20.59393062135769
 30
0.0
 11
-40.94999999999981
 21
-17.00000000124942
 31
0.0
  0
LINE
  5
154
330
122
100
AcDbEntity
  8
K-1
  6
HIDDEN
 62
     3
370
    25
100
AcDbLine
 10
-40.94999999999981
 20
-17.00000000124942
 30
0.0
 11
-45.05000000000018
 21
-17.00000000124942
 31
0.0
  0
LINE
  5
155
330
122
100
AcDbEntity
  8
K-1
  6
ByBlock
 62
     0
370
    25
100
AcDbLine
 10
-40.67546712284911
 20
-20.69385241696819
 30
0.0
 11
-49.34202014332595
 21
-17.53948508382564
 31
0.0
  0
ARC
  5
156
330
122
100
AcDbEntity
  8
K-1
  6
ByBlock
 62
     0
370
    25
100
AcDbCircle
 10
-49.00000000000045
 20
-16.59979246303965
 30
0.0
 40
1.0
100
AcDbArc
 50
180.0
 51
250.0000000000109
  0
ARC
  5
157
330
122
100
AcDbEntity
  8
K-1
  6
ByBlock
 62
     0
370
    25
100
AcDbCircle
 10
-33.83506425633732
 20
-1.900000001249281
 30
0.0
 40
20.0
100
AcDbArc
 50
250.0000000000109
 51
270.0
  0
ARC
  5
158
330
122
100
AcDbEntity
  8
K-1
  6
ByBlock
 62
     0
370
    25
100
AcDbCircle
 10
-22.29999999999973
 20
21.59999999875004
 30
0.0
 40
0.3
100
AcDbArc
 50
0.0
 51
90.0
  0
LINE
  5
159
330
122
100
AcDbEntity
  8
K-1
  6
ByBlock
 62
     0
100
AcDbLine
 10
78.99999999999909
 20
-20.60000000124933
 30
0.0
 11
78.99999999999955
 21
-24.00000000125078
 31
0.0
  0
LINE
  5
15A
330
122
100
AcDbEntity
  8
K-1
  6
CENTER
 62
     2
100
AcDbLine
 10
27.70339214180277
 20
-157.1137441967155
 30
0.0
 11
0.0
 21
-0.0000000012494183
 31
0.0
  0
LINE
  5
15B
330
122
100
AcDbEntity
  8
K-1
  6
ByBlock
 62
     0
100
AcDbLine
 10
-92.9999999999991
 20
-12.30000000124983
 30
0.0
 11
-93.00000000000091
 21
12.29999999875122
 31
0.0
  0
LINE
  5
15C
330
122
100
AcDbEntity
  8
K-1
  6
ByBlock
 62
     0
100
AcDbLine
 10
-89.25735931288182
 20
14.79999999875144
 30
0.0
 11
-79.29999999999927
 21
14.79999999875031
 31
0.0
  0
ARC
  5
15D
330
122
100
AcDbEntity
  8
K-1
  6
ByBlock
 62
     0
100
AcDbCircle
 10
-79.29999999999927
 20
14.49999999875035
 30
0.0
 40
0.3
100
AcDbArc
 50
359.9999999997394
 51
90.0
  0
LINE
  5
15E
330
122
100
AcDbEntity
  8
K-1
  6
ByBlock
 62
     0
100
AcDbLine
 10
-78.99999999999909
 20
14.49999999874899
 30
0.0
 11
-78.99999999999909
 21
-14.50000000124805
 31
0.0
  0
LINE
  5
15F
330
122
100
AcDbEntity
  8
K-1
  6
ByBlock
 62
     0
100
AcDbLine
 10
-91.37867965644137
 20
13.92132034231099
 30
0.0
 11
-93.00000000000091
 21
12.29999999875122
 31
0.0
  0
ARC
  5
160
330
122
100
AcDbEntity
  8
K-1
  6
ByBlock
 62
     0
100
AcDbCircle
 10
-89.25735931288182
 20
11.79999999875144
 30
0.0
 40
3.0
100
AcDbArc
 50
90.0
 51
135.0000000000088
  0
LINE
  5
161
330
122
100
AcDbEntity
  8
K-1
  6
ByBlock
 62
     0
100
AcDbLine
 10
-89.25735931288135
 20
-14.80000000124823
 30
0.0
 11
-79.29999999999927
 21
-14.80000000124937
 31
0.0
  0
ARC
  5
162
330
122
100
AcDbEntity
  8
K-1
  6
ByBlock
 62
     0
100
AcDbCircle
 10
-79.29999999999927
 20
-14.50000000124942
 30
0.0
 40
0.3
100
AcDbArc
 50
270.0
 51
0.000000000260551
  0
LINE
  5
163
330
122
100
AcDbEntity
  8
K-1
  6
ByBlock
 62
     0
100
AcDbLine
 10
-91.37867965644137
 20
-13.92132034480778
 30
0.0
 11
-92.9999999999991
 21
-12.30000000124983
 31
0.0
  0
ARC
  5
164
330
122
100
AcDbEntity
  8
K-1
  6
ByBlock
 62
     0
100
AcDbCircle
 10
-89.25735931288135
 20
-11.80000000124823
 30
0.0
 40
3.0
100
AcDbArc
 50
224.9999999999912
 51
270.0
  0
LINE
  5
165
330
122
100
AcDbEntity
  8
K-1
  6
ByBlock
100
AcDbLine
 10
78.99999999999545
 20
-24.00000000124715
 30
0.0
 11
78.99999999999682
 21
-31.64734603982947
 31
0.0
  0
LINE
  5
166
330
122
100
AcDbEntity
  8
K-1
  6
ByBlock
 62
     6
100
AcDbLine
 10
78.99999999999545
 20
-24.00000000124715
 30
0.0
 11
78.99999999998454
 21
-15.00000000124441
 31
0.0
  0
ARC
  5
167
330
122
100
AcDbEntity
  8
K-1
  6
ByBlock
 62
     6
370
    25
100
AcDbCircle
 10
78.49999999998726
 20
-15.00000000124328
 30
0.0
 40
0.5
100
AcDbArc
 50
0.0000000000521102
 51
90.0
  0
LINE
  5
168
330
122
100
AcDbEntity
  8
K-1
  6
CENTER
 62
     2
100
AcDbLine
 10
-10.49493346374629
 20
-51.99999999999909
 30
0.0
 11
-34.8739944746867
 21
-51.99999999999909
 31
0.0
  0
LINE
  5
169
330
122
100
AcDbEntity
  8
K-1
  6
ByBlock
 62
     6
100
AcDbLine
 10
-32.01724650762071
 20
-64.0
 30
0.0
 11
-23.00000000000955
 21
-64.0
 31
0.0
  0
LINE
  5
16A
330
122
100
AcDbEntity
  8
K-1
  6
ByBlock
 62
     6
100
AcDbLine
 10
-32.01724650762071
 20
-40.0
 30
0.0
 11
-27.68629150102197
 21
-40.0
 31
0.0
  0
ARC
  5
16B
330
122
100
AcDbEntity
  8
K-1
  6
ByBlock
 62
     6
100
AcDbCircle
 10
-60.99999999999955
 20
-52.00000000000023
 30
0.0
 40
30.0
100
AcDbArc
 50
339.2164404041182
 51
20.78355959588176
  0
ARC
  5
16C
330
122
100
AcDbEntity
  8
K-1
  6
ByBlock
 62
     6
100
AcDbCircle
 10
-32.01724650762071
 20
-63.0
 30
0.0
 40
1.0
100
AcDbArc
 50
159.2164404041182
 51
270.0
  0
ARC
  5
16D
330
122
100
AcDbEntity
  8
K-1
  6
ByBlock
 62
     6
100
AcDbCircle
 10
-32.01724650762071
 20
-41.0
 30
0.0
 40
1.0
100
AcDbArc
 50
90.0
 51
200.7835595958818
  0
CIRCLE
  5
16E
330
122
100
AcDbEntity
  8
K-1
  6
ByBlock
 62
     6
100
AcDbCircle
 10
-5.000000000000454
 20
11.9999999987499
 30
0.0
 40
2.0
  0
CIRCLE
  5
16F
330
122
100
AcDbEntity
  8
K-1
  6
ByBlock
 62
     0
100
AcDbCircle
 10
-5.000000000000454
 20
11.9999999987499
 30
0.0
 40
1.6
  0
CIRCLE
  5
170
330
122
100
AcDbEntity
  8
K-1
  6
ByBlock
 62
     6
100
AcDbCircle
 10
35.0
 20
11.9999999987499
 30
0.0
 40
2.0
  0
CIRCLE
  5
171
330
122
100
AcDbEntity
  8
K-1
  6
ByBlock
 62
     0
100
AcDbCircle
 10
35.0
 20
11.9999999987499
 30
0.0
 40
1.6
  0
CIRCLE
  5
172
330
122
100
AcDbEntity
  8
K-1
  6
ByBlock
 62
     6
100
AcDbCircle
 10
14.99999999999954
 20
11.9999999987499
 30
0.0
 40
2.0
  0
CIRCLE
  5
173
330
122
100
AcDbEntity
  8
K-1
  6
ByBlock
 62
     0
100
AcDbCircle
 10
14.99999999999954
 20
11.9999999987499
 30
0.0
 40
1.6
  0
LINE
  5
174
330
122
100
AcDbEntity
  8
K-1
  6
HIDDEN
 62
     3
100
AcDbLine
 10
90.03345836994958
 20
-22.74851642265867
 30
0.0
 11
81.9999999999959
 21
-22.75000000125761
 31
0.0
  0
LINE
  5
175
330
122
100
AcDbEntity
  8
K-1
  6
HIDDEN
 62
     3
100
AcDbLine
 10
81.9999999999959
 20
-22.75000000125761
 30
0.0
 11
81.9999999999959
 21
-16.2500000012576
 31
0.0
  0
LINE
  5
176
330
122
100
AcDbEntity
  8
K-1
  6
HIDDEN
 62
     3
100
AcDbLine
 10
81.9999999999959
 20
-16.2500000012576
 30
0.0
 11
95.53157316087164
 21
-16.2500000012576
 31
0.0
  0
ARC
  5
177
330
122
100
AcDbEntity
  8
K-1
  6
ByBlock
 62
     0
100
AcDbCircle
 10
101.0
 20
15.87101018545695
 30
0.0
 40
3.0
100
AcDbArc
 50
0.0
 51
90.0
  0
LINE
  5
178
330
122
100
AcDbEntity
  8
K-1
  6
PHANTOM
 62
     5
100
AcDbLine
 10
101.0
 20
18.87101018545695
 30
0.0
 11
88.99999999999909
 21
18.87101018545672
 31
0.0
  0
LINE
  5
179
330
122
100
AcDbEntity
  8
K-1
  6
ByBlock
 62
     0
100
AcDbLine
 10
88.99999999999909
 20
18.87101018545672
 30
0.0
 11
88.99999999999909
 21
16.37101018545718
 31
0.0
  0
LINE
  5
17A
330
122
100
AcDbEntity
  8
K-1
  6
ByBlock
 62
     0
100
AcDbLine
 10
88.99999999999909
 20
16.37101018545718
 30
0.0
 11
101.0
 21
16.37101018545741
 31
0.0
  0
ARC
  5
17B
330
122
100
AcDbEntity
  8
K-1
  6
ByBlock
 62
     0
100
AcDbCircle
 10
101.0
 20
13.37101018545741
 30
0.0
 40
3.0
100
AcDbArc
 50
28.95502437186087
 51
90.0
  0
ARC
  5
17C
330
122
100
AcDbEntity
  8
K-1
  6
ByBlock
 62
     0
100
AcDbCircle
 10
103.8000000000002
 20
14.92020352394047
 30
0.0
 40
0.2
100
AcDbArc
 50
208.9550243718606
 51
0.0
  0
LWPOLYLINE
  5
17D
330
122
100
AcDbEntity
  8
K-1
  6
ByBlock
 62
     0
370
    25
100
AcDbPolyline
 90
        6
 70
     1
 43
0.0
 10
-15.0
 20
10.9999999987499
 42
0.4142135623730816
 10
-10.0
 20
5.999999998749899
 10
40.0
 20
5.999999998749899
 42
0.4142135623730886
 10
45.0
 20
10.9999999987499
 10
45.0
 20
14.66287829745169
 10
-15.00000000000045
 20
14.66287829745169
  0
LINE
  5
17E
330
122
100
AcDbEntity
  8
K-1
  6
ByBlock
 62
     0
100
AcDbLine
 10
79.00000000000182
 20
21.99999999851275
 30
0.0
 11
81.00000000000182
 21
21.99999999851275
 31
0.0
  0
LINE
  5
17F
330
122
100
AcDbEntity
  8
K-1
  6
ByBlock
 62
     0
100
AcDbLine
 10
104.0000000000018
 20
17.49999999851343
 30
0.0
 11
104.0000000000009
 21
-18.59402182306485
 31
0.0
  0
ARC
  5
180
330
122
100
AcDbEntity
  8
K-1
  6
ByBlock
 62
     0
100
AcDbCircle
 10
101.0000000000009
 20
-18.59402182306462
 30
0.0
 40
3.0
100
AcDbArc
 50
295.1422822816186
 51
0.0
  0
LINE
  5
181
330
122
100
AcDbEntity
  8
K-1
  6
ByBlock
 62
     6
100
AcDbLine
 10
100.5000000000009
 20
17.99999999851366
 30
0.0
 11
89.0000000000009
 21
17.9999999985132
 31
0.0
  0
LINE
  5
182
330
122
100
AcDbEntity
  8
K-1
  6
ByBlock
 62
     0
100
AcDbLine
 10
101.0000000000018
 20
20.49999999851366
 30
0.0
 11
83.00000000000181
 21
20.4999999985132
 31
0.0
  0
ARC
  5
183
330
122
100
AcDbEntity
  8
K-1
  6
ByBlock
 62
     0
100
AcDbCircle
 10
101.0000000000018
 20
17.49999999851366
 30
0.0
 40
3.0
100
AcDbArc
 50
0.0
 51
90.0
  0
ARC
  5
184
330
122
100
AcDbEntity
  8
K-1
  6
ByBlock
 62
     0
100
AcDbCircle
 10
101.0000000000018
 20
15.87101018545672
 30
0.0
 40
3.0
100
AcDbArc
 50
0.0
 51
90.0
  0
ARC
  5
185
330
122
100
AcDbEntity
  8
K-1
  6
ByBlock
 62
     6
100
AcDbCircle
 10
100.5000000000009
 20
17.49999999851366
 30
0.0
 40
0.5
100
AcDbArc
 50
0.0
 51
90.0
  0
LINE
  5
186
330
122
100
AcDbEntity
  8
K-1
  6
ByBlock
 62
     0
370
    25
100
AcDbLine
 10
83.00000000000181
 20
20.4999999985132
 30
0.0
 11
81.00000000000182
 21
21.99999999851275
 31
0.0
  0
LINE
  5
187
330
122
100
AcDbEntity
  8
K-1
  6
ByBlock
 62
     0
370
    25
100
AcDbLine
 10
81.00000000000273
 20
-31.29469207865282
 30
0.0
 11
79.00000000000273
 21
-31.64734604006981
 31
0.0
  0
LINE
  5
188
330
122
100
AcDbEntity
  8
K-1
  6
ByBlock
 62
     0
100
AcDbLine
 10
79.00000000000182
 20
21.99999999851275
 30
0.0
 11
79.00000000000182
 21
-31.64734604006981
 31
0.0
  0
LINE
  5
189
330
122
100
AcDbEntity
  8
K-1
  6
HIDDEN
 62
     3
100
AcDbLine
 10
82.00000000000182
 20
-17.80000000125255
 30
0.0
 11
79.00000000000182
 21
-17.80000000125255
 31
0.0
  0
LINE
  5
18A
330
122
100
AcDbEntity
  8
K-1
  6
HIDDEN
 62
     3
100
AcDbLine
 10
82.00000000000182
 20
-21.20000000125265
 30
0.0
 11
79.00000000000182
 21
-21.20000000125265
 31
0.0
  0
LINE
  5
18B
330
122
100
AcDbEntity
  8
K-1
  6
ByBlock
 62
     0
370
    25
100
AcDbLine
 10
81.00000000000273
 20
21.99999999851275
 30
0.0
 11
81.00000000000273
 21
-31.29469207865282
 31
0.0
  0
LINE
  5
18C
330
122
100
AcDbEntity
  8
K-1
  6
ByBlock
 62
     0
100
AcDbLine
 10
81.00000000000273
 20
-10.89724736007565
 30
0.0
 11
79.00000000000182
 21
-10.89724736007565
 31
0.0
  0
LINE
  5
18D
330
122
100
AcDbEntity
  8
K-1
  6
ByBlock
 62
     0
100
AcDbLine
 10
81.00000000000273
 20
-14.30908802249178
 30
0.0
 11
79.00000000000182
 21
-14.30908802249178
 31
0.0
  0
LINE
  5
18E
330
122
100
AcDbEntity
  8
K-1
  6
ByBlock
 62
     0
100
AcDbLine
 10
81.00000000000273
 20
-17.57208023655994
 30
0.0
 11
79.00000000000182
 21
-17.57208023655994
 31
0.0
  0
LINE
  5
18F
330
122
100
AcDbEntity
  8
K-1
  6
ByBlock
 62
     0
100
AcDbLine
 10
102.2746027558487
 20
-21.30978834741654
 30
0.0
 11
81.00000000000273
 21
-31.29469207865282
 31
0.0
  0
LINE
  5
190
330
122
100
AcDbEntity
  8
K-1
  6
ByBlock
 62
     6
100
AcDbLine
 10
83.00000000000181
 20
20.4999999985132
 30
0.0
 11
83.00000000000181
 21
-0.0000000012494183
 31
0.0
  0
LINE
  5
191
330
122
100
AcDbEntity
  8
K-1
  6
ByBlock
 62
     6
100
AcDbLine
 10
101.0000000000009
 20
17.49999999851366
 30
0.0
 11
101.0000000000018
 21
16.37101018545718
 31
0.0
  0
LINE
  5
192
330
122
100
AcDbEntity
  8
K-1
  6
ByBlock
 62
     0
100
AcDbLine
 10
101.0000000000018
 20
18.87101018545672
 30
0.0
 11
89.0000000000009
 21
18.87101018545672
 31
0.0
  0
LINE
  5
193
330
122
100
AcDbEntity
  8
K-1
  6
ByBlock
 62
     0
100
AcDbLine
 10
89.0000000000009
 20
18.87101018545672
 30
0.0
 11
89.0000000000009
 21
16.37101018545718
 31
0.0
  0
LINE
  5
194
330
122
100
AcDbEntity
  8
K-1
  6
ByBlock
 62
     0
100
AcDbLine
 10
89.0000000000009
 20
16.37101018545718
 30
0.0
 11
101.0000000000018
 21
16.37101018545718
 31
0.0
  0
LINE
  5
195
330
122
100
AcDbEntity
  8
K-1
  6
ByBlock
 62
     0
100
AcDbLine
 10
101.0000000000018
 20
13.71843409510711
 30
0.0
 11
89.0000000000009
 21
13.71843409510688
 31
0.0
  0
LINE
  5
196
330
122
100
AcDbEntity
  8
K-1
  6
ByBlock
 62
     0
100
AcDbLine
 10
89.0000000000009
 20
13.71843409510688
 30
0.0
 11
89.0000000000009
 21
9.622673873661142
 31
0.0
  0
LINE
  5
197
330
122
100
AcDbEntity
  8
K-1
  6
ByBlock
 62
     0
100
AcDbLine
 10
89.0000000000009
 20
9.622673873661142
 30
0.0
 11
101.0000000000009
 21
9.622673873661597
 31
0.0
  0
LINE
  5
198
330
122
100
AcDbEntity
  8
K-1
  6
ByBlock
 62
     0
100
AcDbLine
 10
101.0000000000009
 20
5.995237106998047
 30
0.0
 11
89.0000000000009
 21
5.995237106998047
 31
0.0
  0
LINE
  5
199
330
122
100
AcDbEntity
  8
K-1
  6
ByBlock
 62
     0
100
AcDbLine
 10
89.0000000000009
 20
5.995237106998047
 30
0.0
 11
89.0000000000009
 21
1.07119834193736
 31
0.0
  0
LINE
  5
19A
330
122
100
AcDbEntity
  8
K-1
  6
ByBlock
 62
     0
100
AcDbLine
 10
89.0000000000009
 20
1.07119834193736
 30
0.0
 11
101.0000000000009
 21
1.07119834193736
 31
0.0
  0
LINE
  5
19B
330
122
100
AcDbEntity
  8
K-1
  6
ByBlock
 62
     0
100
AcDbLine
 10
101.0000000000018
 20
-2.851373944934948
 30
0.0
 11
89.0000000000009
 21
-2.851373944934948
 31
0.0
  0
LINE
  5
19C
330
122
100
AcDbEntity
  8
K-1
  6
ByBlock
 62
     0
100
AcDbLine
 10
89.0000000000009
 20
-2.851373944934948
 30
0.0
 11
89.0000000000009
 21
-7.681003076379965
 31
0.0
  0
LINE
  5
19D
330
122
100
AcDbEntity
  8
K-1
  6
ByBlock
 62
     0
100
AcDbLine
 10
89.0000000000009
 20
-7.681003076379965
 30
0.0
 11
101.0000000000018
 21
-7.681003076379965
 31
0.0
  0
ARC
  5
19E
330
122
100
AcDbEntity
  8
K-1
  6
ByBlock
 62
     0
100
AcDbCircle
 10
101.0000000000018
 20
13.37101018545718
 30
0.0
 40
3.0
100
AcDbArc
 50
28.95502437186087
 51
90.0
  0
ARC
  5
19F
330
122
100
AcDbEntity
  8
K-1
  6
ByBlock
 62
     0
100
AcDbCircle
 10
103.800000000002
 20
14.92020352394024
 30
0.0
 40
0.2
100
AcDbArc
 50
208.9550243718606
 51
0.0
  0
LINE
  5
1A0
330
122
100
AcDbEntity
  8
K-1
  6
ByBlock
 62
     6
100
AcDbLine
 10
101.0000000000009
 20
13.71843409510711
 30
0.0
 11
101.0000000000009
 21
9.622673873661597
 31
0.0
  0
LINE
  5
1A1
330
122
100
AcDbEntity
  8
K-1
  6
ByBlock
 62
     6
100
AcDbLine
 10
101.0000000000009
 20
5.995237106998047
 30
0.0
 11
101.0000000000009
 21
1.07119834193736
 31
0.0
  0
LINE
  5
1A2
330
122
100
AcDbEntity
  8
K-1
  6
ByBlock
 62
     6
100
AcDbLine
 10
101.0000000000018
 20
-2.851373944934948
 30
0.0
 11
101.0000000000018
 21
-7.681003076379965
 31
0.0
  0
ARC
  5
1A3
330
122
100
AcDbEntity
  8
K-1
  6
ByBlock
 62
     0
100
AcDbCircle
 10
101.0
 20
10.71843409510711
 30
0.0
 40
3.0
100
AcDbArc
 50
0.0
 51
90.0
  0
ARC
  5
1A4
330
122
100
AcDbEntity
  8
K-1
  6
ByBlock
 62
     0
100
AcDbCircle
 10
101.0000000000009
 20
4.57119834193736
 30
0.0
 40
3.5
100
AcDbArc
 50
270.0
 51
328.997280866158
  0
ARC
  5
1A5
330
122
100
AcDbEntity
  8
K-1
  6
ByBlock
 62
     0
100
AcDbCircle
 10
101.0000000000009
 20
2.495237106998047
 30
0.0
 40
3.5
100
AcDbArc
 50
31.00271913384191
 51
90.0
  0
ARC
  5
1A6
330
122
100
AcDbEntity
  8
K-1
  6
ByBlock
 62
     0
100
AcDbCircle
 10
101.0000000000009
 20
-6.351373944934948
 30
0.0
 40
3.5
100
AcDbArc
 50
31.00271913384191
 51
90.0
  0
ARC
  5
1A7
330
122
100
AcDbEntity
  8
K-1
  6
ByBlock
 62
     0
100
AcDbCircle
 10
101.0000000000009
 20
-4.181003076379965
 30
0.0
 40
3.5
100
AcDbArc
 50
270.0
 51
328.997280866158
  0
LINE
  5
1A8
330
122
100
AcDbEntity
  8
K-1
  6
ByBlock
 62
     0
100
AcDbLine
 10
101.0000000000018
 20
9.622673873661597
 30
0.0
 11
102.88355689528
 21
9.401844438537409
 31
0.0
  0
ARC
  5
1A9
330
122
100
AcDbEntity
  8
K-1
  6
ByBlock
 62
     0
100
AcDbCircle
 10
103.0000000000009
 20
10.39504180228869
 30
0.0
 40
1.0
100
AcDbArc
 50
263.3131318813218
 51
0.0
  0
ELLIPSE
  5
1AA
330
122
100
AcDbEntity
  8
K-1
  6
ByBlock
 62
     0
370
    25
100
AcDbEllipse
 10
93.00000000000091
 20
-19.5000000012551
 30
0.0
 11
-10.95814167901441
 21
-0.9587131702246956
 31
0.0
210
0.0
220
0.0
230
-1.0
 40
0.2832438023466669
 41
0.0
 42
6.283185307179586
  0
CIRCLE
  5
1AB
330
122
100
AcDbEntity
  8
K-1
  6
ByBlock
 62
     0
370
    25
100
AcDbCircle
 10
-43.0
 20
-0.0000000012496457
 30
0.0
 40
2.049999999999999
  0
LINE
  5
1AC
330
122
100
AcDbEntity
  8
K-1
  6
ByBlock
 62
     6
370
    25
100
AcDbLine
 10
-37.36160387050586
 20
21.58663298536612
 30
0.0
 11
-37.36160387050586
 21
-21.58663298786496
 31
0.0
  0
LINE
  5
1AD
330
122
100
AcDbEntity
  8
K-1
  6
ByBlock
 62
     6
370
    25
100
AcDbLine
 10
-90.50000000000091
 20
14.53053916212479
 30
0.0
 11
-90.50000000000091
 21
-14.53053916462159
 31
0.0
  0
LINE
  5
1AE
330
122
100
AcDbEntity
  8
K-1
  6
ByBlock
 62
     0
100
AcDbLine
 10
-72.28941916244366
 20
16.24999999875035
 30
0.0
 11
-50.00000000000046
 21
16.24999999875058
 31
0.0
  0
LINE
  5
1AF
330
122
100
AcDbEntity
  8
K-1
  6
ByBlock
 62
     0
100
AcDbLine
 10
-78.00000000000091
 20
-14.50000000124964
 30
0.0
 11
-78.00000000000091
 21
14.49999999875035
 31
0.0
  0
LINE
  5
1B0
330
122
100
AcDbEntity
  8
K-1
  6
ByBlock
 62
     0
100
AcDbLine
 10
-72.28941916244366
 20
-16.25000000124919
 30
0.0
 11
-50.00000000000091
 21
-16.25000000124942
 31
0.0
  0
LINE
  5
1B1
330
122
100
AcDbEntity
  8
K-1
  6
ByBlock
 62
     0
100
AcDbLine
 10
-78.00000000000091
 20
13.99999999875035
 30
0.0
 11
-78.99999999999909
 21
13.99999999875035
 31
0.0
  0
LINE
  5
1B2
330
122
100
AcDbEntity
  8
K-1
  6
ByBlock
 62
     0
370
    25
100
AcDbLine
 10
-78.00000000000091
 20
14.49999999875035
 30
0.0
 11
-77.28941916244366
 21
14.91025403659478
 31
0.0
  0
ARC
  5
1B3
330
122
100
AcDbEntity
  8
K-1
  6
ByBlock
 62
     0
100
AcDbCircle
 10
-72.28941916244366
 20
6.249999998748535
 30
0.0
 40
10.0
100
AcDbArc
 50
90.0
 51
119.9999999999952
  0
LINE
  5
1B4
330
122
100
AcDbEntity
  8
K-1
  6
ByBlock
 62
     0
100
AcDbLine
 10
-78.00000000000091
 20
-14.00000000124964
 30
0.0
 11
-78.99999999999909
 21
-14.00000000124964
 31
0.0
  0
LINE
  5
1B5
330
122
100
AcDbEntity
  8
K-1
  6
ByBlock
 62
     0
370
    25
100
AcDbLine
 10
-78.00000000000091
 20
-14.50000000124964
 30
0.0
 11
-77.28941916244366
 21
-14.9102540390943
 31
0.0
  0
ARC
  5
1B6
330
122
100
AcDbEntity
  8
K-1
  6
ByBlock
 62
     0
100
AcDbCircle
 10
-72.28941916244366
 20
-6.250000001247826
 30
0.0
 40
10.0
100
AcDbArc
 50
240.0000000000048
 51
270.0
  0
LINE
  5
1B7
330
122
100
AcDbEntity
  8
K-1
  6
ByBlock
 62
     6
370
    25
100
AcDbLine
 10
-18.29999999999927
 20
10.08166652763452
 30
0.0
 11
-14.91494289242837
 21
10.0816665276343
 31
0.0
  0
LINE
  5
1B8
330
122
100
AcDbEntity
  8
K-1
  6
ByBlock
 62
     6
370
    25
100
AcDbLine
 10
44.91494289242791
 20
10.08166652763452
 30
0.0
 11
79.00000000000182
 21
10.08166652763452
 31
0.0
  0
LINE
  5
1B9
330
122
100
AcDbEntity
  8
K-1
  6
ByBlock
 62
     6
370
    25
100
AcDbLine
 10
79.00000000000182
 20
-10.08166653013609
 30
0.0
 11
-18.30000000000018
 21
-10.08166653013495
 31
0.0
  0
INSERT
  5
1BA
330
122
100
AcDbEntity
  8
K-1
  6
ByBlock
 62
     0
100
AcDbBlockReference
  2
ハンドル外観図-B
 10
26.80170106758578
 20
-152.0000000006269
 30
0.0
  0
SPLINE
  5
1F9
330
122
100
AcDbEntity
  8
K-1
  6
ByBlock
 62
     6
100
AcDbSpline
210
0.0
220
0.0
230
1.0
 70
  1064
 71
     3
 72
     9
 73
     5
 74
     3
 42
0.000000001
 43
0.0000000001
 44
0.0000000001
 40
0.0
 40
0.0
 40
0.0
 40
0.0
 40
31.2652511008161
 40
48.73774070494589
 40
48.73774070494589
 40
48.73774070494589
 40
48.73774070494589
 10
37.63674002557673
 20
-39.07313360282501
 30
0.0
 10
22.9115652067591
 20
-42.24066326918249
 30
0.0
 10
-0.0427283583355678
 20
-47.17835716635783
 30
0.0
 10
15.17296046495072
 20
-60.43705798962125
 30
0.0
 10
20.62778789312415
 20
-65.19030483586312
 30
0.0
 11
37.63674002557673
 21
-39.07313360282501
 31
0.0
 11
9.169002996671224
 21
-51.99999999999045
 31
0.0
 11
20.62778789312415
 21
-65.19030483586312
 31
0.0
  0
ARC
  5
1FA
330
122
100
AcDbEntity
  8
K-1
  6
ByBlock
 62
     6
100
AcDbCircle
 10
2.627787893118693
 20
-96.3672193720995
 30
0.0
 40
36.0
100
AcDbArc
 50
7.218151962105197
 51
60.00000000000483
  0
CIRCLE
  5
1FB
330
122
100
AcDbEntity
  8
K-1
  6
ByBlock
 62
     6
100
AcDbCircle
 10
-0.1924859320715768
 20
-148.636390595878
 30
0.0
 40
3.500000000000002
  0
CIRCLE
  5
1FC
330
122
100
AcDbEntity
  8
K-1
  6
ByBlock
 62
     6
100
AcDbCircle
 10
10.99999999999909
 20
-19.9999999987483
 30
0.0
 40
4.0
  0
ARC
  5
1FD
330
122
100
AcDbEntity
  8
K-1
  6
ByBlock
 62
     6
370
    25
100
AcDbCircle
 10
3.699999999912506
 20
-0.0000000012516921
 30
0.0
 40
24.1999999999129
100
AcDbArc
 50
155.3800226712941
 51
204.6199773287059
  0
LINE
  5
1FE
330
122
100
AcDbEntity
  8
K-1
  6
ByBlock
 62
     6
370
    25
100
AcDbLine
 10
-18.29999999999973
 20
-10.08166653013631
 30
0.0
 11
-18.30000000000018
 21
-14.50000000124578
 31
0.0
  0
LINE
  5
1FF
330
122
100
AcDbEntity
  8
K-1
  6
ByBlock
 62
     6
370
    25
100
AcDbLine
 10
-18.30000000000018
 20
10.08166652763248
 30
0.0
 11
-18.30000000000018
 21
21.99999999875036
 31
0.0
  0
LINE
  5
200
330
122
100
AcDbEntity
  8
K-1
  6
ByBlock
 62
     6
370
    25
100
AcDbLine
 10
-74.96891108675481
 20
15.88433043877126
 30
0.0
 11
-74.96891108675481
 21
-15.88433044127055
 31
0.0
  0
SPLINE
  5
201
330
122
100
AcDbEntity
  8
K-1
  6
ByBlock
 62
     6
100
AcDbSpline
210
0.0
220
0.0
230
1.0
 70
     8
 71
     3
 72
     8
 73
     4
 74
     0
 42
0.000000001
 43
0.0000000001
 40
2.083023669349866
 40
2.083023669349866
 40
2.083023669349866
 40
2.083023669349866
 40
3.226331374274217
 40
3.226331374274217
 40
3.226331374274217
 40
3.226331374274217
 10
-25.2149044880216
 20
-39.81785271291006
 30
0.0
 10
-24.4897210852605
 20
-39.83008500501865
 30
0.0
 10
-23.57772120553
 20
-39.84969905947469
 30
0.0
 10
-22.37636702332839
 20
-39.88074649887494
 30
0.0
  0
SPLINE
  5
202
330
122
100
AcDbEntity
  8
K-1
  6
ByBlock
 62
     6
370
    25
100
AcDbSpline
210
0.0
220
0.0
230
1.0
 70
     8
 71
     3
 72
     9
 73
     5
 74
     0
 42
0.000000001
 43
0.0000000001
 40
9.94739641081021
 40
9.94739641081021
 40
9.94739641081021
 40
9.94739641081021
 40
11.05856542595162
 40
15.53048239386054
 40
15.53048239386054
 40
15.53048239386054
 40
15.53048239386054
 10
-22.37636702332839
 20
-39.88074649887494
 30
0.0
 10
-22.1519832281765
 20
-40.18325934000109
 30
0.0
 10
-21.07917444745635
 20
-41.73115138356024
 30
0.0
 10
-20.47995794197504
 20
-43.50527533272201
 30
0.0
 10
-19.99999999999545
 20
-44.92630574771396
 30
0.0
  0
LINE
  5
203
330
122
100
AcDbEntity
  8
K-1
  6
ByBlock
 62
     6
370
    25
100
AcDbLine
 10
-26.1980390271774
 20
-38.81799494490974
 30
0.0
 11
-26.1980390271774
 21
-35.75040042470277
 31
0.0
  0
ARC
  5
204
330
122
100
AcDbEntity
  8
K-1
  6
ByBlock
 62
     6
370
    25
100
AcDbCircle
 10
-25.19803902717922
 20
-38.81799494491156
 30
0.0
 40
1.0
100
AcDbArc
 50
179.9999999999088
 51
269.0336344576673
  0
LINE
  5
205
330
122
100
AcDbEntity
  8
K-1
  6
ByBlock
 62
     6
370
    25
100
AcDbLine
 10
7.8303109023459
 20
-27.00534418085386
 30
0.0
 11
-5.830310902351811
 21
-27.00534418085386
 31
0.0
  0
ARC
  5
206
330
122
100
AcDbEntity
  8
K-1
  6
PHANTOM
 62
     5
100
AcDbCircle
 10
-54.99999999999954
 20
-52.00000000000023
 30
0.0
 40
30.0
100
AcDbArc
 50
339.2164404041182
 51
20.78355959588176
  0
ARC
  5
207
330
122
100
AcDbEntity
  8
K-1
  6
PHANTOM
 62
     5
100
AcDbCircle
 10
-26.01724650762071
 20
-63.0
 30
0.0
 40
1.0
100
AcDbArc
 50
159.2164404041182
 51
270.0
  0
ARC
  5
208
330
122
100
AcDbEntity
  8
K-1
  6
PHANTOM
 62
     5
100
AcDbCircle
 10
-26.01724650762071
 20
-41.0
 30
0.0
 40
1.0
100
AcDbArc
 50
90.0
 51
200.7835595958818
  0
ENDBLK
  5
209
330
122
100
AcDbEntity
  8
0
 62
     0
100
AcDbBlockEnd
  0
BLOCK
  5
2A0
330
29F
100
AcDbEntity
  8
0
 62
     0
100
AcDbBlockBegin
  2
BCB4-25_A
 70
     0
 10
0.0
 20
0.0
 30
0.0
  3
BCB4-25_A
  1

  0
LINE
  5
2A1
330
29F
100
AcDbEntity
  8
K-1
  6
ByBlock
 62
     0
370
    25
100
AcDbLine
 10
3.799999999999954
 20
1.143274706497606
 30
0.0
 11
3.799999999999954
 21
0.0
 31
0.0
  0
LINE
  5
2A2
330
29F
100
AcDbEntity
  8
K-1
  6
ByBlock
 62
     0
370
    25
100
AcDbLine
 10
-3.799999999999954
 20
1.143274706497606
 30
0.0
 11
-3.799999999999954
 21
0.0
 31
0.0
  0
LINE
  5
2A3
330
29F
100
AcDbEntity
  8
K-1
  6
ByBlock
 62
     0
370
    25
100
AcDbLine
 10
3.799999999999954
 20
0.0
 30
0.0
 11
-3.799999999999954
 21
0.0
 31
0.0
  0
LINE
  5
2A4
330
29F
100
AcDbEntity
  8
K-1
  6
ByBlock
 62
     0
370
    25
100
AcDbLine
 10
1.873499399519459
 20
2.199999999999988
 30
0.0
 11
-1.873499399519459
 21
2.199999999999988
 31
0.0
  0
LINE
  5
2A5
330
29F
100
AcDbEntity
  8
K-1
  6
ByBlock
 62
     0
370
    25
100
AcDbLine
 10
-1.5
 20
-25.0
 30
0.0
 11
1.5
 21
-25.0
 31
0.0
  0
LINE
  5
2A6
330
29F
100
AcDbEntity
  8
K-1
  6
ByBlock
 62
     0
370
    25
100
AcDbLine
 10
2.0
 20
-24.5
 30
0.0
 11
1.5
 21
-25.0
 31
0.0
  0
LINE
  5
2A7
330
29F
100
AcDbEntity
  8
K-1
  6
ByBlock
 62
     0
370
    25
100
AcDbLine
 10
-2.0
 20
0.0
 30
0.0
 11
-2.0
 21
-24.5
 31
0.0
  0
LINE
  5
2A8
330
29F
100
AcDbEntity
  8
K-1
  6
ByBlock
 62
     0
370
    25
100
AcDbLine
 10
-1.5
 20
-25.0
 30
0.0
 11
-2.0
 21
-24.5
 31
0.0
  0
LINE
  5
2A9
330
29F
100
AcDbEntity
  8
K-1
  6
ByBlock
 62
     0
370
    25
100
AcDbLine
 10
2.0
 20
-24.5
 30
0.0
 11
2.0
 21
0.0
 31
0.0
  0
LINE
  5
2AA
330
29F
100
AcDbEntity
  8
K-1
  6
ByBlock
 62
     6
370
    25
100
AcDbLine
 10
2.0
 20
-0.7071796769722596
 30
0.0
 11
1.599999999999909
 21
-1.399999999999977
 31
0.0
  0
LINE
  5
2AB
330
29F
100
AcDbEntity
  8
K-1
  6
ByBlock
 62
     6
370
    25
100
AcDbLine
 10
1.599999999999909
 20
-1.399999999999977
 30
0.0
 11
1.599999999999909
 21
-24.89999999999998
 31
0.0
  0
LINE
  5
2AC
330
29F
100
AcDbEntity
  8
K-1
  6
ByBlock
 62
     0
370
    25
100
AcDbLine
 10
2.0
 20
-24.5
 30
0.0
 11
-2.0
 21
-24.5
 31
0.0
  0
LINE
  5
2AD
330
29F
100
AcDbEntity
  8
K-1
  6
ByBlock
 62
     0
370
    25
100
AcDbLine
 10
2.0
 20
-1.399999999999977
 30
0.0
 11
-2.0
 21
-1.399999999999977
 31
0.0
  0
LINE
  5
2AE
330
29F
100
AcDbEntity
  8
K-1
  6
ByBlock
 62
     6
370
    25
100
AcDbLine
 10
-2.0
 20
-0.7071796769722596
 30
0.0
 11
-1.599999999999909
 21
-1.399999999999977
 31
0.0
  0
LINE
  5
2AF
330
29F
100
AcDbEntity
  8
K-1
  6
ByBlock
 62
     6
370
    25
100
AcDbLine
 10
-1.599999999999909
 20
-1.399999999999977
 30
0.0
 11
-1.599999999999909
 21
-24.89999999999998
 31
0.0
  0
ARC
  5
2B0
330
29F
100
AcDbEntity
  8
K-1
  6
ByBlock
 62
     0
370
    25
100
AcDbCircle
 10
0.0
 20
-3.5
 30
0.0
 40
6.0
100
AcDbArc
 50
108.1948723387613
 51
129.2964802391787
  0
ARC
  5
2B1
330
29F
100
AcDbEntity
  8
K-1
  6
ByBlock
 62
     0
370
    25
100
AcDbCircle
 10
0.0
 20
-3.5
 30
0.0
 40
6.0
100
AcDbArc
 50
50.70351976082126
 51
71.80512766123872
  0
ENDBLK
  5
2B2
330
29F
100
AcDbEntity
  8
0
 62
     0
100
AcDbBlockEnd
  0
BLOCK
  5
A4
330
A1
100
AcDbEntity
  8
0
 62
     0
100
AcDbBlockBegin
  2
配布先表
 70
     0
 10
0.0
 20
0.0
 30
0.0
  3
配布先表
  1

  0
LWPOLYLINE
  5
A5
330
A1
100
AcDbEntity
  8
0
 62
     6
100
AcDbPolyline
 90
        2
 70
     0
 43
0.0
 10
0.0
 20
21.24999999999997
 10
-12.0
 20
21.24999999999997
  0
LWPOLYLINE
  5
A6
330
A1
100
AcDbEntity
  8
0
 62
     6
100
AcDbPolyline
 90
        2
 70
     0
 43
0.0
 10
0.0
 20
15.99999999999997
 10
-12.0
 20
15.99999999999997
  0
LWPOLYLINE
  5
A7
330
A1
100
AcDbEntity
  8
0
 62
     6
100
AcDbPolyline
 90
        2
 70
     0
 43
0.0
 10
0.0
 20
10.99999999999994
 10
-12.0
 20
10.99999999999994
  0
LWPOLYLINE
  5
A8
330
A1
100
AcDbEntity
  8
0
 62
     6
100
AcDbPolyline
 90
        2
 70
     0
 43
0.0
 10
0.0
 20
5.499999999999971
 10
-12.0
 20
5.499999999999971
  0
LINE
  5
A9
330
A1
100
AcDbEntity
  8
0
 62
     6
100
AcDbLine
 10
-5.0
 20
21.24999999999997
 30
0.0
 11
-5.0
 21
-0.0000000000000142
 31
0.0
  0
TEXT
  5
AA
330
A1
100
AcDbEntity
  8
A3WAKU
 62
    11
100
AcDbText
 10
-11.0
 20
22.37499999999997
 30
0.0
 40
3.0
  1
配布先
  7
K1
 72
     4
 11
-6.0
 21
23.87499999999997
 31
0.0
100
AcDbText
  0
TEXT
  5
AB
330
A1
100
AcDbEntity
  8
A3WAKU
 62
    11
100
AcDbText
 10
-11.16666666666666
 20
17.37499999999997
 30
0.0
 40
2.5
  1
資材
  7
K1
 72
     4
 11
-8.5
 21
18.62499999999997
 31
0.0
100
AcDbText
  0
TEXT
  5
AC
330
A1
100
AcDbEntity
  8
A3WAKU
 62
    11
100
AcDbText
 10
-11.16666666666667
 20
12.24999999999994
 30
0.0
 40
2.5
  1
製造
  7
K1
 72
     4
 11
-8.5
 21
13.49999999999994
 31
0.0
100
AcDbText
  0
CIRCLE
  5
AD
330
A1
100
AcDbEntity
  8
A3WAKU
 62
    11
100
AcDbCircle
 10
-2.5
 20
18.62499999999997
 30
0.0
 40
1.25
  0
CIRCLE
  5
AE
330
A1
100
AcDbEntity
  8
A3WAKU
 62
    11
100
AcDbCircle
 10
-2.5
 20
13.49999999999994
 30
0.0
 40
1.25
  0
LINE
  5
AF
330
A1
100
AcDbEntity
  8
0
 62
     4
100
AcDbLine
 10
0.0
 20
26.5
 30
0.0
 11
-11.99999999999977
 21
26.5
 31
0.0
  0
LINE
  5
B0
330
A1
100
AcDbEntity
  8
0
 62
     4
100
AcDbLine
 10
-11.99999999999977
 20
-0.0000000000000142
 30
0.0
 11
-11.99999999999977
 21
26.49999999999999
 31
0.0
  0
ENDBLK
  5
B1
330
A1
100
AcDbEntity
  8
0
 62
     0
100
AcDbBlockEnd
  0
BLOCK
  5
B6
330
B3
100
AcDbEntity
  8
0
 62
     0
100
AcDbBlockBegin
  2
普通公差&規格表
 70
     0
 10
0.0
 20
0.0
 30
0.0
  3
普通公差&規格表
  1

  0
LINE
  5
B7
330
B3
100
AcDbEntity
  8
0
 62
     4
100
AcDbLine
 10
0.0
 20
26.50000000000003
 30
0.0
 11
-35.0
 21
26.50000000000003
 31
0.0
  0
LINE
  5
B8
330
B3
100
AcDbEntity
  8
0
 62
     4
100
AcDbLine
 10
-46.99999999999977
 20
26.50000000000003
 30
0.0
 11
-72.99999999999977
 21
26.50000000000003
 31
0.0
  0
LINE
  5
B9
330
B3
100
AcDbEntity
  8
0
 62
     4
100
AcDbLine
 10
-35.0
 20
0.0000000000000284
 30
0.0
 11
-35.0
 21
26.50000000000003
 31
0.0
  0
LINE
  5
BA
330
B3
100
AcDbEntity
  8
K-1
  6
ByBlock
 62
     6
100
AcDbLine
 10
-46.99999999999977
 20
21.24999999999992
 30
0.0
 11
-67.99999999999977
 21
21.24999999999992
 31
0.0
  0
LINE
  5
BB
330
B3
100
AcDbEntity
  8
K-1
  6
ByBlock
 62
     6
100
AcDbLine
 10
-46.99999999999977
 20
15.99999999999991
 30
0.0
 11
-67.99999999999977
 21
15.99999999999991
 31
0.0
  0
LINE
  5
BC
330
B3
100
AcDbEntity
  8
K-1
  6
ByBlock
 62
     6
100
AcDbLine
 10
-46.99999999999977
 20
11.10000000000005
 30
0.0
 11
-67.99999999999977
 21
11.10000000000005
 31
0.0
  0
LINE
  5
BD
330
B3
100
AcDbEntity
  8
K-1
  6
ByBlock
 62
     6
100
AcDbLine
 10
-46.99999999999977
 20
5.500000000000028
 30
0.0
 11
-67.99999999999977
 21
5.500000000000028
 31
0.0
  0
LINE
  5
BE
330
B3
100
AcDbEntity
  8
K-1
  6
ByBlock
 62
     6
100
AcDbLine
 10
-67.99999999999977
 20
0.0000000000000284
 30
0.0
 11
-67.99999999999977
 21
26.50000000000003
 31
0.0
  0
LINE
  5
BF
330
B3
100
AcDbEntity
  8
K-1
  6
ByBlock
 62
     6
100
AcDbLine
 10
-56.99999999999977
 20
26.50000000000003
 30
0.0
 11
-56.99999999999977
 21
0.0000000000000284
 31
0.0
  0
TEXT
  5
C0
330
B3
100
AcDbEntity
  8
K-1
  6
ByBlock
 62
     6
100
AcDbText
 10
-68.99999999999977
 20
1.560791195882899
 30
0.0
 40
3.0
  1
普通公差（単位mm）
 50
90.0
 41
0.7
  7
K1
100
AcDbText
  0
TEXT
  5
C1
330
B3
100
AcDbEntity
  8
K-1
  6
ByBlock
 62
     6
100
AcDbText
 10
-65.49999999999977
 20
21.84999999999994
 30
0.0
 40
1.8
  1
6 以下
 41
0.8
  7
K1
100
AcDbText
  0
TEXT
  5
C2
330
B3
100
AcDbEntity
  8
K-1
  6
ByBlock
 62
     6
100
AcDbText
 10
-65.99999999999977
 20
18.69999999999996
 30
0.0
 40
1.8
  1
6 を超え
 41
0.8
  7
K1
100
AcDbText
  0
TEXT
  5
C3
330
B3
100
AcDbEntity
  8
K-1
  6
ByBlock
 62
     6
100
AcDbText
 10
-65.99999999999977
 20
16.29999999999998
 30
0.0
 40
1.8
  1
30 以下
 41
0.8
  7
K1
100
AcDbText
  0
TEXT
  5
C4
330
B3
100
AcDbEntity
  8
K-1
  6
ByBlock
 62
     6
100
AcDbText
 10
-66.49999999999977
 20
13.80000000000009
 30
0.0
 40
1.8
  1
30 を超え
 41
0.8
  7
K1
100
AcDbText
  0
TEXT
  5
C5
330
B3
100
AcDbEntity
  8
K-1
  6
ByBlock
 62
     6
100
AcDbText
 10
-66.49999999999977
 20
11.40000000000012
 30
0.0
 40
1.8
  1
120 以下
 41
0.8
  7
K1
100
AcDbText
  0
TEXT
  5
C6
330
B3
100
AcDbEntity
  8
K-1
  6
ByBlock
 62
     6
100
AcDbText
 10
-66.49999999999977
 20
8.500000000000028
 30
0.0
 40
1.8
  1
120 を超え
 41
0.7
  7
K1
100
AcDbText
  0
TEXT
  5
C7
330
B3
100
AcDbEntity
  8
K-1
  6
ByBlock
 62
     6
100
AcDbText
 10
-66.49999999999977
 20
6.100000000000051
 30
0.0
 40
1.8
  1
400 以下
 41
0.7
  7
K1
100
AcDbText
  0
TEXT
  5
C8
330
B3
100
AcDbEntity
  8
K-1
  6
ByBlock
 62
     6
100
AcDbText
 10
-66.49999999999977
 20
2.900000000000005
 30
0.0
 40
1.8
  1
400 を超え
 41
0.7
  7
K1
100
AcDbText
  0
TEXT
  5
C9
330
B3
100
AcDbEntity
  8
K-1
  6
ByBlock
 62
     6
100
AcDbText
 10
-66.49999999999977
 20
0.5000000000000285
 30
0.0
 40
1.8
  1
1000 以下
 41
0.7
  7
K1
100
AcDbText
  0
TEXT
  5
CA
330
B3
100
AcDbEntity
  8
K-1
  6
ByBlock
 62
     6
100
AcDbText
 10
-55.99999999999977
 20
22.24999999999992
 30
0.0
 40
3.0
  1
\U+00B10.1
 41
0.8
  7
K1
100
AcDbText
  0
TEXT
  5
CB
330
B3
100
AcDbEntity
  8
K-1
  6
ByBlock
 62
     6
100
AcDbText
 10
-55.99999999999977
 20
16.99999999999991
 30
0.0
 40
3.0
  1
\U+00B10.2
 41
0.8
  7
K1
100
AcDbText
  0
TEXT
  5
CC
330
B3
100
AcDbEntity
  8
K-1
  6
ByBlock
 62
     6
100
AcDbText
 10
-55.99999999999977
 20
12.10000000000005
 30
0.0
 40
3.0
  1
\U+00B10.3
 41
0.8
  7
K1
100
AcDbText
  0
TEXT
  5
CD
330
B3
100
AcDbEntity
  8
K-1
  6
ByBlock
 62
     6
100
AcDbText
 10
-55.99999999999977
 20
6.500000000000028
 30
0.0
 40
3.0
  1
\U+00B10.5
 41
0.8
  7
K1
100
AcDbText
  0
TEXT
  5
CE
330
B3
100
AcDbEntity
  8
K-1
  6
ByBlock
 62
     6
100
AcDbText
 10
-55.99999999999977
 20
0.9000000000000056
 30
0.0
 40
3.0
  1
\U+00B10.8
 41
0.8
  7
K1
100
AcDbText
  0
TEXT
  5
CF
330
B3
100
AcDbEntity
  8
A3WAKU
  6
ByBlock
 62
    11
100
AcDbText
 10
-34.15579945824334
 20
5.918102299532819
 30
0.0
 40
2.0
  1
WEIGHT,　質量
 41
0.6
  7
K1
100
AcDbText
  0
TEXT
  5
D0
330
B3
100
AcDbEntity
  8
A3WAKU
  6
ByBlock
 62
    11
100
AcDbText
 10
-33.83638496479103
 20
14.877584418514
 30
0.0
 40
2.0
  1
REMARK,　摘要
 41
0.6
  7
K1
100
AcDbText
  0
TEXT
  5
D1
330
B3
100
AcDbEntity
  8
A3WAKU
  6
ByBlock
 62
    11
100
AcDbText
 10
-34.09838126990531
 20
23.65300136638916
 30
0.0
 40
2.0
  1
MATERIAL,　材料(規格)
 41
0.6
  7
K1
100
AcDbText
  0
LINE
  5
D2
330
B3
100
AcDbEntity
  8
0
  6
ByBlock
 62
     4
100
AcDbLine
 10
-35.0
 20
8.830000000000026
 30
0.0
 11
0.0
 21
8.829999999999998
 31
0.0
  0
LINE
  5
D3
330
B3
100
AcDbEntity
  8
0
  6
ByBlock
 62
     4
100
AcDbLine
 10
-35.0
 20
17.66000000000002
 30
0.0
 11
0.0
 21
17.66
 31
0.0
  0
LINE
  5
D4
330
B3
100
AcDbEntity
  8
0
 62
     4
100
AcDbLine
 10
-72.99999999999977
 20
0.0000000000000284
 30
0.0
 11
-72.99999999999977
 21
26.50000000000003
 31
0.0
  0
TEXT
  5
D5
330
B3
100
AcDbEntity
  8
K-1
  6
ByBlock
 62
     0
100
AcDbText
 10
-4.006592967263486
 20
1.295768965381455
 30
0.0
 40
2.0
  1
kg
 41
0.8
  7
K1
100
AcDbText
  0
ENDBLK
  5
D6
330
B3
100
AcDbEntity
  8
0
 62
     0
100
AcDbBlockEnd
  0
BLOCK
  5
9F
330
9C
100
AcDbEntity
  8
0
100
AcDbBlockBegin
  2
WAKUA3_ver.1
 70
     0
 10
0.0
 20
0.0
 30
0.0
  3
WAKUA3_ver.1
  1

  0
INSERT
  5
A0
330
9C
100
AcDbEntity
  8
0
  6
ByBlock
 62
     0
100
AcDbBlockReference
  2
配布先表
 10
247.9999999999982
 20
6.500000000001818
 30
0.0
  0
INSERT
  5
B2
330
9C
100
AcDbEntity
  8
0
  6
ByBlock
 62
     0
100
AcDbBlockReference
  2
普通公差&規格表
 10
282.9999999999982
 20
6.500000000001762
 30
0.0
  0
INSERT
  5
D7
330
9C
100
AcDbEntity
  8
K-1
  6
ByBlock
 62
     0
100
AcDbBlockReference
  2
WAKUA3
 10
0.0
 20
0.0
 30
0.0
  0
ENDBLK
  5
11F
330
9C
100
AcDbEntity
  8
0
100
AcDbBlockEnd
  0
BLOCK
  5
D9
330
D8
100
AcDbEntity
  8
0
 62
     0
100
AcDbBlockBegin
  2
WAKUA3
 70
     0
 10
0.0
 20
0.0
 30
0.0
  3
WAKUA3
  1

  0
POLYLINE
  5
DA
330
D8
100
AcDbEntity
  8
0
 62
     4
100
AcDb2dPolyline
 66
     1
 10
0.0
 20
0.0
 30
0.0
 70
     1
  0
VERTEX
  5
DB
330
DA
100
AcDbEntity
  8
0
 62
     4
100
AcDbVertex
100
AcDb2dVertex
 10
0.0
 20
285.0000000000004
 30
0.0
  0
VERTEX
  5
DC
330
DA
100
AcDbEntity
  8
0
 62
     4
100
AcDbVertex
100
AcDb2dVertex
 10
0.0
 20
6.50000000000216
 30
0.0
  0
VERTEX
  5
DD
330
DA
100
AcDbEntity
  8
0
 62
     4
100
AcDbVertex
100
AcDb2dVertex
 10
408.0
 20
6.50000000000216
 30
0.0
  0
VERTEX
  5
DE
330
DA
100
AcDbEntity
  8
0
 62
     4
100
AcDbVertex
100
AcDb2dVertex
 10
408.0
 20
285.0000000000004
 30
0.0
  0
SEQEND
  5
DF
330
DA
100
AcDbEntity
  8
0
 62
     4
  0
LWPOLYLINE
  5
E0
330
D8
100
AcDbEntity
  8
0
 62
     4
100
AcDbPolyline
 90
        3
 70
     0
 43
0.0
 10
333.0999999999985
 20
33.00000000000222
 10
333.0999999999985
 20
42.00000000000218
 10
407.9999999999982
 20
42.00000000000218
  0
TEXT
  5
E1
330
D8
100
AcDbEntity
  8
A3WAKU
 62
    11
100
AcDbText
 10
333.7999999999984
 20
39.35000000000215
 30
0.0
 40
2.0
  1
ＪＯＢ　ＮＯ．工事記号
 41
0.5412371134020617
  7
K1
 72
     5
 11
347.7999999999984
 21
39.35000000000215
 31
0.0
100
AcDbText
  0
LINE
  5
E2
330
D8
100
AcDbEntity
  8
0
 62
     6
100
AcDbLine
 10
379.9999999999986
 20
33.00000000000222
 30
0.0
 11
379.9999999999986
 21
42.00000000000222
 31
0.0
  0
TEXT
  5
E3
330
D8
100
AcDbEntity
  8
A3WAKU
 62
    11
100
AcDbText
 10
361.7999999999984
 20
39.34999999999997
 30
0.0
 40
2.0
  1
ＡＭＴ.所要数（個）
 41
0.6702127659574466
  7
K1
 72
     5
 11
375.7999999999984
 21
39.34999999999997
 31
0.0
100
AcDbText
  0
LINE
  5
E4
330
D8
100
AcDbEntity
  8
0
 62
     6
100
AcDbLine
 10
361.0999999999985
 20
33.0
 30
0.0
 11
361.0999999999985
 21
42.0
 31
0.0
  0
TEXT
  5
E5
330
D8
100
AcDbEntity
  8
A3WAKU
 62
    11
100
AcDbText
 10
380.6999999999984
 20
39.35000000000218
 30
0.0
 40
2.0
  1
DATE.
 41
0.7297297297297299
  7
K1
 72
     5
 11
386.6999999999984
 21
39.35000000000218
 31
0.0
100
AcDbText
  0
LINE
  5
E6
330
D8
100
AcDbEntity
  8
0
 62
     4
100
AcDbLine
 10
282.9999999999982
 20
22.50000000000216
 30
0.0
 11
407.9999999999982
 21
22.50000000000216
 31
0.0
  0
LINE
  5
E7
330
D8
100
AcDbEntity
  8
0
 62
     4
100
AcDbLine
 10
407.9999999999982
 20
33.00000000000222
 30
0.0
 11
282.9999999999982
 21
33.00000000000222
 31
0.0
  0
TEXT
  5
E8
330
D8
100
AcDbEntity
  8
A3WAKU
 62
    11
100
AcDbText
 10
334.3830353660719
 20
19.80000000000217
 30
0.0
 40
2.0
  1
ＤＲＡＷＩＮＧ　ＮＯ．図番
 41
0.6847826086956524
  7
K1
 72
     5
 11
355.3830353660719
 21
19.80000000000217
 31
0.0
100
AcDbText
  0
TEXT
  5
E9
330
D8
100
AcDbEntity
  8
A3WAKU
 62
    11
100
AcDbText
 10
311.6999999999984
 20
30.20000000000226
 30
0.0
 40
2.099999999999999
  1
ＴＩＴＬＥ．　図名
 41
0.6369426751592361
  7
K1
 72
     5
 11
325.6999999999985
 21
30.20000000000226
 31
0.0
100
AcDbText
  0
TEXT
  5
EA
330
D8
100
AcDbEntity
  8
A3WAKU
 62
    11
100
AcDbText
 10
283.9380182786479
 20
29.20851709987778
 30
0.0
 40
2.0
  1
３ＲＤ　ＡＮＧＬＥ　ＰＲＯＪＥＣＴ　第３角法
 41
0.4864278719904451
  7
K1
 72
     5
 11
309.3619817213485
 21
29.20851709987778
 31
0.0
100
AcDbText
  0
TEXT
  5
EB
330
D8
100
AcDbEntity
  8
A3WAKU
 62
    11
100
AcDbText
 10
283.9380182786479
 20
23.95851709987772
 30
0.0
 40
2.0
  1
ＳＣＡＬＥ
 41
0.7818055772304641
  7
K1
 72
     5
 11
292.5899999999984
 21
23.95851709987772
 31
0.0
100
AcDbText
  0
TEXT
  5
EC
330
D8
100
AcDbEntity
  8
A3WAKU
 62
    11
100
AcDbText
 10
316.7499999999982
 20
20.55000000000217
 30
0.0
 40
1.5
  1
ＡＰＰＲ\U+2019Ｄ．ＢＹ
 41
0.6019108280254658
  7
K1
 72
     5
 11
326.199999999998
 21
20.55000000000217
 31
0.0
100
AcDbText
  0
TEXT
  5
ED
330
D8
100
AcDbEntity
  8
A3WAKU
 62
    11
100
AcDbText
 10
283.3499999999981
 20
20.55000000000214
 30
0.0
 40
1.5
  1
ＤＥＳ．ＢＹ
 41
0.7815533980582479
  7
K1
 72
     5
 11
291.3999999999981
 21
20.55000000000214
 31
0.0
100
AcDbText
  0
TEXT
  5
EE
330
D8
100
AcDbEntity
  8
A3WAKU
 62
    11
100
AcDbText
 10
300.0499999999981
 20
20.55000000000217
 30
0.0
 40
1.5
  1
ＣＨＫ．ＢＹ
 41
0.7815533980582483
  7
K1
 72
     5
 11
308.0999999999981
 21
20.55000000000217
 31
0.0
100
AcDbText
  0
LINE
  5
EF
330
D8
100
AcDbEntity
  8
0
 62
     4
100
AcDbLine
 10
333.0999999999985
 20
22.50000000000216
 30
0.0
 11
333.0999999999985
 21
6.500000000002174
 31
0.0
  0
LINE
  5
F0
330
D8
100
AcDbEntity
  8
0
 62
     4
100
AcDbLine
 10
310.9999999999982
 20
22.50000000000216
 30
0.0
 11
310.9999999999982
 21
33.00000000000222
 31
0.0
  0
LINE
  5
F1
330
D8
100
AcDbEntity
  8
0
 62
     4
100
AcDbLine
 10
310.9999999999982
 20
27.75000000000222
 30
0.0
 11
282.9999999999982
 21
27.75000000000222
 31
0.0
  0
LINE
  5
F2
330
D8
100
AcDbEntity
  8
0
 62
     4
100
AcDbLine
 10
282.9999999999982
 20
6.500000000002188
 30
0.0
 11
282.9999999999982
 21
33.00000000000219
 31
0.0
  0
LINE
  5
F3
330
D8
100
AcDbEntity
  8
K-1
  6
ByBlock
 62
     6
100
AcDbLine
 10
316.3999999999983
 20
6.500000000002188
 30
0.0
 11
316.3999999999983
 21
22.50000000000216
 31
0.0
  0
LINE
  5
F4
330
D8
100
AcDbEntity
  8
K-1
  6
ByBlock
 62
     6
100
AcDbLine
 10
299.6999999999982
 20
6.500000000002188
 30
0.0
 11
299.6999999999982
 21
22.50000000000216
 31
0.0
  0
LINE
  5
F5
330
D8
100
AcDbEntity
  8
0
 62
     6
100
AcDbLine
 10
407.9999999999982
 20
255.0000000000022
 30
0.0
 11
406.9999999999981
 21
255.0000000000022
 31
0.0
  0
LINE
  5
F6
330
D8
100
AcDbEntity
  8
0
 62
     6
100
AcDbLine
 10
407.9999999999982
 20
249.0000000000022
 30
0.0
 11
406.9999999999981
 21
249.0000000000022
 31
0.0
  0
LINE
  5
F7
330
D8
100
AcDbEntity
  8
0
 62
     6
100
AcDbLine
 10
407.9999999999982
 20
243.0000000000022
 30
0.0
 11
406.9999999999981
 21
243.0000000000022
 31
0.0
  0
LINE
  5
F8
330
D8
100
AcDbEntity
  8
0
 62
     6
100
AcDbLine
 10
407.9999999999982
 20
237.0000000000022
 30
0.0
 11
406.9999999999981
 21
237.0000000000022
 31
0.0
  0
LINE
  5
F9
330
D8
100
AcDbEntity
  8
0
 62
     6
100
AcDbLine
 10
407.9999999999982
 20
231.0000000000022
 30
0.0
 11
406.9999999999981
 21
231.0000000000022
 31
0.0
  0
LINE
  5
FA
330
D8
100
AcDbEntity
  8
0
 62
     6
100
AcDbLine
 10
407.9999999999982
 20
225.0000000000022
 30
0.0
 11
406.9999999999981
 21
225.0000000000022
 31
0.0
  0
LINE
  5
FB
330
D8
100
AcDbEntity
  8
0
 62
     6
100
AcDbLine
 10
407.9999999999982
 20
219.0000000000022
 30
0.0
 11
406.9999999999981
 21
219.0000000000022
 31
0.0
  0
LINE
  5
FC
330
D8
100
AcDbEntity
  8
0
 62
     6
100
AcDbLine
 10
407.9999999999982
 20
213.0000000000022
 30
0.0
 11
406.9999999999981
 21
213.0000000000022
 31
0.0
  0
LINE
  5
FD
330
D8
100
AcDbEntity
  8
0
 62
     6
100
AcDbLine
 10
407.9999999999982
 20
207.0000000000022
 30
0.0
 11
406.9999999999981
 21
207.0000000000022
 31
0.0
  0
LINE
  5
FE
330
D8
100
AcDbEntity
  8
0
 62
     6
100
AcDbLine
 10
407.9999999999982
 20
201.0000000000022
 30
0.0
 11
406.9999999999981
 21
201.0000000000022
 31
0.0
  0
LINE
  5
FF
330
D8
100
AcDbEntity
  8
0
 62
     6
100
AcDbLine
 10
407.9999999999982
 20
195.0000000000022
 30
0.0
 11
406.9999999999981
 21
195.0000000000022
 31
0.0
  0
LINE
  5
100
330
D8
100
AcDbEntity
  8
0
 62
     6
100
AcDbLine
 10
407.9999999999982
 20
189.0000000000022
 30
0.0
 11
406.9999999999981
 21
189.0000000000022
 31
0.0
  0
LINE
  5
101
330
D8
100
AcDbEntity
  8
0
 62
     6
100
AcDbLine
 10
407.9999999999982
 20
183.0000000000022
 30
0.0
 11
406.9999999999981
 21
183.0000000000022
 31
0.0
  0
LINE
  5
102
330
D8
100
AcDbEntity
  8
0
 62
     6
100
AcDbLine
 10
407.9999999999982
 20
177.0000000000022
 30
0.0
 11
406.9999999999981
 21
177.0000000000022
 31
0.0
  0
LINE
  5
103
330
D8
100
AcDbEntity
  8
0
 62
     6
100
AcDbLine
 10
407.9999999999982
 20
171.0000000000022
 30
0.0
 11
406.9999999999981
 21
171.0000000000022
 31
0.0
  0
LINE
  5
104
330
D8
100
AcDbEntity
  8
0
 62
     6
100
AcDbLine
 10
407.9999999999982
 20
165.0000000000022
 30
0.0
 11
406.9999999999981
 21
165.0000000000022
 31
0.0
  0
LINE
  5
105
330
D8
100
AcDbEntity
  8
0
 62
     6
100
AcDbLine
 10
407.9999999999982
 20
159.0000000000022
 30
0.0
 11
406.9999999999981
 21
159.0000000000022
 31
0.0
  0
LINE
  5
106
330
D8
100
AcDbEntity
  8
0
 62
     6
100
AcDbLine
 10
407.9999999999982
 20
153.0000000000022
 30
0.0
 11
406.9999999999981
 21
153.0000000000022
 31
0.0
  0
LINE
  5
107
330
D8
100
AcDbEntity
  8
0
 62
     6
100
AcDbLine
 10
407.9999999999982
 20
147.0000000000022
 30
0.0
 11
406.9999999999981
 21
147.0000000000022
 31
0.0
  0
LINE
  5
108
330
D8
100
AcDbEntity
  8
0
 62
     6
100
AcDbLine
 10
407.9999999999982
 20
141.0000000000022
 30
0.0
 11
406.9999999999981
 21
141.0000000000022
 31
0.0
  0
LINE
  5
109
330
D8
100
AcDbEntity
  8
0
 62
     6
100
AcDbLine
 10
407.9999999999982
 20
123.0000000000022
 30
0.0
 11
406.9999999999981
 21
123.0000000000022
 31
0.0
  0
LINE
  5
10A
330
D8
100
AcDbEntity
  8
0
 62
     6
100
AcDbLine
 10
407.9999999999982
 20
117.0000000000022
 30
0.0
 11
406.9999999999981
 21
117.0000000000022
 31
0.0
  0
LINE
  5
10B
330
D8
100
AcDbEntity
  8
0
 62
     6
100
AcDbLine
 10
407.9999999999982
 20
111.0000000000022
 30
0.0
 11
406.9999999999981
 21
111.0000000000022
 31
0.0
  0
LINE
  5
10C
330
D8
100
AcDbEntity
  8
0
 62
     6
100
AcDbLine
 10
407.9999999999982
 20
105.0000000000022
 30
0.0
 11
406.9999999999981
 21
105.0000000000022
 31
0.0
  0
LINE
  5
10D
330
D8
100
AcDbEntity
  8
0
 62
     6
100
AcDbLine
 10
407.9999999999982
 20
99.00000000000222
 30
0.0
 11
406.9999999999981
 21
99.00000000000222
 31
0.0
  0
LINE
  5
10E
330
D8
100
AcDbEntity
  8
0
 62
     6
100
AcDbLine
 10
407.9999999999982
 20
93.00000000000222
 30
0.0
 11
406.9999999999981
 21
93.00000000000222
 31
0.0
  0
LINE
  5
10F
330
D8
100
AcDbEntity
  8
0
 62
     6
100
AcDbLine
 10
407.9999999999982
 20
87.00000000000221
 30
0.0
 11
406.9999999999981
 21
87.00000000000221
 31
0.0
  0
LINE
  5
110
330
D8
100
AcDbEntity
  8
0
 62
     6
100
AcDbLine
 10
407.9999999999982
 20
81.00000000000221
 30
0.0
 11
406.9999999999981
 21
81.00000000000221
 31
0.0
  0
LINE
  5
111
330
D8
100
AcDbEntity
  8
0
 62
     6
100
AcDbLine
 10
407.9999999999982
 20
75.00000000000222
 30
0.0
 11
406.9999999999981
 21
75.00000000000222
 31
0.0
  0
LINE
  5
112
330
D8
100
AcDbEntity
  8
0
 62
     6
100
AcDbLine
 10
407.9999999999982
 20
69.00000000000222
 30
0.0
 11
406.9999999999981
 21
69.00000000000222
 31
0.0
  0
LINE
  5
113
330
D8
100
AcDbEntity
  8
0
 62
     6
100
AcDbLine
 10
407.9999999999982
 20
63.00000000000221
 30
0.0
 11
406.9999999999981
 21
63.00000000000221
 31
0.0
  0
LINE
  5
114
330
D8
100
AcDbEntity
  8
0
 62
     6
100
AcDbLine
 10
407.9999999999982
 20
261.0000000000022
 30
0.0
 11
406.9999999999981
 21
261.0000000000022
 31
0.0
  0
LINE
  5
115
330
D8
100
AcDbEntity
  8
0
 62
     6
100
AcDbLine
 10
407.9999999999982
 20
267.0000000000022
 30
0.0
 11
406.9999999999981
 21
267.0000000000022
 31
0.0
  0
LINE
  5
116
330
D8
100
AcDbEntity
  8
0
 62
     6
100
AcDbLine
 10
407.9999999999982
 20
273.0000000000022
 30
0.0
 11
406.9999999999981
 21
273.0000000000022
 31
0.0
  0
LINE
  5
117
330
D8
100
AcDbEntity
  8
0
 62
     6
100
AcDbLine
 10
407.9999999999982
 20
279.0000000000022
 30
0.0
 11
406.9999999999981
 21
279.0000000000022
 31
0.0
  0
LINE
  5
118
330
D8
100
AcDbEntity
  8
0
 62
     6
100
AcDbLine
 10
407.9999999999982
 20
135.0000000000022
 30
0.0
 11
406.9999999999981
 21
135.0000000000022
 31
0.0
  0
LINE
  5
119
330
D8
100
AcDbEntity
  8
0
 62
     6
100
AcDbLine
 10
407.9999999999982
 20
129.0000000000022
 30
0.0
 11
406.9999999999981
 21
129.0000000000022
 31
0.0
  0
LINE
  5
11A
330
D8
100
AcDbEntity
  8
Sunpou
 62
     4
100
AcDbLine
 10
0.0
 20
0.0
 30
0.0
 11
407.9999999999995
 21
-0.000000000001819
 31
0.0
  0
ENDBLK
  5
11E
330
D8
100
AcDbEntity
  8
0
 62
     0
100
AcDbBlockEnd
  0
BLOCK
  5
3D6
330
3D3
100
AcDbEntity
  8
0
100
AcDbBlockBegin
  2
風船フォーマット1
 70
     2
 10
0.0
 20
0.0
 30
0.0
  3
風船フォーマット1
  1

  0
CIRCLE
  5
3D7
330
3D3
100
AcDbEntity
  8
SUNPO
100
AcDbCircle
 10
0.0
 20
0.0
 30
0.0
 40
7.500000000000027
  0
ATTDEF
  5
3D8
330
3D3
100
AcDbEntity
  8
SUNPO
 62
     0
100
AcDbText
 10
-0.0000000000090949
 20
0.000000000007276
 30
0.0
 40
6.599999999999999
  1

 41
0.8
  7
K1
 72
     4
 11
-0.0000000000090949
 21
0.000000000007276
 31
0.0
100
AcDbAttributeDefinition
  3
風船番号
  2
1
 70
     0
  0
ENDBLK
  5
3D9
330
3D3
100
AcDbEntity
  8
0
100
AcDbBlockEnd
  0
BLOCK
  5
2D6
330
2D5
100
AcDbEntity
  8
0
 62
     0
100
AcDbBlockBegin
  2
*D14
 70
     1
 10
0.0
 20
0.0
 30
0.0
  3
*D14
  1

  0
LINE
  5
2D7
330
2D5
100
AcDbEntity
  8
SUNPO
100
AcDbLine
 10
-82.93464924026636
 20
-1860.446497406102
 30
0.0
 11
-97.94576035137755
 21
-1860.446497406102
 31
0.0
  0
LINE
  5
2D8
330
2D5
100
AcDbEntity
  8
SUNPO
100
AcDbLine
 10
-97.94576035137755
 20
-1860.446497406102
 30
0.0
 11
-110.7394914344655
 21
-1872.196359397313
 31
0.0
  0
MTEXT
  5
2D9
330
2D5
100
AcDbEntity
  8
SUNPO
 62
     7
100
AcDbMText
 10
-89.69020479582207
 20
-1856.946497406102
 30
0.0
 40
4.0
 41
0.0
 71
     5
 72
     1
  1
\A1;3-%%c16
  7
K1
 73
     1
 44
1.0
1001
ACAD
1000
MTEXTBEGIN
1070
    73
1070
     1
1070
    44
1040
1.0
1070
    74
1070
     0
1000
MTEXTEND
  0
INSERT
  5
2DA
330
2D5
100
AcDbEntity
  8
SUNPO
100
AcDbBlockReference
  2
_Open30
 10
-112.9490366060496
 20
-1874.225622843673
 30
0.0
 41
3.0
 42
3.0
 43
3.0
 50
222.5646080374089
  0
POINT
  5
2DB
330
2D5
100
AcDbEntity
  8
Defpoints
 62
     0
100
AcDbPoint
 10
-112.9490366060496
 20
-1874.225622843673
 30
0.0
  0
POINT
  5
2DD
330
2D5
100
AcDbEntity
  8
Defpoints
 62
     0
100
AcDbPoint
 10
-124.7332775211645
 20
-1885.048361224255
 30
0.0
  0
ENDBLK
  5
2DE
330
2D5
100
AcDbEntity
  8
0
 62
     0
100
AcDbBlockEnd
  0
BLOCK
  5
2E6
330
2E5
100
AcDbEntity
  8
0
 62
     0
100
AcDbBlockBegin
  2
*D15
 70
     1
 10
0.0
 20
0.0
 30
0.0
  3
*D15
  1

  0
LINE
  5
2E7
330
2E5
100
AcDbEntity
  8
SUNPO
100
AcDbLine
 10
-129.8411570636073
 20
-1878.636992033964
 30
0.0
 11
-129.8411570636073
 21
-1859.26996650917
 31
0.0
  0
LINE
  5
2E8
330
2E5
100
AcDbEntity
  8
SUNPO
100
AcDbLine
 10
-107.8411570636073
 20
-1878.636992033964
 30
0.0
 11
-107.8411570636073
 21
-1859.26996650917
 31
0.0
  0
LINE
  5
2E9
330
2E5
100
AcDbEntity
  8
SUNPO
100
AcDbLine
 10
-126.8411570636073
 20
-1860.269966509169
 30
0.0
 11
-110.8411570636073
 21
-1860.269966509169
 31
0.0
  0
INSERT
  5
2EA
330
2E5
100
AcDbEntity
  8
SUNPO
100
AcDbBlockReference
  2
_Open30
 10
-129.8411570636073
 20
-1860.269966509169
 30
0.0
 41
3.0
 42
3.0
 43
3.0
 50
180.0
  0
INSERT
  5
2EB
330
2E5
100
AcDbEntity
  8
SUNPO
100
AcDbBlockReference
  2
_Open30
 10
-107.8411570636073
 20
-1860.269966509169
 30
0.0
 41
3.0
 42
3.0
 43
3.0
  0
MTEXT
  5
2EC
330
2E5
100
AcDbEntity
  8
SUNPO
 62
     7
100
AcDbMText
 10
-118.8411570636073
 20
-1856.769966509169
 30
0.0
 40
4.0
 41
0.0
 71
     5
 72
     1
  1
\A1;22
  7
K1
 73
     1
 44
1.0
1001
ACAD
1000
MTEXTBEGIN
1070
    73
1070
     1
1070
    44
1040
1.0
1070
    74
1070
     0
1000
MTEXTEND
  0
POINT
  5
2ED
330
2E5
100
AcDbEntity
  8
Defpoints
 62
     0
100
AcDbPoint
 10
-129.8411570636073
 20
-1879.636992033965
 30
0.0
  0
POINT
  5
2EE
330
2E5
100
AcDbEntity
  8
Defpoints
 62
     0
100
AcDbPoint
 10
-107.8411570636073
 20
-1879.636992033965
 30
0.0
  0
POINT
  5
2EF
330
2E5
100
AcDbEntity
  8
Defpoints
 62
     0
100
AcDbPoint
 10
-107.8411570636073
 20
-1860.269966509169
 30
0.0
  0
ENDBLK
  5
2F0
330
2E5
100
AcDbEntity
  8
0
 62
     0
100
AcDbBlockEnd
  0
BLOCK
  5
2F4
330
2F3
100
AcDbEntity
  8
0
 62
     0
100
AcDbBlockBegin
  2
*D16
 70
     1
 10
0.0
 20
0.0
 30
0.0
  3
*D16
  1

  0
LINE
  5
2F5
330
2F3
100
AcDbEntity
  8
SUNPO
100
AcDbLine
 10
-143.2570134665537
 20
-1862.239552128303
 30
0.0
 11
-130.2427955792639
 21
-1871.512791201987
 31
0.0
  0
MTEXT
  5
2F6
330
2F3
100
AcDbEntity
  8
SUNPO
 62
     7
100
AcDbMText
 10
-136.2400086378238
 20
-1862.941868418768
 30
0.0
 40
4.0
 41
0.0
 71
     5
 72
     1
  1
\A1;(R11)
  7
K1
 11
0.8144027511184518
 21
-0.5803000594267566
 31
0.0
 73
     1
 44
1.0
1001
ACAD
1000
MTEXTBEGIN
1070
    73
1070
     1
1070
    44
1040
1.0
1070
    74
1070
     0
1000
MTEXTEND
  0
LINE
  5
2F7
330
2F3
100
AcDbEntity
  8
SUNPO
100
AcDbLine
 10
-118.8411570636062
 20
-1879.636992033961
 30
0.0
 11
-127.7995873259085
 21
-1873.253691380267
 31
0.0
  0
INSERT
  5
2F8
330
2F3
100
AcDbEntity
  8
SUNPO
100
AcDbBlockReference
  2
_Open30
 10
-127.7995873259085
 20
-1873.253691380267
 30
0.0
 41
3.0
 42
3.0
 43
3.0
 50
324.5283500119427
  0
POINT
  5
2F9
330
2F3
100
AcDbEntity
  8
Defpoints
 62
     0
100
AcDbPoint
 10
-127.7995873259085
 20
-1873.253691380267
 30
0.0
  0
POINT
  5
2FA
330
2F3
100
AcDbEntity
  8
Defpoints
 62
     0
100
AcDbPoint
 10
-118.8411570636062
 20
-1879.636992033961
 30
0.0
  0
ENDBLK
  5
2FB
330
2F3
100
AcDbEntity
  8
0
 62
     0
100
AcDbBlockEnd
  0
BLOCK
  5
301
330
300
100
AcDbEntity
  8
0
 62
     0
100
AcDbBlockBegin
  2
*D17
 70
     1
 10
0.0
 20
0.0
 30
0.0
  3
*D17
  1

  0
LINE
  5
302
330
300
100
AcDbEntity
  8
SUNPO
100
AcDbLine
 10
23.95280900055025
 20
-1867.63699203408
 30
0.0
 11
23.95280900055025
 21
-1859.325155504954
 31
0.0
  0
LINE
  5
303
330
300
100
AcDbEntity
  8
SUNPO
100
AcDbLine
 10
28.45280900055025
 20
-1867.63699203408
 30
0.0
 11
28.45280900055025
 21
-1859.325155504954
 31
0.0
  0
LINE
  5
304
330
300
100
AcDbEntity
  8
SUNPO
100
AcDbLine
 10
20.95280900055024
 20
-1860.325155504954
 30
0.0
 11
17.95280900055024
 21
-1860.325155504954
 31
0.0
  0
LINE
  5
305
330
300
100
AcDbEntity
  8
SUNPO
100
AcDbLine
 10
31.45280900055025
 20
-1860.325155504954
 30
0.0
 11
44.2083645561058
 21
-1860.325155504954
 31
0.0
  0
LINE
  5
306
330
300
100
AcDbEntity
  8
SUNPO
100
AcDbLine
 10
23.95280900055025
 20
-1860.325155504954
 30
0.0
 11
28.45280900055025
 21
-1860.325155504954
 31
0.0
  0
INSERT
  5
307
330
300
100
AcDbEntity
  8
SUNPO
100
AcDbBlockReference
  2
_Open30
 10
23.95280900055025
 20
-1860.325155504954
 30
0.0
 41
3.0
 42
3.0
 43
3.0
  0
INSERT
  5
308
330
300
100
AcDbEntity
  8
SUNPO
100
AcDbBlockReference
  2
_Open30
 10
28.45280900055025
 20
-1860.325155504954
 30
0.0
 41
3.0
 42
3.0
 43
3.0
 50
180.0
  0
MTEXT
  5
309
330
300
100
AcDbEntity
  8
SUNPO
 62
     7
100
AcDbMText
 10
39.33058677832803
 20
-1856.825155504954
 30
0.0
 40
4.0
 41
0.0
 71
     5
 72
     1
  1
\A1;4.5
  7
K1
 73
     1
 44
1.0
1001
ACAD
1000
MTEXTBEGIN
1070
    73
1070
     1
1070
    44
1040
1.0
1070
    74
1070
     0
1000
MTEXTEND
  0
POINT
  5
30A
330
300
100
AcDbEntity
  8
Defpoints
 62
     0
100
AcDbPoint
 10
23.95280900055025
 20
-1868.63699203408
 30
0.0
  0
POINT
  5
30B
330
300
100
AcDbEntity
  8
Defpoints
 62
     0
100
AcDbPoint
 10
28.45280900055025
 20
-1868.63699203408
 30
0.0
  0
POINT
  5
30C
330
300
100
AcDbEntity
  8
Defpoints
 62
     0
100
AcDbPoint
 10
28.45280900055025
 20
-1860.325155504954
 30
0.0
  0
ENDBLK
  5
30D
330
300
100
AcDbEntity
  8
0
 62
     0
100
AcDbBlockEnd
  0
BLOCK
  5
312
330
311
100
AcDbEntity
  8
0
 62
     0
100
AcDbBlockBegin
  2
*D18
 70
     1
 10
0.0
 20
0.0
 30
0.0
  3
*D18
  1

  0
LINE
  5
313
330
311
100
AcDbEntity
  8
SUNPO
100
AcDbLine
 10
-124.3411570637859
 20
-1949.636992034065
 30
0.0
 11
-74.40584816671073
 21
-1949.636992034065
 31
0.0
  0
LINE
  5
314
330
311
100
AcDbEntity
  8
SUNPO
100
AcDbLine
 10
-101.8411570636073
 20
-1879.636992033965
 30
0.0
 11
-74.40584816671071
 21
-1879.636992033965
 31
0.0
  0
LINE
  5
315
330
311
100
AcDbEntity
  8
SUNPO
100
AcDbLine
 10
-75.40584816671072
 20
-1946.636992034066
 30
0.0
 11
-75.40584816671071
 21
-1882.636992033965
 31
0.0
  0
INSERT
  5
316
330
311
100
AcDbEntity
  8
SUNPO
100
AcDbBlockReference
  2
_Open30
 10
-75.40584816671072
 20
-1949.636992034065
 30
0.0
 41
3.0
 42
3.0
 43
3.0
 50
270.0
  0
INSERT
  5
317
330
311
100
AcDbEntity
  8
SUNPO
100
AcDbBlockReference
  2
_Open30
 10
-75.40584816671071
 20
-1879.636992033965
 30
0.0
 41
3.0
 42
3.0
 43
3.0
 50
90.0
  0
MTEXT
  5
318
330
311
100
AcDbEntity
  8
SUNPO
 62
     7
100
AcDbMText
 10
-78.90584816671041
 20
-1914.636992034015
 30
0.0
 40
4.0
 41
0.0
 71
     5
 72
     1
  1
\A1;70
  7
K1
 11
0.0000000000000001
 21
1.0
 31
0.0
 73
     1
 44
1.0
1001
ACAD
1000
MTEXTBEGIN
1070
    73
1070
     1
1070
    44
1040
1.0
1070
    74
1070
     0
1000
MTEXTEND
  0
POINT
  5
319
330
311
100
AcDbEntity
  8
Defpoints
 62
     0
100
AcDbPoint
 10
-125.3411570637859
 20
-1949.636992034065
 30
0.0
  0
POINT
  5
31A
330
311
100
AcDbEntity
  8
Defpoints
 62
     0
100
AcDbPoint
 10
-102.8411570636073
 20
-1879.636992033965
 30
0.0
  0
POINT
  5
31B
330
311
100
AcDbEntity
  8
Defpoints
 62
     0
100
AcDbPoint
 10
-75.40584816671071
 20
-1879.636992033965
 30
0.0
  0
ENDBLK
  5
31C
330
311
100
AcDbEntity
  8
0
 62
     0
100
AcDbBlockEnd
  0
BLOCK
  5
321
330
320
100
AcDbEntity
  8
0
 62
     0
100
AcDbBlockBegin
  2
*D19
 70
     1
 10
0.0
 20
0.0
 30
0.0
  3
*D19
  1

  0
LINE
  5
322
330
320
100
AcDbEntity
  8
SUNPO
100
AcDbLine
 10
-101.8411570636073
 20
-1879.636992033965
 30
0.0
 11
-74.40584816671071
 21
-1879.636992033965
 31
0.0
  0
LINE
  5
323
330
320
100
AcDbEntity
  8
SUNPO
100
AcDbLine
 10
-117.8411570636073
 20
-1868.636992033964
 30
0.0
 11
-74.40584816671071
 21
-1868.636992033964
 31
0.0
  0
LINE
  5
324
330
320
100
AcDbEntity
  8
SUNPO
100
AcDbLine
 10
-75.40584816671071
 20
-1876.636992033964
 30
0.0
 11
-75.40584816671071
 21
-1871.636992033964
 31
0.0
  0
INSERT
  5
325
330
320
100
AcDbEntity
  8
SUNPO
100
AcDbBlockReference
  2
_Open30
 10
-75.40584816671071
 20
-1879.636992033965
 30
0.0
 41
3.0
 42
3.0
 43
3.0
 50
270.0
  0
INSERT
  5
326
330
320
100
AcDbEntity
  8
SUNPO
100
AcDbBlockReference
  2
_Open30
 10
-75.40584816671071
 20
-1868.636992033964
 30
0.0
 41
3.0
 42
3.0
 43
3.0
 50
90.0
  0
MTEXT
  5
327
330
320
100
AcDbEntity
  8
SUNPO
 62
     7
100
AcDbMText
 10
-78.90584816671041
 20
-1874.136992033965
 30
0.0
 40
4.0
 41
0.0
 71
     5
 72
     1
  1
\A1;11
  7
K1
 11
0.0000000000000001
 21
1.0
 31
0.0
 73
     1
 44
1.0
1001
ACAD
1000
MTEXTBEGIN
1070
    73
1070
     1
1070
    44
1040
1.0
1070
    74
1070
     0
1000
MTEXTEND
  0
POINT
  5
328
330
320
100
AcDbEntity
  8
Defpoints
 62
     0
100
AcDbPoint
 10
-102.8411570636073
 20
-1879.636992033965
 30
0.0
  0
POINT
  5
329
330
320
100
AcDbEntity
  8
Defpoints
 62
     0
100
AcDbPoint
 10
-118.8411570636073
 20
-1868.636992033964
 30
0.0
  0
POINT
  5
32A
330
320
100
AcDbEntity
  8
Defpoints
 62
     0
100
AcDbPoint
 10
-75.40584816671071
 20
-1868.636992033964
 30
0.0
  0
ENDBLK
  5
32B
330
320
100
AcDbEntity
  8
0
 62
     0
100
AcDbBlockEnd
  0
BLOCK
  5
330
330
32F
100
AcDbEntity
  8
0
 62
     0
100
AcDbBlockBegin
  2
*D20
 70
     1
 10
0.0
 20
0.0
 30
0.0
  3
*D20
  1

  0
LINE
  5
331
330
32F
100
AcDbEntity
  8
SUNPO
100
AcDbLine
 10
-132.841157063786
 20
-1956.436992034065
 30
0.0
 11
-74.40584816671074
 21
-1956.436992034065
 31
0.0
  0
LINE
  5
332
330
32F
100
AcDbEntity
  8
SUNPO
100
AcDbLine
 10
-124.3411570637859
 20
-1949.636992034065
 30
0.0
 11
-74.40584816671073
 21
-1949.636992034065
 31
0.0
  0
LINE
  5
333
330
32F
100
AcDbEntity
  8
SUNPO
100
AcDbLine
 10
-75.40584816671072
 20
-1946.636992034066
 30
0.0
 11
-75.40584816671072
 21
-1943.636992034065
 31
0.0
  0
LINE
  5
334
330
32F
100
AcDbEntity
  8
SUNPO
100
AcDbLine
 10
-75.40584816671074
 20
-1959.436992034065
 30
0.0
 11
-75.40584816671074
 21
-1972.192547589621
 31
0.0
  0
LINE
  5
335
330
32F
100
AcDbEntity
  8
SUNPO
100
AcDbLine
 10
-75.40584816671072
 20
-1949.636992034065
 30
0.0
 11
-75.40584816671074
 21
-1956.436992034065
 31
0.0
  0
INSERT
  5
336
330
32F
100
AcDbEntity
  8
SUNPO
100
AcDbBlockReference
  2
_Open30
 10
-75.40584816671072
 20
-1949.636992034065
 30
0.0
 41
3.0
 42
3.0
 43
3.0
 50
270.0
  0
INSERT
  5
337
330
32F
100
AcDbEntity
  8
SUNPO
100
AcDbBlockReference
  2
_Open30
 10
-75.40584816671074
 20
-1956.436992034065
 30
0.0
 41
3.0
 42
3.0
 43
3.0
 50
90.0
  0
MTEXT
  5
338
330
32F
100
AcDbEntity
  8
SUNPO
 62
     7
100
AcDbMText
 10
-78.90584816671041
 20
-1967.314769811843
 30
0.0
 40
4.0
 41
0.0
 71
     5
 72
     1
  1
\A1;6.8
  7
K1
 11
0.0000000000000001
 21
1.0
 31
0.0
 73
     1
 44
1.0
1001
ACAD
1000
MTEXTBEGIN
1070
    73
1070
     1
1070
    44
1040
1.0
1070
    74
1070
     0
1000
MTEXTEND
  0
POINT
  5
339
330
32F
100
AcDbEntity
  8
Defpoints
 62
     0
100
AcDbPoint
 10
-133.841157063786
 20
-1956.436992034065
 30
0.0
  0
POINT
  5
33A
330
32F
100
AcDbEntity
  8
Defpoints
 62
     0
100
AcDbPoint
 10
-125.3411570637859
 20
-1949.636992034065
 30
0.0
  0
POINT
  5
33B
330
32F
100
AcDbEntity
  8
Defpoints
 62
     0
100
AcDbPoint
 10
-75.40584816671072
 20
-1949.636992034065
 30
0.0
  0
ENDBLK
  5
33C
330
32F
100
AcDbEntity
  8
0
 62
     0
100
AcDbBlockEnd
  0
BLOCK
  5
341
330
340
100
AcDbEntity
  8
0
 62
     0
100
AcDbBlockBegin
  2
*D21
 70
     1
 10
0.0
 20
0.0
 30
0.0
  3
*D21
  1

  0
LINE
  5
342
330
340
100
AcDbEntity
  8
SUNPO
100
AcDbLine
 10
-117.8411570636073
 20
-1868.636992033964
 30
0.0
 11
-64.00296115255875
 21
-1868.636992033964
 31
0.0
  0
LINE
  5
343
330
340
100
AcDbEntity
  8
SUNPO
100
AcDbLine
 10
-132.841157063786
 20
-1956.436992034065
 30
0.0
 11
-64.00296115255878
 21
-1956.436992034065
 31
0.0
  0
LINE
  5
344
330
340
100
AcDbEntity
  8
SUNPO
100
AcDbLine
 10
-65.00296115255875
 20
-1871.636992033964
 30
0.0
 11
-65.00296115255878
 21
-1953.436992034065
 31
0.0
  0
INSERT
  5
345
330
340
100
AcDbEntity
  8
SUNPO
100
AcDbBlockReference
  2
_Open30
 10
-65.00296115255875
 20
-1868.636992033964
 30
0.0
 41
3.0
 42
3.0
 43
3.0
 50
90.0
  0
INSERT
  5
346
330
340
100
AcDbEntity
  8
SUNPO
100
AcDbBlockReference
  2
_Open30
 10
-65.00296115255878
 20
-1956.436992034065
 30
0.0
 41
3.0
 42
3.0
 43
3.0
 50
270.0
  0
MTEXT
  5
347
330
340
100
AcDbEntity
  8
SUNPO
 62
     7
100
AcDbMText
 10
-68.50296115255845
 20
-1912.536992034015
 30
0.0
 40
4.0
 41
0.0
 71
     5
 72
     1
  1
\A1;87.8
  7
K1
 11
0.0000000000000001
 21
1.0
 31
0.0
 73
     1
 44
1.0
1001
ACAD
1000
MTEXTBEGIN
1070
    73
1070
     1
1070
    44
1040
1.0
1070
    74
1070
     0
1000
MTEXTEND
  0
POINT
  5
348
330
340
100
AcDbEntity
  8
Defpoints
 62
     0
100
AcDbPoint
 10
-118.8411570636073
 20
-1868.636992033964
 30
0.0
  0
POINT
  5
349
330
340
100
AcDbEntity
  8
Defpoints
 62
     0
100
AcDbPoint
 10
-133.841157063786
 20
-1956.436992034065
 30
0.0
  0
POINT
  5
34A
330
340
100
AcDbEntity
  8
Defpoints
 62
     0
100
AcDbPoint
 10
-65.00296115255878
 20
-1956.436992034065
 30
0.0
  0
ENDBLK
  5
34B
330
340
100
AcDbEntity
  8
0
 62
     0
100
AcDbBlockEnd
  0
BLOCK
  5
350
330
34F
100
AcDbEntity
  8
0
 62
     0
100
AcDbBlockBegin
  2
*D22
 70
     1
 10
0.0
 20
0.0
 30
0.0
  3
*D22
  1

  0
LINE
  5
351
330
34F
100
AcDbEntity
  8
SUNPO
100
AcDbLine
 10
-100.8411570636073
 20
-1879.636992033965
 30
0.0
 11
-85.14075564142876
 21
-1879.636992033965
 31
0.0
  0
LINE
  5
352
330
34F
100
AcDbEntity
  8
SUNPO
100
AcDbLine
 10
-101.8411570636073
 20
-1899.636992033964
 30
0.0
 11
-85.14075564142876
 21
-1899.636992033964
 31
0.0
  0
LINE
  5
353
330
34F
100
AcDbEntity
  8
SUNPO
100
AcDbLine
 10
-86.14075564142876
 20
-1882.636992033965
 30
0.0
 11
-86.14075564142877
 21
-1896.636992033964
 31
0.0
  0
INSERT
  5
354
330
34F
100
AcDbEntity
  8
SUNPO
100
AcDbBlockReference
  2
_Open30
 10
-86.14075564142876
 20
-1879.636992033965
 30
0.0
 41
3.0
 42
3.0
 43
3.0
 50
90.0
  0
INSERT
  5
355
330
34F
100
AcDbEntity
  8
SUNPO
100
AcDbBlockReference
  2
_Open30
 10
-86.14075564142877
 20
-1899.636992033964
 30
0.0
 41
3.0
 42
3.0
 43
3.0
 50
270.0
  0
MTEXT
  5
356
330
34F
100
AcDbEntity
  8
SUNPO
 62
     7
100
AcDbMText
 10
-89.64075564142845
 20
-1889.636992033965
 30
0.0
 40
4.0
 41
0.0
 71
     5
 72
     1
  1
\A1;20
  7
K1
 11
0.0000000000000001
 21
1.0
 31
0.0
 73
     1
 44
1.0
1001
ACAD
1000
MTEXTBEGIN
1070
    73
1070
     1
1070
    44
1040
1.0
1070
    74
1070
     0
1000
MTEXTEND
  0
POINT
  5
357
330
34F
100
AcDbEntity
  8
Defpoints
 62
     0
100
AcDbPoint
 10
-101.8411570636073
 20
-1879.636992033965
 30
0.0
  0
POINT
  5
358
330
34F
100
AcDbEntity
  8
Defpoints
 62
     0
100
AcDbPoint
 10
-102.8411570636073
 20
-1899.636992033964
 30
0.0
  0
POINT
  5
359
330
34F
100
AcDbEntity
  8
Defpoints
 62
     0
100
AcDbPoint
 10
-86.14075564142877
 20
-1899.636992033964
 30
0.0
  0
ENDBLK
  5
35A
330
34F
100
AcDbEntity
  8
0
 62
     0
100
AcDbBlockEnd
  0
BLOCK
  5
35F
330
35E
100
AcDbEntity
  8
0
 62
     0
100
AcDbBlockBegin
  2
*D23
 70
     1
 10
0.0
 20
0.0
 30
0.0
  3
*D23
  1

  0
LINE
  5
360
330
35E
100
AcDbEntity
  8
SUNPO
100
AcDbLine
 10
-101.8411570636073
 20
-1899.636992033964
 30
0.0
 11
-85.14075564142876
 21
-1899.636992033964
 31
0.0
  0
LINE
  5
361
330
35E
100
AcDbEntity
  8
SUNPO
100
AcDbLine
 10
-101.8411570636073
 20
-1919.636992033964
 30
0.0
 11
-85.14075564142876
 21
-1919.636992033964
 31
0.0
  0
LINE
  5
362
330
35E
100
AcDbEntity
  8
SUNPO
100
AcDbLine
 10
-86.14075564142877
 20
-1902.636992033965
 30
0.0
 11
-86.14075564142877
 21
-1916.636992033964
 31
0.0
  0
INSERT
  5
363
330
35E
100
AcDbEntity
  8
SUNPO
100
AcDbBlockReference
  2
_Open30
 10
-86.14075564142877
 20
-1899.636992033964
 30
0.0
 41
3.0
 42
3.0
 43
3.0
 50
90.0
  0
INSERT
  5
364
330
35E
100
AcDbEntity
  8
SUNPO
100
AcDbBlockReference
  2
_Open30
 10
-86.14075564142877
 20
-1919.636992033964
 30
0.0
 41
3.0
 42
3.0
 43
3.0
 50
270.0
  0
MTEXT
  5
365
330
35E
100
AcDbEntity
  8
SUNPO
 62
     7
100
AcDbMText
 10
-89.64075564142845
 20
-1909.636992033965
 30
0.0
 40
4.0
 41
0.0
 71
     5
 72
     1
  1
\A1;20
  7
K1
 11
0.0000000000000001
 21
1.0
 31
0.0
 73
     1
 44
1.0
1001
ACAD
1000
MTEXTBEGIN
1070
    73
1070
     1
1070
    44
1040
1.0
1070
    74
1070
     0
1000
MTEXTEND
  0
POINT
  5
366
330
35E
100
AcDbEntity
  8
Defpoints
 62
     0
100
AcDbPoint
 10
-102.8411570636073
 20
-1899.636992033964
 30
0.0
  0
POINT
  5
367
330
35E
100
AcDbEntity
  8
Defpoints
 62
     0
100
AcDbPoint
 10
-102.8411570636073
 20
-1919.636992033964
 30
0.0
  0
POINT
  5
368
330
35E
100
AcDbEntity
  8
Defpoints
 62
     0
100
AcDbPoint
 10
-86.14075564142877
 20
-1919.636992033964
 30
0.0
  0
ENDBLK
  5
369
330
35E
100
AcDbEntity
  8
0
 62
     0
100
AcDbBlockEnd
  0
BLOCK
  5
36E
330
36D
100
AcDbEntity
  8
0
 62
     0
100
AcDbBlockBegin
  2
*D24
 70
     1
 10
0.0
 20
0.0
 30
0.0
  3
*D24
  1

  0
LINE
  5
36F
330
36D
100
AcDbEntity
  8
SUNPO
100
AcDbLine
 10
-118.8411570636073
 20
-1934.505184314212
 30
0.0
 11
-118.8411570636073
 21
-1976.702592048437
 31
0.0
  0
LINE
  5
370
330
36D
100
AcDbEntity
  8
SUNPO
100
AcDbLine
 10
-133.841157063786
 20
-1959.136992034066
 30
0.0
 11
-133.841157063786
 21
-1976.702592048437
 31
0.0
  0
LINE
  5
371
330
36D
100
AcDbEntity
  8
SUNPO
100
AcDbLine
 10
-121.8411570636073
 20
-1975.702592048438
 30
0.0
 11
-130.841157063786
 21
-1975.702592048438
 31
0.0
  0
INSERT
  5
372
330
36D
100
AcDbEntity
  8
SUNPO
100
AcDbBlockReference
  2
_Open30
 10
-118.8411570636073
 20
-1975.702592048438
 30
0.0
 41
3.0
 42
3.0
 43
3.0
  0
INSERT
  5
373
330
36D
100
AcDbEntity
  8
SUNPO
100
AcDbBlockReference
  2
_Open30
 10
-133.841157063786
 20
-1975.702592048438
 30
0.0
 41
3.0
 42
3.0
 43
3.0
 50
180.0
  0
MTEXT
  5
374
330
36D
100
AcDbEntity
  8
SUNPO
 62
     7
100
AcDbMText
 10
-126.3411570636966
 20
-1972.202592048438
 30
0.0
 40
4.0
 41
0.0
 71
     5
 72
     1
  1
\A1;15
  7
K1
 73
     1
 44
1.0
1001
ACAD
1000
MTEXTBEGIN
1070
    73
1070
     1
1070
    44
1040
1.0
1070
    74
1070
     0
1000
MTEXTEND
  0
POINT
  5
375
330
36D
100
AcDbEntity
  8
Defpoints
 62
     0
100
AcDbPoint
 10
-118.8411570636073
 20
-1933.505184314212
 30
0.0
  0
POINT
  5
376
330
36D
100
AcDbEntity
  8
Defpoints
 62
     0
100
AcDbPoint
 10
-133.841157063786
 20
-1958.136992034065
 30
0.0
  0
POINT
  5
377
330
36D
100
AcDbEntity
  8
Defpoints
 62
     0
100
AcDbPoint
 10
-133.841157063786
 20
-1975.702592048438
 30
0.0
  0
ENDBLK
  5
378
330
36D
100
AcDbEntity
  8
0
 62
     0
100
AcDbBlockEnd
  0
BLOCK
  5
37D
330
37C
100
AcDbEntity
  8
0
 62
     0
100
AcDbBlockBegin
  2
*D25
 70
     1
 10
0.0
 20
0.0
 30
0.0
  3
*D25
  1

  0
LINE
  5
37E
330
37C
100
AcDbEntity
  8
SUNPO
100
AcDbLine
 10
-107.8411570636073
 20
-1937.704346004106
 30
0.0
 11
-107.8411570636073
 21
-1976.702592048437
 31
0.0
  0
LINE
  5
37F
330
37C
100
AcDbEntity
  8
SUNPO
100
AcDbLine
 10
-118.8411570636073
 20
-1934.505184314212
 30
0.0
 11
-118.8411570636073
 21
-1976.702592048437
 31
0.0
  0
LINE
  5
380
330
37C
100
AcDbEntity
  8
SUNPO
100
AcDbLine
 10
-110.8411570636073
 20
-1975.702592048438
 30
0.0
 11
-115.8411570636073
 21
-1975.702592048438
 31
0.0
  0
INSERT
  5
381
330
37C
100
AcDbEntity
  8
SUNPO
100
AcDbBlockReference
  2
_Open30
 10
-107.8411570636073
 20
-1975.702592048438
 30
0.0
 41
3.0
 42
3.0
 43
3.0
  0
INSERT
  5
382
330
37C
100
AcDbEntity
  8
SUNPO
100
AcDbBlockReference
  2
_Open30
 10
-118.8411570636073
 20
-1975.702592048438
 30
0.0
 41
3.0
 42
3.0
 43
3.0
 50
180.0
  0
MTEXT
  5
383
330
37C
100
AcDbEntity
  8
SUNPO
 62
     7
100
AcDbMText
 10
-113.3411570636073
 20
-1972.202592048438
 30
0.0
 40
4.0
 41
0.0
 71
     5
 72
     1
  1
\A1;11
  7
K1
 73
     1
 44
1.0
1001
ACAD
1000
MTEXTBEGIN
1070
    73
1070
     1
1070
    44
1040
1.0
1070
    74
1070
     0
1000
MTEXTEND
  0
POINT
  5
384
330
37C
100
AcDbEntity
  8
Defpoints
 62
     0
100
AcDbPoint
 10
-107.8411570636073
 20
-1936.704346004106
 30
0.0
  0
POINT
  5
385
330
37C
100
AcDbEntity
  8
Defpoints
 62
     0
100
AcDbPoint
 10
-118.8411570636073
 20
-1933.505184314212
 30
0.0
  0
POINT
  5
386
330
37C
100
AcDbEntity
  8
Defpoints
 62
     0
100
AcDbPoint
 10
-118.8411570636073
 20
-1975.702592048438
 30
0.0
  0
ENDBLK
  5
387
330
37C
100
AcDbEntity
  8
0
 62
     0
100
AcDbBlockEnd
  0
BLOCK
  5
38C
330
38B
100
AcDbEntity
  8
0
 62
     0
100
AcDbBlockBegin
  2
*D26
 70
     1
 10
0.0
 20
0.0
 30
0.0
  3
*D26
  1

  0
LINE
  5
38D
330
38B
100
AcDbEntity
  8
SUNPO
100
AcDbLine
 10
-133.841157063786
 20
-1957.436992034065
 30
0.0
 11
-133.841157063786
 21
-1976.702592048437
 31
0.0
  0
LINE
  5
38E
330
38B
100
AcDbEntity
  8
SUNPO
100
AcDbLine
 10
-140.6411570636945
 20
-1950.636992034065
 30
0.0
 11
-140.6411570636945
 21
-1976.702592048437
 31
0.0
  0
LINE
  5
38F
330
38B
100
AcDbEntity
  8
SUNPO
100
AcDbLine
 10
-130.841157063786
 20
-1975.702592048438
 30
0.0
 11
-127.841157063786
 21
-1975.702592048438
 31
0.0
  0
LINE
  5
390
330
38B
100
AcDbEntity
  8
SUNPO
100
AcDbLine
 10
-143.6411570636945
 20
-1975.702592048438
 30
0.0
 11
-146.6411570636945
 21
-1975.702592048438
 31
0.0
  0
MTEXT
  5
391
330
38B
100
AcDbEntity
  8
SUNPO
 62
     7
100
AcDbMText
 10
-148.3361158100215
 20
-1972.211980371405
 30
0.0
 40
4.0
 41
0.0
 71
     5
 72
     1
  1
\A1;6.8
  7
K1
 73
     1
 44
1.0
1001
ACAD
1000
MTEXTBEGIN
1070
    73
1070
     1
1070
    44
1040
1.0
1070
    74
1070
     0
1000
MTEXTEND
  0
LINE
  5
392
330
38B
100
AcDbEntity
  8
SUNPO
100
AcDbLine
 10
-133.841157063786
 20
-1975.702592048438
 30
0.0
 11
-140.6411570636945
 21
-1975.702592048438
 31
0.0
  0
INSERT
  5
393
330
38B
100
AcDbEntity
  8
SUNPO
100
AcDbBlockReference
  2
_Open30
 10
-133.841157063786
 20
-1975.702592048438
 30
0.0
 41
3.0
 42
3.0
 43
3.0
 50
180.0
  0
INSERT
  5
394
330
38B
100
AcDbEntity
  8
SUNPO
100
AcDbBlockReference
  2
_Open30
 10
-140.6411570636945
 20
-1975.702592048438
 30
0.0
 41
3.0
 42
3.0
 43
3.0
  0
POINT
  5
395
330
38B
100
AcDbEntity
  8
Defpoints
 62
     0
100
AcDbPoint
 10
-133.841157063786
 20
-1956.436992034065
 30
0.0
  0
POINT
  5
396
330
38B
100
AcDbEntity
  8
Defpoints
 62
     0
100
AcDbPoint
 10
-140.6411570636945
 20
-1949.636992034065
 30
0.0
  0
POINT
  5
397
330
38B
100
AcDbEntity
  8
Defpoints
 62
     0
100
AcDbPoint
 10
-140.6411570636945
 20
-1975.702592048438
 30
0.0
  0
ENDBLK
  5
398
330
38B
100
AcDbEntity
  8
0
 62
     0
100
AcDbBlockEnd
  0
BLOCK
  5
39D
330
39C
100
AcDbEntity
  8
0
 62
     0
100
AcDbBlockBegin
  2
*D27
 70
     1
 10
0.0
 20
0.0
 30
0.0
  3
*D27
  1

  0
LINE
  5
39E
330
39C
100
AcDbEntity
  8
SUNPO
100
AcDbLine
 10
-94.9688191453697
 20
-1948.545156792614
 30
0.0
 11
-106.2964481057391
 21
-1942.680941613491
 31
0.0
  0
MTEXT
  5
39F
330
39C
100
AcDbEntity
  8
SUNPO
 62
     7
100
AcDbMText
 10
-97.69146838942743
 20
-1943.194465515479
 30
0.0
 40
4.0
 41
0.0
 71
     5
 72
     1
  1
\A1;R10
  7
K1
 11
0.8880545352206077
 21
-0.4597381237988757
 31
0.0
 73
     1
 44
1.0
1001
ACAD
1000
MTEXTBEGIN
1070
    73
1070
     1
1070
    44
1040
1.0
1070
    74
1070
     0
1000
MTEXTEND
  0
LINE
  5
3A0
330
39C
100
AcDbEntity
  8
SUNPO
100
AcDbLine
 10
-117.8411570636065
 20
-1936.704346004106
 30
0.0
 11
-108.9606117114009
 21
-1941.301727242094
 31
0.0
  0
INSERT
  5
3A1
330
39C
100
AcDbEntity
  8
SUNPO
100
AcDbBlockReference
  2
_Open30
 10
-108.9606117114009
 20
-1941.301727242094
 30
0.0
 41
3.0
 42
3.0
 43
3.0
 50
152.629789597882
  0
POINT
  5
3A2
330
39C
100
AcDbEntity
  8
Defpoints
 62
     0
100
AcDbPoint
 10
-108.9606117114009
 20
-1941.301727242094
 30
0.0
  0
POINT
  5
3A3
330
39C
100
AcDbEntity
  8
Defpoints
 62
     0
100
AcDbPoint
 10
-117.8411570636065
 20
-1936.704346004106
 30
0.0
  0
ENDBLK
  5
3A4
330
39C
100
AcDbEntity
  8
0
 62
     0
100
AcDbBlockEnd
  0
BLOCK
  5
3A9
330
3A8
100
AcDbEntity
  8
0
 62
     0
100
AcDbBlockBegin
  2
*D28
 70
     1
 10
0.0
 20
0.0
 30
0.0
  3
*D28
  1

  0
ARC
  5
3AA
330
3A8
100
AcDbEntity
  8
SUNPO
100
AcDbCircle
 10
-152.4191025552307
 20
-1968.214937525651
 30
0.0
 40
37.38372311957274
100
AcDbArc
 50
34.59915385222339
 51
55.40084614792784
  0
INSERT
  5
3AB
330
3A8
100
AcDbEntity
  8
SUNPO
100
AcDbBlockReference
  2
_Open30
 10
-120.0438486456869
 20
-1949.523075965779
 30
0.0
 41
3.0
 42
3.0
 43
3.0
 50
302.2995769261878
  0
INSERT
  5
3AC
330
3A8
100
AcDbEntity
  8
SUNPO
100
AcDbBlockReference
  2
_Open30
 10
-133.7272409954439
 20
-1935.839683616057
 30
0.0
 41
3.0
 42
3.0
 43
3.0
 50
147.7004230739634
  0
MTEXT
  5
3AD
330
3A8
100
AcDbEntity
  8
SUNPO
 62
     7
100
AcDbMText
 10
-123.2742424368706
 20
-1939.070077407214
 30
0.0
 40
4.0
 41
0.0
 71
     5
 72
     1
  1
\A1;30\U+00B0
  7
K1
 11
0.7071067811874759
 21
-0.7071067811856194
 31
0.0
 73
     1
 44
1.0
1001
ACAD
1000
MTEXTBEGIN
1070
    73
1070
     1
1070
    44
1040
1.0
1070
    74
1070
     0
1000
MTEXTEND
  0
POINT
  5
3AE
330
3A8
100
AcDbEntity
  8
Defpoints
 62
     0
100
AcDbPoint
 10
-123.781509196426
 20
-1944.185143500387
 30
0.0
  0
POINT
  5
3AF
330
3A8
100
AcDbEntity
  8
Defpoints
 62
     0
100
AcDbPoint
 10
-112.8411570636073
 20
-1945.36460004195
 30
0.0
  0
POINT
  5
3B0
330
3A8
100
AcDbEntity
  8
Defpoints
 62
     0
100
AcDbPoint
 10
-139.7301298094284
 20
-1946.236992034065
 30
0.0
  0
POINT
  5
3B1
330
3A8
100
AcDbEntity
  8
Defpoints
 62
     0
100
AcDbPoint
 10
-131.1809030257624
 20
-1931.429296879328
 30
0.0
  0
POINT
  5
3B2
330
3A8
100
AcDbEntity
  8
Defpoints
 62
     0
100
AcDbPoint
 10
-130.4411570636949
 20
-1955.5259647798
 30
0.0
  0
ENDBLK
  5
3B3
330
3A8
100
AcDbEntity
  8
0
 62
     0
100
AcDbBlockEnd
  0
BLOCK
  5
3B9
330
3B8
100
AcDbEntity
  8
0
 62
     0
100
AcDbBlockBegin
  2
*D29
 70
     1
 10
0.0
 20
0.0
 30
0.0
  3
*D29
  1

  0
LINE
  5
3BA
330
3B8
100
AcDbEntity
  8
SUNPO
100
AcDbLine
 10
-140.6411570636945
 20
-1950.636992034065
 30
0.0
 11
-140.6411570636945
 21
-1986.543390893115
 31
0.0
  0
LINE
  5
3BB
330
3B8
100
AcDbEntity
  8
SUNPO
100
AcDbLine
 10
-107.8411570636073
 20
-1937.704346004105
 30
0.0
 11
-107.8411570636073
 21
-1986.543390893115
 31
0.0
  0
LINE
  5
3BC
330
3B8
100
AcDbEntity
  8
SUNPO
100
AcDbLine
 10
-137.6411570636945
 20
-1985.543390893115
 30
0.0
 11
-110.8411570636073
 21
-1985.543390893115
 31
0.0
  0
INSERT
  5
3BD
330
3B8
100
AcDbEntity
  8
SUNPO
100
AcDbBlockReference
  2
_Open30
 10
-140.6411570636945
 20
-1985.543390893115
 30
0.0
 41
3.0
 42
3.0
 43
3.0
 50
180.0
  0
INSERT
  5
3BE
330
3B8
100
AcDbEntity
  8
SUNPO
100
AcDbBlockReference
  2
_Open30
 10
-107.8411570636073
 20
-1985.543390893115
 30
0.0
 41
3.0
 42
3.0
 43
3.0
  0
MTEXT
  5
3BF
330
3B8
100
AcDbEntity
  8
SUNPO
 62
     7
100
AcDbMText
 10
-124.2411570636509
 20
-1982.043390893115
 30
0.0
 40
4.0
 41
0.0
 71
     5
 72
     1
  1
\A1;32.8
  7
K1
 73
     1
 44
1.0
1001
ACAD
1000
MTEXTBEGIN
1070
    73
1070
     1
1070
    44
1040
1.0
1070
    74
1070
     0
1000
MTEXTEND
  0
POINT
  5
3C0
330
3B8
100
AcDbEntity
  8
Defpoints
 62
     0
100
AcDbPoint
 10
-140.6411570636945
 20
-1949.636992034065
 30
0.0
  0
POINT
  5
3C1
330
3B8
100
AcDbEntity
  8
Defpoints
 62
     0
100
AcDbPoint
 10
-107.8411570636073
 20
-1936.704346004105
 30
0.0
  0
POINT
  5
3C2
330
3B8
100
AcDbEntity
  8
Defpoints
 62
     0
100
AcDbPoint
 10
-107.8411570636073
 20
-1985.543390893115
 30
0.0
  0
ENDBLK
  5
3C3
330
3B8
100
AcDbEntity
  8
0
 62
     0
100
AcDbBlockEnd
  0
BLOCK
  5
3C8
330
3C7
100
AcDbEntity
  8
0
 62
     0
100
AcDbBlockBegin
  2
*D30
 70
     1
 10
0.0
 20
0.0
 30
0.0
  3
*D30
  1

  0
LINE
  5
3C9
330
3C7
100
AcDbEntity
  8
SUNPO
100
AcDbLine
 10
-172.5684719956412
 20
-1928.987101048088
 30
0.0
 11
-151.5555831067522
 21
-1928.987101048088
 31
0.0
  0
LINE
  5
3CA
330
3C7
100
AcDbEntity
  8
SUNPO
100
AcDbLine
 10
-151.5555831067522
 20
-1928.987101048088
 30
0.0
 11
-139.1150586711857
 21
-1943.489149987095
 31
0.0
  0
MTEXT
  5
3CB
102
{ACAD_XDICTIONARY
360
47C
102
}
330
3C7
100
AcDbEntity
  8
SUNPO
 62
     7
100
AcDbMText
 10
-162.8120275511968
 20
-1924.173767714755
 30
0.0
 40
4.0
 41
0.0
 71
     5
 72
     1
  1
\U+220510.2{\H2.840000;\S+0.2^  0;}
  7
K1
 73
     1
 44
1.0
1001
ACAD
1000
MTEXTBEGIN
1070
    73
1070
     1
1070
    44
1040
1.0
1070
    74
1070
     0
1000
MTEXTEND
  0
INSERT
  5
3CC
330
3C7
100
AcDbEntity
  8
SUNPO
100
AcDbBlockReference
  2
_Open30
 10
-137.1617617795221
 20
-1945.76612852301
 30
0.0
 41
3.0
 42
3.0
 43
3.0
 50
310.624510373288
  0
POINT
  5
3CD
330
3C7
100
AcDbEntity
  8
Defpoints
 62
     0
100
AcDbPoint
 10
-137.1617617795221
 20
-1945.76612852301
 30
0.0
  0
POINT
  5
3CE
330
3C7
100
AcDbEntity
  8
Defpoints
 62
     0
100
AcDbPoint
 10
-130.5205523478667
 20
-1953.507855545121
 30
0.0
  0
ENDBLK
  5
3CF
330
3C7
100
AcDbEntity
  8
0
 62
     0
100
AcDbBlockEnd
  0
BLOCK
  5
408
330
407
100
AcDbEntity
  8
0
 62
     0
100
AcDbBlockBegin
  2
_ACMOPEN15
 70
     0
 10
0.0
 20
0.0
 30
0.0
  3
_ACMOPEN15
  1

  0
LINE
  5
409
330
407
100
AcDbEntity
  8
K-1
  6
ByBlock
 62
     0
100
AcDbLine
 10
-1.0
 20
0.0
 30
0.0
 11
0.0
 21
0.0
 31
0.0
  0
LINE
  5
40A
330
407
100
AcDbEntity
  8
K-1
  6
ByBlock
 62
     0
100
AcDbLine
 10
-1.0
 20
-0.131652497
 30
0.0
 11
0.0
 21
0.0
 31
0.0
  0
LINE
  5
40B
330
407
100
AcDbEntity
  8
K-1
  6
ByBlock
 62
     0
100
AcDbLine
 10
0.0
 20
0.0
 30
0.0
 11
-1.0
 21
0.131652497
 31
0.0
  0
ENDBLK
  5
40C
330
407
100
AcDbEntity
  8
0
 62
     0
100
AcDbBlockEnd
  0
ENDSEC
  0
SECTION
  2
ENTITIES
  0
INSERT
  5
65
330
2
100
AcDbEntity
  8
K-1
  6
ByBlock
 62
     0
100
AcDbBlockReference
 66
     1
  2
表題覧_ver.1
 10
136.4106321699882
 20
-2130.027570236171
 30
0.0
  0
ATTRIB
  5
77
330
65
100
AcDbEntity
  8
0
100
AcDbText
 10
63.30664024727912
 20
-2102.477570236173
 30
0.0
 40
4.0
  1

 41
0.8907786885245936
  7
K1
 72
     5
 11
87.4566402472792
 21
-2102.477570236173
 31
0.0
100
AcDbAttribute
  2
JOB_NO
 70
     0
  0
ATTRIB
  5
78
330
65
100
AcDbEntity
  8
A4WAKU
100
AcDbText
 10
45.56843376495736
 20
-2112.227570236173
 30
0.0
 40
5.5
  1
HFT-TF09 逆さ吊下金具（P型用）
 41
0.75
  7
K1
 72
     4
 11
88.46843376495735
 21
-2109.477570236173
 31
0.0
100
AcDbAttribute
  2
TITLE
 70
     0
  0
ATTRIB
  5
79
330
65
100
AcDbEntity
  8
A4WAKU
100
AcDbText
 10
68.33887416909738
 20
-2126.527570236174
 30
0.0
 40
6.0
  1
DU-H075
 41
1.543500000000006
  7
K1
 72
     5
 11
130.0788741690976
 21
-2126.527570236174
 31
0.0
100
AcDbAttribute
  2
DRAWING_NO.
 70
     0
  0
ATTRIB
  5
7A
330
65
100
AcDbEntity
  8
A4WAKU
100
AcDbText
 10
25.4684337649569
 20
-2112.977570236173
 30
0.0
 40
3.0
  1
1/1
 41
1.98187500000003
  7
K1
 72
     5
 11
36.03843376495706
 21
-2112.977570236173
 31
0.0
100
AcDbAttribute
  2
SCALE
 70
     0
  0
ATTRIB
  5
7B
330
65
100
AcDbEntity
  8
A4WAKU
100
AcDbText
 10
-6.929009356875756
 20
-2111.367570236173
 30
0.0
 40
3.5
  1
（DDK）
  7
K1
 72
     2
 11
9.170990643124241
 21
-2111.367570236173
 31
0.0
100
AcDbAttribute
  2
MATERIAL
 70
     0
  0
ATTRIB
  5
7C
330
65
100
AcDbEntity
  8
0
100
AcDbText
 10
101.1550766144312
 20
-2102.527570236173
 30
0.0
 40
4.0
  1
1
 41
0.8
  7
K1
 72
     4
 11
101.5106321699868
 21
-2100.527570236173
 31
0.0
100
AcDbAttribute
  2
AMT
 70
     0
  0
ATTRIB
  5
7D
330
65
100
AcDbEntity
  8
A4WAKU
100
AcDbText
 10
9.170990643124241
 20
-2120.197570236173
 30
0.0
 40
3.5
  1

  7
K1
 72
     2
 11
9.170990643124241
 21
-2120.197570236173
 31
0.0
100
AcDbAttribute
  2
REMARK
 70
     0
  0
ATTRIB
  5
7E
330
65
100
AcDbEntity
  8
0
100
AcDbText
 10
110.2066402472792
 20
-2102.477570236173
 30
0.0
 40
4.0
  1
2011,08,11
 41
0.8907786885245934
  7
K1
 72
     5
 11
134.3566402472793
 21
-2102.477570236173
 31
0.0
100
AcDbAttribute
  2
DATE
 70
     0
  0
ATTRIB
  5
7F
330
65
100
AcDbEntity
  8
A4WAKU
100
AcDbText
 10
6.118336627243479
 20
-2129.027570236173
 30
0.0
 40
3.5
  1

  7
K1
 72
     2
 11
6.118336627243479
 21
-2129.027570236173
 31
0.0
100
AcDbAttribute
  2
WEIGHT
 70
     0
  0
SEQEND
  5
80
330
65
100
AcDbEntity
  8
K-1
  6
ByBlock
 62
     0
  0
INSERT
  5
81
330
2
100
AcDbEntity
  8
0
100
AcDbBlockReference
 66
     1
  2
流用枠1-A
 10
61.51063216998728
 20
-2094.52757023617
 30
0.0
  0
ATTRIB
  5
92
330
81
100
AcDbEntity
  8
0
100
AcDbText
 10
62.98063216998707
 20
-2093.477570236171
 30
0.0
 40
4.0
  1

 41
1.646590909090915
  7
K1
 72
     5
 11
87.13063216998717
 21
-2093.477570236171
 31
0.0
100
AcDbAttribute
  2
AAAA
 70
     0
  0
ATTRIB
  5
93
330
81
100
AcDbEntity
  8
0
100
AcDbText
 10
101.5106321699873
 20
-2091.52757023617
 30
0.0
 40
4.0
  1

 41
0.8
  7
K1
 72
     4
 11
101.5106321699873
 21
-2091.52757023617
 31
0.0
100
AcDbAttribute
  2
1
 70
     0
  0
ATTRIB
  5
94
330
81
100
AcDbEntity
  8
0
100
AcDbText
 10
109.8806321699871
 20
-2093.477570236171
 30
0.0
 40
4.0
  1

 41
1.646590909090915
  7
K1
 72
     5
 11
134.0306321699872
 21
-2093.477570236171
 31
0.0
100
AcDbAttribute
  2
BBBB
 70
     0
  0
SEQEND
  5
95
330
81
100
AcDbEntity
  8
0
  6
ByBlock
  0
INSERT
  5
96
330
2
100
AcDbEntity
  8
0
100
AcDbBlockReference
 66
     1
  2
流用枠1-A
 10
61.51063216998728
 20
-2085.527570236171
 30
0.0
  0
ATTRIB
  5
97
330
96
100
AcDbEntity
  8
0
100
AcDbText
 10
62.98063216998707
 20
-2084.477570236171
 30
0.0
 40
4.0
  1

 41
1.646590909090915
  7
K1
 72
     5
 11
87.13063216998717
 21
-2084.477570236171
 31
0.0
100
AcDbAttribute
  2
AAAA
 70
     0
  0
ATTRIB
  5
98
330
96
100
AcDbEntity
  8
0
100
AcDbText
 10
101.5106321699873
 20
-2082.52757023617
 30
0.0
 40
4.0
  1

 41
0.8
  7
K1
 72
     4
 11
101.5106321699873
 21
-2082.52757023617
 31
0.0
100
AcDbAttribute
  2
1
 70
     0
  0
ATTRIB
  5
99
330
96
100
AcDbEntity
  8
0
100
AcDbText
 10
109.8806321699871
 20
-2084.477570236171
 30
0.0
 40
4.0
  1

 41
1.646590909090915
  7
K1
 72
     5
 11
134.0306321699872
 21
-2084.477570236171
 31
0.0
100
AcDbAttribute
  2
BBBB
 70
     0
  0
SEQEND
  5
9A
330
96
100
AcDbEntity
  8
0
  6
ByBlock
  0
INSERT
  5
9B
330
2
100
AcDbEntity
  8
K-1
  6
ByBlock
 62
     0
100
AcDbBlockReference
  2
WAKUA3_ver.1
 10
-271.5893678300117
 20
-2136.527570236173
 30
0.0
  0
INSERT
  5
120
330
2
100
AcDbEntity
  8
K-1
  6
PHANTOM
 62
     5
370
    25
100
AcDbBlockReference
  2
HFT-015M50-P1_側面図-A
 10
-134.033642995766
 20
-2098.273382629944
 30
0.0
 50
180.0
  0
INSERT
  5
20A
330
2
100
AcDbEntity
  8
K-1
  6
PHANTOM
 62
     5
370
    25
100
AcDbBlockReference
  2
HFT-015M50-P1_正面図-A1
 10
26.2081531801548
 20
-2098.273382628694
 30
0.0
 50
180.0
  0
LINE
  5
27C
330
2
100
AcDbEntity
  8
K-1
  6
CENTER
 62
     2
100
AcDbLine
 10
26.20280900054993
 20
-1863.029754298672
 30
0.0
 11
26.20280900054991
 21
-2102.5738351121
 31
0.0
1001
GENIUS_GENODEF_13
1002
{
1000
HIER
1070
     0
1002
}
1002
{
1000
MANEDIT
1070
     0
1002
}
1002
{
1000
NOSEL
1070
     0
1002
}
1002
{
1000
BEHIND
1070
     0
1002
}
1002
{
1000
OTHER
1070
     0
1002
}
1002
{
1000
REACTOR
1002
}
1001
GENIUS_GENOBJ-N-CEN_13
1002
{
1000
OWNER
1000
GEN
1002
}
1001
GENIUS_GENCEN_19
1002
{
1040
2.794
1002
}
  0
LINE
  5
27F
330
2
100
AcDbEntity
  8
K-1
  6
CENTERS
 62
     2
100
AcDbLine
 10
54.77861648347482
 20
-2098.273382628694
 30
0.0
 11
-2.362310123165229
 21
-2098.273382628694
 31
0.0
  0
LINE
  5
280
330
2
100
AcDbEntity
  8
K-1
  6
CENTER
 62
     2
100
AcDbLine
 10
-14.486551230229
 20
-2098.273382628695
 30
0.0
 11
-246.1690516307204
 21
-2098.273382628695
 31
0.0
1001
GENIUS_GENODEF_13
1002
{
1000
HIER
1070
     0
1002
}
1002
{
1000
MANEDIT
1070
     0
1002
}
1002
{
1000
NOSEL
1070
     0
1002
}
1002
{
1000
BEHIND
1070
     0
1002
}
1002
{
1000
OTHER
1070
     0
1002
}
1002
{
1000
REACTOR
1002
}
1001
GENIUS_GENOBJ-N-CEN_13
1002
{
1000
OWNER
1000
GEN
1002
}
1001
GENIUS_GENCEN_19
1002
{
1040
2.794
1002
}
  0
LINE
  5
281
330
2
100
AcDbEntity
  8
K-1
  6
CENTERS
 62
     2
100
AcDbLine
 10
-122.0336429957656
 20
-2110.273382628693
 30
0.0
 11
-136.0336429957656
 21
-2110.273382628693
 31
0.0
  0
LINE
  5
282
330
2
100
AcDbEntity
  8
K-1
  6
CENTERS
 62
     2
100
AcDbLine
 10
-129.0336429957656
 20
-2117.273382628693
 30
0.0
 11
-129.0336429957656
 21
-2103.273382628693
 31
0.0
  0
LINE
  5
283
330
2
100
AcDbEntity
  8
K-1
  6
CENTERS
 62
     2
100
AcDbLine
 10
-142.0336429957656
 20
-2110.273382628693
 30
0.0
 11
-156.0336429957656
 21
-2110.273382628693
 31
0.0
  0
LINE
  5
284
330
2
100
AcDbEntity
  8
K-1
  6
CENTERS
 62
     2
100
AcDbLine
 10
-149.0336429957656
 20
-2117.273382628693
 30
0.0
 11
-149.0336429957656
 21
-2103.273382628693
 31
0.0
  0
TEXT
  5
285
330
2
100
AcDbEntity
  8
K-1
  6
ByBlock
 62
     0
100
AcDbText
 10
66.82071613955486
 20
-2066.799101246756
 30
0.0
 40
6.0
  1
型式：HFA-TF09
 41
0.8
  7
K1
100
AcDbText
  0
LWPOLYLINE
  5
286
330
2
100
AcDbEntity
  8
K-1
  6
ByBlock
 62
     0
100
AcDbPolyline
 90
        4
 70
     1
 43
0.0
 10
62.51674900438775
 20
-2056.3876466644
 10
125.5979178180241
 20
-2056.3876466644
 10
125.5979178180241
 20
-2070.226067318778
 10
62.51674900438775
 20
-2070.226067318778
1001
GENIUS_GENREC_14
1002
{
1000
PYDIR
1011
62.51674900438775
1021
-2070.226067318778
1031
0.0
1002
}
1002
{
1000
PXDIR
1011
125.5979178180241
1021
-2056.3876466644
1031
0.0
1002
}
1002
{
1000
PORI
1011
62.51674900438775
1021
-2056.3876466644
1031
0.0
1002
}
1002
{
1000
PINS
1011
62.51674900438775
1021
-2056.3876466644
1031
0.0
1002
}
1002
{
1000
PINS2
1011
125.5979178180241
1021
-2070.226067318778
1031
0.0
1002
}
1002
{
1000
C
1070
     1
1002
}
1001
GENIUS_GENODEF_13
1002
{
1000
HIER
1070
     0
1002
}
1002
{
1000
MANEDIT
1070
     0
1002
}
1002
{
1000
NOSEL
1070
     0
1002
}
1002
{
1000
BEHIND
1070
     0
1002
}
1002
{
1000
OTHER
1070
     0
1002
}
1002
{
1000
REACTOR
1002
}
1001
GENIUS_GENOBJ-N-REC_13
1002
{
1000
OWNER
1000
GEN
1002
}
  0
CIRCLE
  5
287
102
{ACAD_REACTORS
330
2D1
102
}
330
2
100
AcDbEntity
  8
K-1
  6
ByBlock
 62
     0
370
    25
100
AcDbCircle
 10
-118.8411570636073
 20
-1879.636992033965
 30
0.0
 40
8.0
  0
LINE
  5
288
102
{ACAD_REACTORS
330
310
330
31F
102
}
330
2
100
AcDbEntity
  8
K-1
  6
CENTERS
 62
     2
370
    25
100
AcDbLine
 10
-134.8411570636073
 20
-1879.636992033965
 30
0.0
 11
-102.8411570636073
 21
-1879.636992033965
 31
0.0
  0
LINE
  5
289
102
{ACAD_REACTORS
330
31F
330
33F
330
36C
330
37B
102
}
330
2
100
AcDbEntity
  8
K-1
  6
CENTERS
 62
     2
370
    25
100
AcDbLine
 10
-118.8411570636073
 20
-1863.174935304458
 30
0.0
 11
-118.8411570636073
 21
-1933.505184314212
 31
0.0
  0
LWPOLYLINE
  5
28A
102
{ACAD_REACTORS
330
2E4
330
31F
330
32E
330
33F
330
37B
330
38A
330
39B
330
3A7
330
3B7
102
}
330
2
100
AcDbEntity
  8
K-1
  6
ByBlock
 62
     0
370
    25
100
AcDbPolyline
 90
        8
 70
     1
 43
0.0
 10
-112.8411570636072
 20
-1945.364600041949
 10
-130.4411570636948
 20
-1955.5259647798
 42
-0.7673269879789335
 10
-139.7301298094286
 20
-1946.236992034065
 10
-131.1809030257624
 20
-1931.429296879328
 42
0.1316524975873945
 10
-129.8411570636073
 20
-1926.429296879328
 10
-129.8411570636073
 20
-1879.636992033965
 42
-0.9999999999999998
 10
-107.8411570636073
 20
-1879.636992033965
 10
-107.8411570636073
 20
-1936.704346004105
 42
-0.2679491924311395
  0
CIRCLE
  5
28B
330
2
100
AcDbEntity
  8
K-1
  6
ByBlock
 62
     0
370
    25
100
AcDbCircle
 10
-118.8411570636073
 20
-1899.636992033964
 30
0.0
 40
8.0
  0
CIRCLE
  5
28C
330
2
100
AcDbEntity
  8
K-1
  6
ByBlock
 62
     0
370
    25
100
AcDbCircle
 10
-118.8411570636073
 20
-1919.636992033964
 30
0.0
 40
8.0
  0
LINE
  5
28D
102
{ACAD_REACTORS
330
34E
330
35D
102
}
330
2
100
AcDbEntity
  8
K-1
  6
CENTERS
 62
     2
370
    25
100
AcDbLine
 10
-134.8411570636073
 20
-1899.636992033964
 30
0.0
 11
-102.8411570636073
 21
-1899.636992033964
 31
0.0
  0
LINE
  5
28E
102
{ACAD_REACTORS
330
35D
102
}
330
2
100
AcDbEntity
  8
K-1
  6
CENTERS
 62
     2
370
    25
100
AcDbLine
 10
-134.8411570636073
 20
-1919.636992033964
 30
0.0
 11
-102.8411570636073
 21
-1919.636992033964
 31
0.0
  0
CIRCLE
  5
28F
102
{ACAD_REACTORS
330
3C6
102
}
330
2
100
AcDbEntity
  8
K-1
  6
ByBlock
 62
     0
100
AcDbCircle
 10
-133.8411570636944
 20
-1949.636992034065
 30
0.0
 40
5.099999999999999
  0
LINE
  5
290
102
{ACAD_REACTORS
330
310
330
32E
330
38A
330
3B7
102
}
330
2
100
AcDbEntity
  8
K-1
  6
CENTERS
 62
     2
370
    25
100
AcDbLine
 10
-142.3411570637859
 20
-1949.636992034065
 30
0.0
 11
-125.3411570637859
 21
-1949.636992034065
 31
0.0
  0
LINE
  5
291
102
{ACAD_REACTORS
330
32E
330
33F
330
36C
330
38A
102
}
330
2
100
AcDbEntity
  8
K-1
  6
CENTERS
 62
     2
370
    25
100
AcDbLine
 10
-133.841157063786
 20
-1941.136992034065
 30
0.0
 11
-133.841157063786
 21
-1958.136992034065
 31
0.0
  0
LINE
  5
292
330
2
100
AcDbEntity
  8
K-1
  6
ByBlock
 62
     0
370
    25
100
AcDbLine
 10
23.95280900055025
 20
-1956.436992034063
 30
0.0
 11
23.95280900055025
 21
-1868.63699203408
 31
0.0
  0
LINE
  5
293
330
2
100
AcDbEntity
  8
K-1
  6
ByBlock
 62
     0
370
    25
100
AcDbLine
 10
28.45280900055012
 20
-1956.436992034063
 30
0.0
 11
28.45280900055025
 21
-1868.63699203408
 31
0.0
  0
LINE
  5
294
102
{ACAD_REACTORS
330
2FF
102
}
330
2
100
AcDbEntity
  8
K-1
  6
ByBlock
 62
     0
370
    25
100
AcDbLine
 10
23.95280900055025
 20
-1868.63699203408
 30
0.0
 11
28.45280900055025
 21
-1868.63699203408
 31
0.0
  0
LINE
  5
295
330
2
100
AcDbEntity
  8
K-1
  6
ByBlock
 62
     0
370
    25
100
AcDbLine
 10
23.95280900055025
 20
-1956.436992034063
 30
0.0
 11
28.45280900055025
 21
-1956.436992034063
 31
0.0
  0
LINE
  5
296
330
2
100
AcDbEntity
  8
K-1
  6
HIDDEN
 62
     3
370
    25
100
AcDbLine
 10
23.95280900055025
 20
-1887.636992034081
 30
0.0
 11
28.45280900055025
 21
-1887.636992034081
 31
0.0
  0
LINE
  5
297
330
2
100
AcDbEntity
  8
K-1
  6
HIDDEN
 62
     3
370
    25
100
AcDbLine
 10
28.45280900055025
 20
-1871.636992034081
 30
0.0
 11
23.95280900055025
 21
-1871.636992034081
 31
0.0
  0
LINE
  5
298
330
2
100
AcDbEntity
  8
K-1
  6
CENTER
 62
     2
370
    25
100
AcDbLine
 10
18.11905906784307
 20
-1879.63699203408
 30
0.0
 11
34.42032243466531
 21
-1879.63699203408
 31
0.0
  0
LINE
  5
299
330
2
100
AcDbEntity
  8
K-1
  6
HIDDEN
 62
     3
370
    25
100
AcDbLine
 10
23.95280900055025
 20
-1907.63699203408
 30
0.0
 11
28.45280900055025
 21
-1907.63699203408
 31
0.0
  0
LINE
  5
29A
330
2
100
AcDbEntity
  8
K-1
  6
HIDDEN
 62
     3
370
    25
100
AcDbLine
 10
28.45280900055025
 20
-1891.63699203408
 30
0.0
 11
23.95280900055025
 21
-1891.63699203408
 31
0.0
  0
LINE
  5
29B
330
2
100
AcDbEntity
  8
K-1
  6
HIDDEN
 62
     3
370
    25
100
AcDbLine
 10
23.95280900055025
 20
-1927.63699203408
 30
0.0
 11
28.45280900055025
 21
-1927.63699203408
 31
0.0
  0
LINE
  5
29C
330
2
100
AcDbEntity
  8
K-1
  6
HIDDEN
 62
     3
370
    25
100
AcDbLine
 10
28.45280900055025
 20
-1911.63699203408
 30
0.0
 11
23.95280900055025
 21
-1911.63699203408
 31
0.0
  0
LWPOLYLINE
  5
29D
330
2
100
AcDbEntity
  8
K-1
  6
PHANTOM
 62
     5
100
AcDbPolyline
 90
       12
 70
     1
 43
0.0
 10
15.19883570429437
 20
-1946.136992034056
 10
15.19883570429437
 20
-1943.636992034056
 10
13.19883570429471
 20
-1943.636992034056
 10
12.69883570429471
 20
-1944.136992034055
 10
12.69883570429471
 20
-1955.136992034056
 10
13.19883570429471
 20
-1955.636992034056
 10
15.19883570429437
 20
-1955.636992034056
 10
15.19883570429437
 20
-1953.136992034056
 10
19.19883570429448
 20
-1953.136992034055
 10
19.69883570429448
 20
-1952.636992034056
 10
19.69883570429471
 20
-1946.636992034057
 10
19.19883570429471
 20
-1946.136992034057
1001
GENIUS_GENREC_14
1002
{
1000
PYDIR
1011
15.19883570429437
1021
-1943.636992034056
1031
0.0
1002
}
1002
{
1000
PXDIR
1011
12.69883570429471
1021
-1955.636992034056
1031
0.0
1002
}
1002
{
1000
PORI
1011
12.69883570429471
1021
-1943.636992034056
1031
0.0
1002
}
1002
{
1000
PINS
1011
12.69883570429471
1021
-1943.636992034056
1031
0.0
1002
}
1002
{
1000
PINS2
1011
15.19883570429437
1021
-1955.636992034056
1031
0.0
1002
}
1002
{
1000
C
1070
     1
1002
}
1001
GENIUS_GENODEF_13
1002
{
1000
HIER
1070
     0
1002
}
1002
{
1000
MANEDIT
1070
     0
1002
}
1002
{
1000
NOSEL
1070
     0
1002
}
1002
{
1000
BEHIND
1070
     0
1002
}
1002
{
1000
OTHER
1070
     0
1002
}
1002
{
1000
REACTOR
1002
}
1001
GENIUS_GENOBJ-N-REC_13
1002
{
1000
OWNER
1000
GEN
1002
}
  0
INSERT
  5
29E
330
2
100
AcDbEntity
  8
K-1
  6
PHANTOM
 62
     5
370
    25
100
AcDbBlockReference
  2
BCB4-25_A
 10
37.99883570429489
 20
-1949.636992034056
 30
0.0
 50
270.0
  0
INSERT
  5
2B3
330
2
100
AcDbEntity
  8
K-1
  6
PHANTOM
 62
     5
100
AcDbBlockReference
  2
スペーサ
 10
23.19883570429471
 20
-1949.636992034278
 30
0.0
 41
-1.0
 50
90.0
  0
LINE
  5
2CD
330
2
100
AcDbEntity
  8
K-1
  6
ByBlock
 62
     0
100
AcDbLine
 10
28.45280900055013
 20
-1944.636992034439
 30
0.0
 11
23.95280900055025
 21
-1944.636992034439
 31
0.0
  0
LINE
  5
2CE
330
2
100
AcDbEntity
  8
K-1
  6
ByBlock
 62
     0
100
AcDbLine
 10
28.45280900055025
 20
-1954.636992034058
 30
0.0
 11
23.94883570429471
 21
-1954.636992034058
 31
0.0
  0
DIMENSION
  5
2CF
102
{ACAD_XDICTIONARY
360
2D0
102
}
102
{ACAD_REACTORS
330
2D1
102
}
330
2
100
AcDbEntity
  8
SUNPO
100
AcDbDimension
  2
*D14
 10
-124.7332775211645
 20
-1885.048361224255
 30
0.0
 11
-89.69020479582207
 21
-1860.446497406102
 31
0.0
 70
   131
 71
     5
 42
15.99999999999977
  3
AM_JIS$3
100
AcDbDiametricDimension
 15
-112.9490366060496
 25
-1874.225622843673
 35
0.0
 40
0.0
1001
ACAD_DSTYLE_DIMRADIAL_EXTENSION
1070
   387
1070
     1
1070
   388
1040
0.0
1070
   390
1040
0.0
1001
ACAD_DSTYLE_DIMINSPECT
1070
   396
1000
100%
1070
   395
1000

1070
   394
1070
    33
1070
   393
1070
     0
1001
ACAD
1000
DSTYLE
1002
{
1070
     3
1000
3-%%c<>
1070
   288
1070
     1
1002
}
  0
DIMENSION
  5
2E2
102
{ACAD_XDICTIONARY
360
2E3
102
}
102
{ACAD_REACTORS
330
2E4
102
}
330
2
100
AcDbEntity
  8
SUNPO
100
AcDbDimension
  2
*D15
 10
-107.8411570636073
 20
-1860.269966509169
 30
0.0
 11
-118.8411570636073
 21
-1856.769966509169
 31
0.0
 71
     5
 42
22.0
  3
AM_JIS$0
100
AcDbAlignedDimension
 13
-129.8411570636073
 23
-1879.636992033965
 33
0.0
 14
-107.8411570636073
 24
-1879.636992033965
 34
0.0
100
AcDbRotatedDimension
  0
DIMENSION
  5
2F2
330
2
100
AcDbEntity
  8
SUNPO
100
AcDbDimension
  2
*D16
 10
-118.8411570636062
 20
-1879.636992033961
 30
0.0
 11
-138.2710588458175
 21
-1865.792278047683
 31
0.0
 70
   132
  1
(<>)
 71
     5
 42
10.99999999999909
  3
AM_JIS$4
100
AcDbRadialDimension
 15
-127.7995873259085
 25
-1873.253691380267
 35
0.0
 40
0.0
1001
ACAD_DSTYLE_DIMINSPECT
1070
   396
1000
100%
1070
   395
1000

1070
   394
1070
    33
1070
   393
1070
     0
1001
ACAD_DSTYLE_DIMRADIAL_EXTENSION
1070
   387
1070
     1
1070
   388
1040
0.0
1070
   390
1040
3.141592653589793
  0
DIMENSION
  5
2FD
102
{ACAD_XDICTIONARY
360
2FE
102
}
102
{ACAD_REACTORS
330
2FF
102
}
330
2
100
AcDbEntity
  8
SUNPO
100
AcDbDimension
  2
*D17
 10
28.45280900055025
 20
-1860.325155504954
 30
0.0
 11
39.33058677832803
 21
-1856.825155504954
 31
0.0
 71
     5
 42
4.5
  3
AM_JIS$0
100
AcDbAlignedDimension
 13
23.95280900055025
 23
-1868.63699203408
 33
0.0
 14
28.45280900055025
 24
-1868.63699203408
 34
0.0
100
AcDbRotatedDimension
  0
DIMENSION
  5
30E
102
{ACAD_XDICTIONARY
360
30F
102
}
102
{ACAD_REACTORS
330
310
102
}
330
2
100
AcDbEntity
  8
SUNPO
100
AcDbDimension
  2
*D18
 10
-75.40584816671071
 20
-1879.636992033965
 30
0.0
 11
-78.90584816671041
 21
-1914.636992034015
 31
0.0
 71
     5
 42
70.00000000010095
  3
AM_JIS$0
100
AcDbAlignedDimension
 13
-125.3411570637859
 23
-1949.636992034065
 33
0.0
 14
-102.8411570636073
 24
-1879.636992033965
 34
0.0
 50
90.0
100
AcDbRotatedDimension
  0
DIMENSION
  5
31D
102
{ACAD_XDICTIONARY
360
31E
102
}
102
{ACAD_REACTORS
330
31F
102
}
330
2
100
AcDbEntity
  8
SUNPO
100
AcDbDimension
  2
*D19
 10
-75.40584816671071
 20
-1868.636992033964
 30
0.0
 11
-78.90584816671041
 21
-1874.136992033965
 31
0.0
 71
     5
 42
11.0
  3
AM_JIS$0
100
AcDbAlignedDimension
 13
-102.8411570636073
 23
-1879.636992033965
 33
0.0
 14
-118.8411570636073
 24
-1868.636992033964
 34
0.0
 50
90.0
100
AcDbRotatedDimension
  0
DIMENSION
  5
32C
102
{ACAD_XDICTIONARY
360
32D
102
}
102
{ACAD_REACTORS
330
32E
102
}
330
2
100
AcDbEntity
  8
SUNPO
100
AcDbDimension
  2
*D20
 10
-75.40584816671072
 20
-1949.636992034065
 30
0.0
 11
-75.40584816671041
 21
-1967.314769811843
 31
0.0
 70
   128
 71
     5
 42
6.799999999999954
  3
AM_JIS$0
100
AcDbAlignedDimension
 13
-133.841157063786
 23
-1956.436992034065
 33
0.0
 14
-125.3411570637859
 24
-1949.636992034065
 34
0.0
 50
90.0
100
AcDbRotatedDimension
  0
DIMENSION
  5
33D
102
{ACAD_XDICTIONARY
360
33E
102
}
102
{ACAD_REACTORS
330
33F
102
}
330
2
100
AcDbEntity
  8
SUNPO
100
AcDbDimension
  2
*D21
 10
-65.00296115255878
 20
-1956.436992034065
 30
0.0
 11
-68.50296115255845
 21
-1912.536992034015
 31
0.0
 71
     5
 42
87.8000000001009
  3
AM_JIS$0
100
AcDbAlignedDimension
 13
-118.8411570636073
 23
-1868.636992033964
 33
0.0
 14
-133.841157063786
 24
-1956.436992034065
 34
0.0
 50
90.0
100
AcDbRotatedDimension
  0
DIMENSION
  5
34C
102
{ACAD_XDICTIONARY
360
34D
102
}
102
{ACAD_REACTORS
330
34E
102
}
330
2
100
AcDbEntity
  8
SUNPO
100
AcDbDimension
  2
*D22
 10
-86.14075564142877
 20
-1899.636992033964
 30
0.0
 11
-89.64075564142845
 21
-1889.636992033965
 31
0.0
 71
     5
 42
20.0
  3
AM_JIS$0
100
AcDbAlignedDimension
 13
-101.8411570636073
 23
-1879.636992033965
 33
0.0
 14
-102.8411570636073
 24
-1899.636992033964
 34
0.0
 50
90.0
100
AcDbRotatedDimension
  0
DIMENSION
  5
35B
102
{ACAD_XDICTIONARY
360
35C
102
}
102
{ACAD_REACTORS
330
35D
102
}
330
2
100
AcDbEntity
  8
SUNPO
100
AcDbDimension
  2
*D23
 10
-86.14075564142877
 20
-1919.636992033964
 30
0.0
 11
-89.64075564142845
 21
-1909.636992033965
 31
0.0
 71
     5
 42
20.0
  3
AM_JIS$0
100
AcDbAlignedDimension
 13
-102.8411570636073
 23
-1899.636992033964
 33
0.0
 14
-102.8411570636073
 24
-1919.636992033964
 34
0.0
 50
90.0
100
AcDbRotatedDimension
  0
DIMENSION
  5
36A
102
{ACAD_XDICTIONARY
360
36B
102
}
102
{ACAD_REACTORS
330
36C
102
}
330
2
100
AcDbEntity
  8
SUNPO
100
AcDbDimension
  2
*D24
 10
-133.841157063786
 20
-1975.702592048438
 30
0.0
 11
-126.3411570636966
 21
-1972.202592048438
 31
0.0
 71
     5
 42
15.00000000017871
  3
AM_JIS$0
100
AcDbAlignedDimension
 13
-118.8411570636073
 23
-1933.505184314212
 33
0.0
 14
-133.841157063786
 24
-1958.136992034065
 34
0.0
100
AcDbRotatedDimension
  0
DIMENSION
  5
379
102
{ACAD_XDICTIONARY
360
37A
102
}
102
{ACAD_REACTORS
330
37B
102
}
330
2
100
AcDbEntity
  8
SUNPO
100
AcDbDimension
  2
*D25
 10
-118.8411570636073
 20
-1975.702592048438
 30
0.0
 11
-113.3411570636073
 21
-1972.202592048438
 31
0.0
 71
     5
 42
10.99999999999998
  3
AM_JIS$0
100
AcDbAlignedDimension
 13
-107.8411570636073
 23
-1936.704346004106
 33
0.0
 14
-118.8411570636073
 24
-1933.505184314212
 34
0.0
100
AcDbRotatedDimension
  0
DIMENSION
  5
388
102
{ACAD_XDICTIONARY
360
389
102
}
102
{ACAD_REACTORS
330
38A
102
}
330
2
100
AcDbEntity
  8
SUNPO
100
AcDbDimension
  2
*D26
 10
-140.6411570636945
 20
-1975.702592048438
 30
0.0
 11
-148.3361158100215
 21
-1975.711980371405
 31
0.0
 70
   128
 71
     5
 42
6.799999999908493
  3
AM_JIS$0
100
AcDbAlignedDimension
 13
-133.841157063786
 23
-1956.436992034065
 33
0.0
 14
-140.6411570636945
 24
-1949.636992034065
 34
0.0
100
AcDbRotatedDimension
1001
ACAD
1000
DSTYLE
1002
{
1070
   279
1070
     1
1002
}
  0
DIMENSION
  5
399
102
{ACAD_XDICTIONARY
360
39A
102
}
102
{ACAD_REACTORS
330
39B
102
}
330
2
100
AcDbEntity
  8
SUNPO
100
AcDbDimension
  2
*D27
 10
-117.8411570636065
 20
-1936.704346004106
 30
0.0
 11
-97.69146838942743
 21
-1943.194465515479
 31
0.0
 70
     4
 71
     5
 42
9.999999999999317
  3
AM_JIS$4
100
AcDbRadialDimension
 15
-108.9606117114009
 25
-1941.301727242094
 35
0.0
 40
0.0
1001
ACAD_DSTYLE_DIMRADIAL_EXTENSION
1070
   387
1070
     1
1070
   388
1040
5.23598775598297
1070
   390
1040
0.0000000000000455
  0
DIMENSION
  5
3A5
102
{ACAD_XDICTIONARY
360
3A6
102
}
102
{ACAD_REACTORS
330
3A7
102
}
330
2
100
AcDbEntity
  8
SUNPO
100
AcDbDimension
  2
*D28
 10
-130.4411570636948
 20
-1955.5259647798
 30
0.0
 11
-123.2742424368705
 21
-1939.070077407214
 31
0.0
 70
     2
 71
     5
 42
0.5235987755956268
  3
AM_JIS$2
100
AcDb2LineAngularDimension
 13
-139.7301298094286
 23
-1946.236992034065
 33
0.0
 14
-131.1809030257624
 24
-1931.429296879328
 34
0.0
 15
-112.8411570636072
 25
-1945.364600041949
 35
0.0
 16
-123.781509196426
 26
-1944.185143500387
 36
0.0
  0
DIMENSION
  5
3B5
102
{ACAD_XDICTIONARY
360
3B6
102
}
102
{ACAD_REACTORS
330
3B7
102
}
330
2
100
AcDbEntity
  8
SUNPO
100
AcDbDimension
  2
*D29
 10
-107.8411570636073
 20
-1985.543390893115
 30
0.0
 11
-124.2411570636509
 21
-1982.043390893115
 31
0.0
 71
     5
 42
32.80000000008721
  3
AM_JIS$0
100
AcDbAlignedDimension
 13
-140.6411570636945
 23
-1949.636992034065
 33
0.0
 14
-107.8411570636073
 24
-1936.704346004105
 34
0.0
100
AcDbRotatedDimension
  0
DIMENSION
  5
3C4
102
{ACAD_XDICTIONARY
360
3C5
102
}
102
{ACAD_REACTORS
330
3C6
102
}
330
2
100
AcDbEntity
  8
SUNPO
100
AcDbDimension
  2
*D30
 10
-130.5205523478667
 20
-1953.507855545121
 30
0.0
 11
-162.8120275511968
 21
-1928.987101048088
 31
0.0
 70
   131
 71
     5
 42
10.19999999999982
  3
AM_JIS$3
100
AcDbDiametricDimension
 15
-137.1617617795221
 25
-1945.76612852301
 35
0.0
 40
0.0
1001
ACAD_DSTYLE_DIMRADIAL_EXTENSION
1070
   387
1070
     1
1070
   388
1040
0.0
1070
   390
1040
0.0
1001
ACAD
1000
DSTYLE
1002
{
1070
    47
1040
0.2
1070
    48
1040
0.0
1070
    71
1070
     1
1070
    72
1070
     0
1070
   283
1070
     0
1070
   288
1070
     1
1002
}
  0
LEADER
  5
3D0
330
2
100
AcDbEntity
  8
SUNPO
100
AcDbLeader
  3
AM_JIS$7
 74
     0
 76
     2
 10
-129.8411570636073
 20
-1895.814048607961
 30
0.0
 10
-150.4466589006936
 20
-1886.915595750847
 30
0.0
1001
ACAD
1000
DSTYLE
1002
{
1070
   341
1005
37
1070
   147
1040
1.5
1070
    77
1070
     1
1070
    40
1040
1.0
1002
}
  0
INSERT
  5
3D2
330
2
100
AcDbEntity
  8
K-1
  6
ByBlock
100
AcDbBlockReference
 66
     1
  2
風船フォーマット1
 10
-157.3320508417819
 20
-1883.942150305308
 30
0.0
  0
ATTRIB
  5
3DA
330
3D2
100
AcDbEntity
  8
SUNPO
  6
ByBlock
 62
     0
100
AcDbText
 10
-162.6653841751244
 20
-1886.4421503053
 30
0.0
 40
5.0
  1
383
 41
0.8
  7
K1
 72
     4
 11
-157.332050841791
 21
-1883.942150305301
 31
0.0
100
AcDbAttribute
  2
1
 70
     0
  0
SEQEND
  5
3DB
330
3D2
100
AcDbEntity
  8
K-1
  6
ByBlock
  0
ENDSEC
  0
SECTION
  2
OBJECTS
  0
DICTIONARY
  5
9
330
0
100
AcDbDictionary
281
     1
  3
ACAD_2007HEADERVARS_RT
350
462
  3
ACAD_COLOR
350
4B
  3
ACAD_DETAILVIEWSTYLE
350
405
  3
ACAD_FIELDLIST
350
429
  3
ACAD_GROUP
350
46
  3
ACAD_LAYOUT
350
8
  3
ACAD_MATERIAL
350
18
  3
ACAD_MLEADERSTYLE
350
4E
  3
ACAD_MLINESTYLE
350
47
  3
ACAD_PLOTSETTINGS
350
48
  3
ACAD_PLOTSTYLENAME
350
16
  3
ACAD_SCALELIST
350
4C
  3
ACAD_SECTIONVIEWSTYLE
350
412
  3
ACAD_TABLESTYLE
350
4D
  3
ACAD_VISUALSTYLE
350
30
  3
ACDB_RECOMPOSE_DATA
350
461
  3
AcDbVariableDictionary
350
454
  3
AcDsDecomposeData
350
469
  3
AcmDictionary
350
3F6
  3
AMG
350
3E7
  0
DICTIONARY
  5
1A
330
11
100
AcDbDictionary
280
     1
281
     1
  3
ACAD_LAYERFILTERS
360
1B
  3
ACAD_LAYERSTATES
360
24
  0
DICTIONARY
  5
13
330
12
100
AcDbDictionary
280
     1
281
     1
  3
ADSK_XREC_LAYER_RECONCILED
360
14
  0
DICTIONARY
  5
50
330
4F
100
AcDbDictionary
280
     1
281
     1
  3
ADSK_XREC_LAYER_RECONCILED
360
51
  0
DICTIONARY
  5
2D3
330
2D2
100
AcDbDictionary
280
     1
281
     1
  3
ADSK_XREC_LAYER_RECONCILED
360
2D4
  0
DICTIONARY
  5
11C
330
11B
100
AcDbDictionary
280
     1
281
     1
  3
ADSK_XREC_LAYER_RECONCILED
360
11D
  0
DICTIONARY
  5
8C
330
8B
100
AcDbDictionary
280
     1
281
     1
  3
ADSK_XREC_LAYER_RECONCILED
360
8D
  0
DICTIONARY
  5
6D
330
6C
100
AcDbDictionary
280
     1
281
     1
  3
ADSK_XREC_LAYER_RECONCILED
360
6E
  0
DICTIONARY
  5
3
330
2
100
AcDbDictionary
280
     1
281
     1
  3
ACAD_SORTENTS
360
3E5
  0
DICTIONARY
  5
B
330
A
100
AcDbDictionary
280
     1
281
     1
  3
ACAD_SORTENTS
360
C
  0
DICTIONARY
  5
67
330
66
100
AcDbDictionary
280
     1
281
     1
  3
ACAD_SORTENTS
360
3DC
  0
DICTIONARY
  5
83
330
82
100
AcDbDictionary
280
     1
281
     1
  0
DICTIONARY
  5
1BC
330
1BB
100
AcDbDictionary
280
     1
281
     1
  3
ACAD_SORTENTS
360
3DF
  0
DICTIONARY
  5
20C
330
20B
100
AcDbDictionary
280
     1
281
     1
  3
ACAD_SORTENTS
360
3E0
  0
DICTIONARY
  5
2B5
330
2B4
100
AcDbDictionary
280
     1
281
     1
  3
ACAD_SORTENTS
360
3DD
  0
DICTIONARY
  5
123
330
122
100
AcDbDictionary
280
     1
281
     1
  3
ACAD_SORTENTS
360
3DE
  0
DICTIONARY
  5
A2
330
A1
100
AcDbDictionary
280
     1
281
     1
  3
ACAD_SORTENTS
360
3E1
  0
DICTIONARY
  5
B4
330
B3
100
AcDbDictionary
280
     1
281
     1
  3
ACAD_SORTENTS
360
3E2
  0
DICTIONARY
  5
9D
330
9C
100
AcDbDictionary
280
     1
281
     1
  3
ACAD_SORTENTS
360
3E3
  0
DICTIONARY
  5
3D4
330
3D3
100
AcDbDictionary
280
     1
281
     1
  3
ACAD_SORTENTS
360
3E4
  0
DICTIONARY
  5
47C
330
3CB
100
AcDbDictionary
280
     1
281
     1
  3
ACAD_MTEXT_RT
360
47D
  0
DICTIONARY
  5
2D0
330
2CF
100
AcDbDictionary
280
     1
281
     1
  3
ACAD_DIMASSOC
360
2D1
  0
DICTIONARY
  5
2E3
330
2E2
100
AcDbDictionary
280
     1
281
     1
  3
ACAD_DIMASSOC
360
2E4
  0
DICTIONARY
  5
2FE
330
2FD
100
AcDbDictionary
280
     1
281
     1
  3
ACAD_DIMASSOC
360
2FF
  0
DICTIONARY
  5
30F
330
30E
100
AcDbDictionary
280
     1
281
     1
  3
ACAD_DIMASSOC
360
310
  0
DICTIONARY
  5
31E
330
31D
100
AcDbDictionary
280
     1
281
     1
  3
ACAD_DIMASSOC
360
31F
  0
DICTIONARY
  5
32D
330
32C
100
AcDbDictionary
280
     1
281
     1
  3
ACAD_DIMASSOC
360
32E
  0
DICTIONARY
  5
33E
330
33D
100
AcDbDictionary
280
     1
281
     1
  3
ACAD_DIMASSOC
360
33F
  0
DICTIONARY
  5
34D
330
34C
100
AcDbDictionary
280
     1
281
     1
  3
ACAD_DIMASSOC
360
34E
  0
DICTIONARY
  5
35C
330
35B
100
AcDbDictionary
280
     1
281
     1
  3
ACAD_DIMASSOC
360
35D
  0
DICTIONARY
  5
36B
330
36A
100
AcDbDictionary
280
     1
281
     1
  3
ACAD_DIMASSOC
360
36C
  0
DICTIONARY
  5
37A
330
379
100
AcDbDictionary
280
     1
281
     1
  3
ACAD_DIMASSOC
360
37B
  0
DICTIONARY
  5
389
330
388
100
AcDbDictionary
280
     1
281
     1
  3
ACAD_DIMASSOC
360
38A
  0
DICTIONARY
  5
39A
330
399
100
AcDbDictionary
280
     1
281
     1
  3
ACAD_DIMASSOC
360
39B
  0
DICTIONARY
  5
3A6
330
3A5
100
AcDbDictionary
280
     1
281
     1
  3
ACAD_DIMASSOC
360
3A7
  0
DICTIONARY
  5
3B6
330
3B5
100
AcDbDictionary
280
     1
281
     1
  3
ACAD_DIMASSOC
360
3B7
  0
DICTIONARY
  5
3C5
330
3C4
100
AcDbDictionary
280
     1
281
     1
  3
ACAD_DIMASSOC
360
3C6
  0
DICTIONARY
  5
462
102
{ACAD_REACTORS
330
9
102
}
330
9
100
AcDbDictionary
281
     1
  3
INTERFEREVPVS
350
463
  0
DICTIONARY
  5
4B
102
{ACAD_REACTORS
330
9
102
}
330
9
100
AcDbDictionary
281
     1
  0
DICTIONARY
  5
405
102
{ACAD_REACTORS
330
9
102
}
330
9
100
AcDbDictionary
281
     1
  3
Metric50
350
40E
  0
FIELDLIST
  5
429
102
{ACAD_REACTORS
330
9
102
}
330
9
100
AcDbIdSet
 90
        3
330
415
330
416
330
417
100
AcDbFieldList
  0
DICTIONARY
  5
46
102
{ACAD_REACTORS
330
9
102
}
330
9
100
AcDbDictionary
281
     1
  0
DICTIONARY
  5
8
102
{ACAD_REACTORS
330
9
102
}
330
9
100
AcDbDictionary
281
     1
  3
Model
350
7
  3
S00
350
F
  0
DICTIONARY
  5
18
102
{ACAD_REACTORS
330
9
102
}
330
9
100
AcDbDictionary
281
     1
  3
ByBlock
350
4A
  3
ByLayer
350
49
  3
Global
350
17
  0
DICTIONARY
  5
4E
102
{ACAD_REACTORS
330
9
102
}
330
9
100
AcDbDictionary
281
     1
  0
DICTIONARY
  5
47
102
{ACAD_REACTORS
330
9
102
}
330
9
100
AcDbDictionary
281
     1
  3
Standard
350
52
  0
DICTIONARY
  5
48
102
{ACAD_REACTORS
330
9
102
}
330
9
100
AcDbDictionary
281
     1
  0
ACDBDICTIONARYWDFLT
  5
16
102
{ACAD_REACTORS
330
9
102
}
330
9
100
AcDbDictionary
281
     1
  3
Normal
350
15
100
AcDbDictionaryWithDefault
340
15
  0
DICTIONARY
  5
4C
102
{ACAD_REACTORS
330
9
102
}
330
9
100
AcDbDictionary
281
     1
  3
A0
350
57
  3
A1
350
58
  3
A2
350
59
  3
A3
350
5A
  3
A4
350
5B
  3
A5
350
5C
  3
A6
350
5D
  3
A7
350
5E
  3
A8
350
5F
  3
A9
350
60
  3
B0
350
61
  3
B1
350
62
  3
B2
350
63
  3
B3
350
64
  0
DICTIONARY
  5
412
102
{ACAD_REACTORS
330
9
102
}
330
9
100
AcDbDictionary
281
     1
  3
Metric50
350
419
  0
DICTIONARY
  5
4D
102
{ACAD_REACTORS
330
9
102
}
330
9
100
AcDbDictionary
281
     1
  3
Standard
350
53
  0
DICTIONARY
  5
30
102
{ACAD_REACTORS
330
9
102
}
330
9
100
AcDbDictionary
281
     1
  3
2dWireframe
350
2F
  3
3dWireframe
350
56
  3
Realistic
350
55
  0
XRECORD
  5
461
102
{ACAD_REACTORS
330
9
102
}
330
9
100
AcDbXrecord
280
     1
 90
        1
330
53
  0
DICTIONARY
  5
454
102
{ACAD_REACTORS
330
9
102
}
330
9
100
AcDbDictionary
281
     1
  3
CANNOSCALE
350
459
  3
CMLEADERSTYLE
350
456
  3
CTABLESTYLE
350
455
  3
CVIEWDETAILSTYLE
350
457
  3
CVIEWSECTIONSTYLE
350
458
  3
DIMASSOC
350
45E
  3
HIDETEXT
350
45C
  3
INDEXCTL
350
45B
  3
SOLIDHIST
350
45F
  3
SORTENTS
350
45A
  3
XCLIPFRAME
350
45D
  0
DICTIONARY
  5
469
102
{ACAD_REACTORS
330
9
102
}
330
9
100
AcDbDictionary
281
     1
  3
AcDsRecords
350
46B
  3
AcDsSchemas
350
46A
1001
ACAD
1070
     2
  0
DICTIONARY
  5
3F6
102
{ACAD_REACTORS
330
9
102
}
330
9
100
AcDbDictionary
281
     1
  3
AcmStdDictionary
350
3F7
  0
DICTIONARY
  5
3E7
102
{ACAD_REACTORS
330
9
102
}
330
9
100
AcDbDictionary
281
     1
  3
AcMgSettings
350
3EF
  0
DICTIONARY
  5
1B
102
{ACAD_REACTORS
330
1A
102
}
330
1A
100
AcDbDictionary
280
     1
281
     1
  3
A111-only
360
1C
  3
CENTER
360
1D
  3
E511-only
360
1E
  3
ganci
360
1F
  3
kiseki
360
20
  3
OFF AND FROZEN
360
21
  3
TTB-only
360
22
  3
ロック解除
360
23
  0
DICTIONARY
  5
24
102
{ACAD_REACTORS
330
1A
102
}
330
1A
100
AcDbDictionary
281
     1
  0
XRECORD
  5
14
102
{ACAD_REACTORS
330
13
102
}
330
13
100
AcDbXrecord
280
     1
290
     1
  0
XRECORD
  5
51
102
{ACAD_REACTORS
330
50
102
}
330
50
100
AcDbXrecord
280
     1
290
     1
  0
XRECORD
  5
2D4
102
{ACAD_REACTORS
330
2D3
102
}
330
2D3
100
AcDbXrecord
280
     1
290
     1
  0
XRECORD
  5
11D
102
{ACAD_REACTORS
330
11C
102
}
330
11C
100
AcDbXrecord
280
     1
290
     1
  0
XRECORD
  5
8D
102
{ACAD_REACTORS
330
8C
102
}
330
8C
100
AcDbXrecord
280
     1
290
     1
  0
XRECORD
  5
6E
102
{ACAD_REACTORS
330
6D
102
}
330
6D
100
AcDbXrecord
280
     1
290
     1
  0
SORTENTSTABLE
  5
3E5
102
{ACAD_REACTORS
330
3
102
}
330
3
100
AcDbSortentsTable
330
2
  0
SORTENTSTABLE
  5
C
102
{ACAD_REACTORS
330
B
102
}
330
B
100
AcDbSortentsTable
330
A
  0
SORTENTSTABLE
  5
3DC
102
{ACAD_REACTORS
330
67
102
}
330
67
100
AcDbSortentsTable
330
66
  0
SORTENTSTABLE
  5
3DF
102
{ACAD_REACTORS
330
1BC
102
}
330
1BC
100
AcDbSortentsTable
330
1BB
331
1E7
  5
1D8
331
1F0
  5
1C0
331
1E8
  5
1EF
331
1F1
  5
1F2
331
1E9
  5
1F0
331
1F2
  5
1F3
331
1EA
  5
1CD
331
1F3
  5
1F4
331
1EB
  5
1D3
331
1F4
  5
1F5
331
1F5
  5
1F6
331
1EC
  5
1E8
331
1BF
  5
1C1
331
1C8
  5
1CB
331
1F6
  5
1F7
331
1ED
  5
1E2
331
1C9
  5
1CE
331
1C0
  5
1C2
331
1F7
  5
1BF
331
1EE
  5
1CC
331
1CA
  5
1CF
331
1C1
  5
1C3
331
1EF
  5
1F1
331
1CB
  5
1D0
331
1C2
  5
1C4
331
1CC
  5
1D1
331
1C3
  5
1C5
331
1CD
  5
1D2
331
1C4
  5
1C6
331
1CE
  5
1D4
331
1C5
  5
1C7
331
1CF
  5
1D5
331
1D8
  5
1E5
331
1C6
  5
1C9
331
1D0
  5
1D6
331
1D9
  5
1E6
331
1C7
  5
1CA
331
1DA
  5
1E7
331
1D1
  5
1D7
331
1DB
  5
1E9
331
1D2
  5
1DE
331
1DC
  5
1EC
331
1D3
  5
1DF
331
1DD
  5
1EA
331
1D4
  5
1E0
331
1DE
  5
1EB
331
1D5
  5
1E1
331
1DF
  5
1D9
331
1D6
  5
1E3
331
1D7
  5
1E4
331
1E0
  5
1ED
331
1E1
  5
1EE
331
1E2
  5
1DD
331
1E3
  5
1DC
331
1E4
  5
1DB
331
1E5
  5
1DA
331
1E6
  5
1C8
  0
SORTENTSTABLE
  5
3E0
102
{ACAD_REACTORS
330
20C
102
}
330
20C
100
AcDbSortentsTable
330
20B
331
26C
  5
276
331
25D
  5
267
331
218
  5
21E
331
227
  5
234
331
236
  5
240
331
245
  5
24F
331
254
  5
25E
331
263
  5
26D
331
272
  5
21B
331
21E
  5
228
331
22D
  5
23A
331
23C
  5
247
331
24B
  5
255
331
211
  5
215
331
20F
  5
210
331
220
  5
22A
331
26B
  5
275
331
27A
  5
21A
331
25C
  5
266
331
217
  5
21D
331
226
  5
233
331
235
  5
23F
331
244
  5
24E
331
253
  5
25D
331
262
  5
26C
331
271
  5
213
331
21D
  5
227
331
22C
  5
239
331
23B
  5
246
331
24A
  5
254
331
210
  5
214
331
26A
  5
274
331
279
  5
212
331
25B
  5
265
331
216
  5
21C
331
225
  5
232
331
234
  5
23E
331
243
  5
24D
331
277
  5
20F
331
252
  5
25C
331
261
  5
26B
331
270
  5
27A
331
21C
  5
226
331
22B
  5
238
331
23A
  5
245
331
249
  5
253
331
251
  5
25B
331
25A
  5
264
331
269
  5
273
331
278
  5
211
331
276
  5
223
331
215
  5
219
331
224
  5
231
331
233
  5
23D
331
242
  5
24C
331
24F
  5
259
331
267
  5
271
331
26F
  5
279
331
260
  5
26A
331
21B
  5
225
331
22A
  5
237
331
239
  5
244
331
248
  5
252
331
257
  5
261
331
250
  5
25A
331
259
  5
263
331
275
  5
222
331
214
  5
218
331
223
  5
22D
331
232
  5
23C
331
268
  5
272
331
23F
  5
24A
331
24E
  5
258
331
266
  5
270
331
26E
  5
278
331
25F
  5
269
331
21A
  5
224
331
229
  5
236
331
238
  5
243
331
247
  5
251
331
256
  5
260
331
240
  5
24B
331
258
  5
262
331
265
  5
26F
331
274
  5
221
331
23E
  5
249
331
24D
  5
257
331
213
  5
217
331
222
  5
22C
331
231
  5
23B
331
26D
  5
277
331
25E
  5
268
331
219
  5
21F
331
228
  5
235
331
237
  5
242
331
246
  5
250
331
255
  5
25F
331
264
  5
26E
331
273
  5
220
331
23D
  5
248
331
24C
  5
256
331
212
  5
216
331
221
  5
22B
331
21F
  5
229
  0
SORTENTSTABLE
  5
3DD
102
{ACAD_REACTORS
330
2B5
102
}
330
2B5
100
AcDbSortentsTable
330
2B4
331
2CA
  5
2BB
331
2C4
  5
2C7
331
2BB
  5
2BC
331
2CB
  5
2B8
331
2C5
  5
2C8
331
2BC
  5
2BD
331
2C6
  5
2C9
331
2BD
  5
2BE
331
2C7
  5
2CA
331
2BE
  5
2BF
331
2BF
  5
2C0
331
2C0
  5
2C1
331
2B8
  5
2CB
331
2C1
  5
2C2
331
2C8
  5
2C4
331
2C2
  5
2C3
331
2C9
  5
2C6
331
2C3
  5
2C5
  0
SORTENTSTABLE
  5
3DE
102
{ACAD_REACTORS
330
123
102
}
330
123
100
AcDbSortentsTable
330
122
  0
SORTENTSTABLE
  5
3E1
102
{ACAD_REACTORS
330
A2
102
}
330
A2
100
AcDbSortentsTable
330
A1
  0
SORTENTSTABLE
  5
3E2
102
{ACAD_REACTORS
330
B4
102
}
330
B4
100
AcDbSortentsTable
330
B3
331
D3
  5
D4
331
C7
  5
C8
331
CF
  5
D0
331
C3
  5
C4
331
CB
  5
CC
331
B7
  5
B8
331
BF
  5
C0
331
BB
  5
BC
331
D2
  5
D3
331
C6
  5
C7
331
CE
  5
CF
331
C2
  5
C3
331
CA
  5
CB
331
BE
  5
BF
331
BA
  5
BB
331
D5
  5
B7
331
D1
  5
D2
331
C5
  5
C6
331
CD
  5
CE
331
C1
  5
C2
331
C9
  5
CA
331
BD
  5
BE
331
B9
  5
BA
331
D4
  5
D5
331
D0
  5
D1
331
C4
  5
C5
331
CC
  5
CD
331
C8
  5
C9
331
C0
  5
C1
331
BC
  5
BD
331
B8
  5
B9
  0
SORTENTSTABLE
  5
3E3
102
{ACAD_REACTORS
330
9D
102
}
330
9D
100
AcDbSortentsTable
330
9C
  0
SORTENTSTABLE
  5
3E4
102
{ACAD_REACTORS
330
3D4
102
}
330
3D4
100
AcDbSortentsTable
330
3D3
  0
XRECORD
  5
47D
102
{ACAD_REACTORS
330
47C
102
}
330
47C
100
AcDbXrecord
280
     1
 40
36661.0
  1
\U+220510.2{\H2.840000;\S+0.2^  0;}
  0
DIMASSOC
  5
2D1
102
{ACAD_REACTORS
330
2D0
102
}
330
2D0
100
AcDbDimAssoc
330
2CF
 90
        2
 70
     0
 71
     0
  1
AcDbOsnapPointRef
 72
     3
331
287
 73
     2
 91
        0
 40
0.0
 10
0.0
 20
0.0
 30
0.0
 75
     0
  0
DIMASSOC
  5
2E4
102
{ACAD_REACTORS
330
2E3
102
}
330
2E3
100
AcDbDimAssoc
330
2E2
 90
        3
 70
     0
 71
     0
  1
AcDbOsnapPointRef
 72
     1
331
28A
 73
     2
 91
        5
 40
1.0
 10
0.0
 20
0.0
 30
2.000000000000000E+50
 75
     0
  1
AcDbOsnapPointRef
 72
     1
331
28A
 73
     2
 91
        6
 40
0.0
 10
0.0
 20
0.0
 30
2.000000000000000E+50
 75
     0
  0
DIMASSOC
  5
2FF
102
{ACAD_REACTORS
330
2FE
102
}
330
2FE
100
AcDbDimAssoc
330
2FD
 90
        3
 70
     0
 71
     0
  1
AcDbOsnapPointRef
 72
    13
331
294
 73
     2
 91
        0
 40
0.0
 10
0.0
 20
0.0
 30
2.000000000000000E+50
 75
     0
  1
AcDbOsnapPointRef
 72
     1
331
294
 73
     2
 91
        0
 40
1.0
 10
0.0
 20
0.0
 30
2.000000000000000E+50
 75
     0
  0
DIMASSOC
  5
310
102
{ACAD_REACTORS
330
30F
102
}
330
30F
100
AcDbDimAssoc
330
30E
 90
        3
 70
     0
 71
     0
  1
AcDbOsnapPointRef
 72
     1
331
290
 73
     2
 91
        0
 40
1.0
 10
0.0
 20
0.0
 30
2.000000000000000E+50
 75
     0
  1
AcDbOsnapPointRef
 72
     1
331
288
 73
     2
 91
        0
 40
1.0
 10
0.0
 20
0.0
 30
2.000000000000000E+50
 75
     0
  0
DIMASSOC
  5
31F
102
{ACAD_REACTORS
330
31E
102
}
330
31E
100
AcDbDimAssoc
330
31D
 90
        3
 70
     0
 71
     0
  1
AcDbOsnapPointRef
 72
     1
331
288
 73
     2
 91
        0
 40
1.0
 10
0.0
 20
0.0
 30
2.000000000000000E+50
 75
     0
  1
AcDbOsnapPointRef
 72
     6
331
289
 73
     2
 91
        0
 40
0.0776629801033289
 10
0.0
 20
0.0
 30
0.0
332
28A
 74
     2
 92
        6
 75
     0
  0
DIMASSOC
  5
32E
102
{ACAD_REACTORS
330
32D
102
}
330
32D
100
AcDbDimAssoc
330
32C
 90
        3
 70
     0
 71
     0
  1
AcDbOsnapPointRef
 72
     6
331
291
 73
     2
 91
        0
 40
0.8999999999999973
 10
0.0
 20
0.0
 30
0.0
332
28A
 74
     2
 92
        2
 75
     0
  1
AcDbOsnapPointRef
 72
     1
331
290
 73
     2
 91
        0
 40
1.0
 10
0.0
 20
0.0
 30
2.000000000000000E+50
 75
     0
  0
DIMASSOC
  5
33F
102
{ACAD_REACTORS
330
33E
102
}
330
33E
100
AcDbDimAssoc
330
33D
 90
        3
 70
     0
 71
     0
  1
AcDbOsnapPointRef
 72
     6
331
289
 73
     2
 91
        0
 40
0.0776629801033289
 10
0.0
 20
0.0
 30
0.0
332
28A
 74
     2
 92
        6
 75
     0
  1
AcDbOsnapPointRef
 72
     6
331
291
 73
     2
 91
        0
 40
0.8999999999999973
 10
0.0
 20
0.0
 30
0.0
332
28A
 74
     2
 92
        2
 75
     0
  0
DIMASSOC
  5
34E
102
{ACAD_REACTORS
330
34D
102
}
330
34D
100
AcDbDimAssoc
330
34C
 90
        2
 70
     0
 71
     0
  1
AcDbOsnapPointRef
 72
     1
331
28D
 73
     2
 91
        0
 40
1.0
 10
0.0
 20
0.0
 30
2.000000000000000E+50
 75
     0
  0
DIMASSOC
  5
35D
102
{ACAD_REACTORS
330
35C
102
}
330
35C
100
AcDbDimAssoc
330
35B
 90
        3
 70
     0
 71
     0
  1
AcDbOsnapPointRef
 72
     1
331
28D
 73
     2
 91
        0
 40
1.0
 10
0.0
 20
0.0
 30
2.000000000000000E+50
 75
     0
  1
AcDbOsnapPointRef
 72
     1
331
28E
 73
     2
 91
        0
 40
1.0
 10
0.0
 20
0.0
 30
2.000000000000000E+50
 75
     0
  0
DIMASSOC
  5
36C
102
{ACAD_REACTORS
330
36B
102
}
330
36B
100
AcDbDimAssoc
330
36A
 90
        3
 70
     0
 71
     0
  1
AcDbOsnapPointRef
 72
     1
331
289
 73
     2
 91
        0
 40
1.0
 10
0.0
 20
0.0
 30
2.000000000000000E+50
 75
     0
  1
AcDbOsnapPointRef
 72
     1
331
291
 73
     2
 91
        0
 40
1.0
 10
0.0
 20
0.0
 30
2.000000000000000E+50
 75
     0
  0
DIMASSOC
  5
37B
102
{ACAD_REACTORS
330
37A
102
}
330
37A
100
AcDbDimAssoc
330
379
 90
        3
 70
     0
 71
     0
  1
AcDbOsnapPointRef
 72
     6
331
28A
 73
     2
 91
        7
 40
1.0
 10
0.0
 20
0.0
 30
0.0
332
28A
 74
     2
 92
        8
 75
     0
  1
AcDbOsnapPointRef
 72
     1
331
289
 73
     2
 91
        0
 40
1.0
 10
0.0
 20
0.0
 30
2.000000000000000E+50
 75
     0
  0
DIMASSOC
  5
38A
102
{ACAD_REACTORS
330
389
102
}
330
389
100
AcDbDimAssoc
330
388
 90
        3
 70
     0
 71
     0
  1
AcDbOsnapPointRef
 72
     6
331
291
 73
     2
 91
        0
 40
0.8999999999999973
 10
0.0
 20
0.0
 30
0.0
332
28A
 74
     2
 92
        2
 75
     0
  1
AcDbOsnapPointRef
 72
     6
331
290
 73
     2
 91
        0
 40
0.1000000000053794
 10
0.0
 20
0.0
 30
0.0
332
28A
 74
     2
 92
        2
 75
     0
  0
DIMASSOC
  5
39B
102
{ACAD_REACTORS
330
39A
102
}
330
39A
100
AcDbDimAssoc
330
399
 90
        2
 70
     0
 71
     0
  1
AcDbOsnapPointRef
 72
     3
331
28A
 73
     2
 91
        8
 40
0.0
 10
0.0
 20
0.0
 30
0.0
 75
     0
  0
DIMASSOC
  5
3A7
102
{ACAD_REACTORS
330
3A6
102
}
330
3A6
100
AcDbDimAssoc
330
3A5
 90
       15
 70
     0
 71
     0
  1
AcDbOsnapPointRef
 72
    13
331
28A
 73
     2
 91
        3
 40
0.0
 10
0.0
 20
0.0
 30
2.000000000000000E+50
 75
     0
  1
AcDbOsnapPointRef
 72
     1
331
28A
 73
     2
 91
        3
 40
1.0
 10
0.0
 20
0.0
 30
2.000000000000000E+50
 75
     0
  1
AcDbOsnapPointRef
 72
    13
331
28A
 73
     2
 91
        1
 40
0.0
 10
0.0
 20
0.0
 30
2.000000000000000E+50
 75
     0
  1
AcDbOsnapPointRef
 72
     1
331
28A
 73
     2
 91
        1
 40
1.0
 10
0.0
 20
0.0
 30
2.000000000000000E+50
 75
     0
  0
DIMASSOC
  5
3B7
102
{ACAD_REACTORS
330
3B6
102
}
330
3B6
100
AcDbDimAssoc
330
3B5
 90
        3
 70
     0
 71
     0
  1
AcDbOsnapPointRef
 72
     6
331
290
 73
     2
 91
        0
 40
0.1000000000053794
 10
0.0
 20
0.0
 30
0.0
332
28A
 74
     2
 92
        2
 75
     0
  1
AcDbOsnapPointRef
 72
     1
331
28A
 73
     2
 91
        7
 40
1.0
 10
0.0
 20
0.0
 30
2.000000000000000E+50
 75
     0
  0
DIMASSOC
  5
3C6
102
{ACAD_REACTORS
330
3C5
102
}
330
3C5
100
AcDbDimAssoc
330
3C4
 90
        2
 70
     0
 71
     0
  1
AcDbOsnapPointRef
 72
     3
331
28F
 73
     2
 91
        0
 40
0.0
 10
0.0
 20
0.0
 30
0.0
 75
     0
  0
XRECORD
  5
463
102
{ACAD_REACTORS
330
462
102
}
330
462
100
AcDbXrecord
280
     1
340
56
  0
ACDBDETAILVIEWSTYLE
  5
40E
102
{ACAD_XDICTIONARY
360
40F
102
}
102
{ACAD_REACTORS
330
405
330
40D
102
}
330
405
100
AcDbModelDocViewStyle
 70
     0
  3
Metric50
290
     0
100
AcDbDetailViewStyle
 70
     0
 71
     0
 90
        3
 71
     1
340
26
 40
5.0
340
0
 40
5.0
300

 40
0.0
280
     1
 71
     2
340
19
 90
       25
 71
     3
340
26
 40
5.0
 90
        0
 40
15.0
 90
        1
300
%<\AcVar ViewDetailId>% (%<\AcVar ViewScale \f "%sn">%)
 71
     4
340
19
 90
       25
340
19
 90
       25
280
     0
  0
LAYOUT
  5
7
102
{ACAD_XDICTIONARY
360
46C
102
}
102
{ACAD_REACTORS
330
8
102
}
330
8
100
AcDbPlotSettings
  1

  2
EPSON LP-8200表紙
  4
A3
  6

 40
5.873749732971191
 41
5.873747825622558
 42
5.789093017578125
 43
5.873748779296875
 44
296.9259948730469
 45
419.9466552734374
 46
0.0
 47
0.0
 48
1218.835480609299
 49
-77.0280712427367
140
1626.835480609299
141
207.9719287572633
142
1.0
143
1.0
 70
 11952
 72
     1
 73
     1
 74
     4
  7
A3-A3.ctb
 75
    16
147
1.0
148
-1218.835480609299
149
77.0280712427367
100
AcDbLayout
  1
Model
 70
     1
 71
     0
 10
0.0
 20
0.0
 11
12.0
 21
9.0
 12
0.0
 22
0.0
 32
0.0
 14
0.0
 24
0.0
 34
0.0
 15
0.0
 25
0.0
 35
0.0
146
0.0
 13
0.0
 23
0.0
 33
0.0
 16
1.0
 26
0.0
 36
0.0
 17
0.0
 27
1.0
 37
0.0
 76
     0
330
2
331
2E
  0
LAYOUT
  5
F
102
{ACAD_XDICTIONARY
360
10
102
}
102
{ACAD_REACTORS
330
8
102
}
330
8
100
AcDbPlotSettings
  1

  2
EPSON LP-8200 表紙
  4
A3
  6

 40
5.873749732971191
 41
5.873747825622558
 42
5.873748779296875
 43
5.873748779296875
 44
419.9466552734374
 45
297.0106506347656
 46
0.0
 47
0.0
 48
0.0
 49
0.0
140
0.0
141
0.0
142
0.7
143
1.0
 70
   672
 72
     1
 73
     0
 74
     5
  7
A1-A3.ctb
 75
     0
147
1.0
148
0.0
149
0.0
100
AcDbLayout
  1
S00
 70
     1
 71
    20
 10
-8.391071047101702
 20
-8.391068322317941
 11
591.5327222006661
 21
415.9098611559186
 12
0.0
 22
0.0
 32
0.0
 14
-10.01835592131328
 24
-10.01299674582856
 34
-0.0015258207003583
 15
590.0366018691502
 25
415.0130182616429
 35
0.0000000349246037
146
0.0
 13
0.0
 23
0.0
 33
0.0
 16
1.0
 26
0.0
 36
0.0
 17
0.0
 27
1.0
 37
0.0
 76
     0
330
A
  0
MATERIAL
  5
4A
102
{ACAD_XDICTIONARY
360
475
102
}
102
{ACAD_REACTORS
330
18
102
}
330
18
100
AcDbMaterial
  1
ByBlock
 73
     1
 78
     1
172
     1
176
     1
270
     1
274
     1
  0
MATERIAL
  5
49
102
{ACAD_XDICTIONARY
360
473
102
}
102
{ACAD_REACTORS
330
18
102
}
330
18
100
AcDbMaterial
  1
ByLayer
 73
     1
 78
     1
172
     1
176
     1
270
     1
274
     1
  0
MATERIAL
  5
17
102
{ACAD_XDICTIONARY
360
46F
102
}
102
{ACAD_REACTORS
330
18
102
}
330
18
100
AcDbMaterial
  1
Global
 73
     1
 78
     1
172
     1
176
     1
270
     1
274
     1
  0
MLINESTYLE
  5
52
102
{ACAD_REACTORS
330
47
102
}
330
47
100
AcDbMlineStyle
  2
STANDARD
 70
     0
  3

 62
   256
 51
90.0
 52
90.0
 71
     2
 49
0.5
 62
   256
  6
BYLAYER
 49
-0.5
 62
   256
  6
BYLAYER
  0
ACDBPLACEHOLDER
  5
15
102
{ACAD_REACTORS
330
16
102
}
330
16
  0
SCALE
  5
57
102
{ACAD_REACTORS
330
4C
102
}
330
4C
100
AcDbScale
 70
     0
300
1:1
140
1.0
141
1.0
290
     1
  0
SCALE
  5
58
102
{ACAD_REACTORS
330
4C
102
}
330
4C
100
AcDbScale
 70
     0
300
1:2
140
1.0
141
2.0
290
     0
  0
SCALE
  5
59
102
{ACAD_REACTORS
330
4C
102
}
330
4C
100
AcDbScale
 70
     0
300
1:3
140
1.0
141
3.0
290
     0
  0
SCALE
  5
5A
102
{ACAD_REACTORS
330
4C
102
}
330
4C
100
AcDbScale
 70
     0
300
1:4
140
1.0
141
4.0
290
     0
  0
SCALE
  5
5B
102
{ACAD_REACTORS
330
4C
102
}
330
4C
100
AcDbScale
 70
     0
300
1:5
140
1.0
141
5.0
290
     0
  0
SCALE
  5
5C
102
{ACAD_REACTORS
330
4C
102
}
330
4C
100
AcDbScale
 70
     0
300
1:6
140
1.0
141
6.0
290
     0
  0
SCALE
  5
5D
102
{ACAD_REACTORS
330
4C
102
}
330
4C
100
AcDbScale
 70
     0
300
1:8
140
1.0
141
8.0
290
     0
  0
SCALE
  5
5E
102
{ACAD_REACTORS
330
4C
102
}
330
4C
100
AcDbScale
 70
     0
300
1:10
140
1.0
141
10.0
290
     0
  0
SCALE
  5
5F
102
{ACAD_REACTORS
330
4C
102
}
330
4C
100
AcDbScale
 70
     0
300
1:16
140
1.0
141
16.0
290
     0
  0
SCALE
  5
60
102
{ACAD_REACTORS
330
4C
102
}
330
4C
100
AcDbScale
 70
     0
300
1:20
140
1.0
141
20.0
290
     0
  0
SCALE
  5
61
102
{ACAD_REACTORS
330
4C
102
}
330
4C
100
AcDbScale
 70
     0
300
1:30
140
1.0
141
30.0
290
     0
  0
SCALE
  5
62
102
{ACAD_REACTORS
330
4C
102
}
330
4C
100
AcDbScale
 70
     0
300
1:40
140
1.0
141
40.0
290
     0
  0
SCALE
  5
63
102
{ACAD_REACTORS
330
4C
102
}
330
4C
100
AcDbScale
 70
     0
300
1:50
140
1.0
141
50.0
290
     0
  0
SCALE
  5
64
102
{ACAD_REACTORS
330
4C
102
}
330
4C
100
AcDbScale
 70
     0
300
2:1
140
2.0
141
1.0
290
     0
  0
ACDBSECTIONVIEWSTYLE
  5
419
102
{ACAD_XDICTIONARY
360
41A
102
}
102
{ACAD_REACTORS
330
412
330
418
102
}
330
412
100
AcDbModelDocViewStyle
 70
     0
  3
Metric50
290
     0
100
AcDbSectionViewStyle
 70
     0
 71
     0
 90
      102
 71
     1
340
26
 40
5.0
340
0
340
0
 40
5.0
300
I, O, Q, S, X, Z
 40
10.0
 90
        0
 40
2.5
 90
        0
 71
     2
340
19
 90
       25
340
19
 90
       50
 40
5.0
 40
2.5
 40
5.0
 71
     3
340
26
 40
5.0
 90
        0
 40
15.0
 90
        1
300
%<\AcVar ViewSectionStartId>%-%<\AcVar ViewSectionEndId>% (%<\AcVar ViewScale \f "%sn">%)
 71
     4
300
ANSI31
 40
1.0
 90
        0
290
     0
290
     0
 90
        6
 40
0.0
 40
1.570796326794896
 40
0.2617993877991494
 40
1.308996938995747
 40
-0.2617993877991494
 40
1.832595714594046
  0
TABLESTYLE
  5
53
102
{ACAD_XDICTIONARY
360
54
102
}
102
{ACAD_REACTORS
330
4D
102
}
330
4D
100
AcDbTableStyle
  3
Standard
 70
     0
 71
     0
 40
1.5
 41
1.5
280
     0
281
     0
  7
STANDARD
140
4.5
170
     2
 62
     0
 63
     7
283
     0
274
    -2
284
     1
 64
     0
275
    -2
285
     1
 65
     0
276
    -2
286
     1
 66
     0
277
    -2
287
     1
 67
     0
278
    -2
288
     1
 68
     0
279
    -2
289
     1
 69
     0
  7
STANDARD
140
6.0
170
     5
 62
     0
 63
     7
283
     0
274
    -2
284
     1
 64
     0
275
    -2
285
     1
 65
     0
276
    -2
286
     1
 66
     0
277
    -2
287
     1
 67
     0
278
    -2
288
     1
 68
     0
279
    -2
289
     1
 69
     0
  7
STANDARD
140
4.5
170
     5
 62
     0
 63
     7
283
     0
274
    -2
284
     1
 64
     0
275
    -2
285
     1
 65
     0
276
    -2
286
     1
 66
     0
277
    -2
287
     1
 67
     0
278
    -2
288
     1
 68
     0
279
    -2
289
     1
 69
     0
  0
VISUALSTYLE
  5
2F
102
{ACAD_XDICTIONARY
360
471
102
}
102
{ACAD_REACTORS
330
30
102
}
330
30
100
AcDbVisualStyle
  2
2dWireframe
 70
     4
 71
     0
 72
     2
 73
     0
 90
        0
 40
-0.6
 41
-30.0
 62
     5
 63
     7
 74
     1
 91
        4
 64
     7
 65
   257
 75
     1
175
     1
 42
1.0
 92
        0
 66
   257
 43
1.0
 76
     1
 77
     6
 78
     2
 67
     7
 79
     5
170
     0
171
     0
290
     0
174
     0
 93
        1
 44
0.0
173
     0
291
     0
 45
0.0
1001
ACAD
1000
AcDbSavedByObjectVersion
1070
     0
  0
VISUALSTYLE
  5
56
102
{ACAD_XDICTIONARY
360
47A
102
}
102
{ACAD_REACTORS
330
30
102
}
330
30
100
AcDbVisualStyle
  2
3dWireframe
 70
     5
 71
     0
 72
     2
 73
     0
 90
        0
 40
-0.6
 41
-30.0
 62
     5
 63
     7
 74
     1
 91
        4
 64
     7
 65
   257
 75
     1
175
     1
 42
1.0
 92
        0
 66
   257
 43
1.0
 76
     1
 77
     6
 78
     2
 67
     7
 79
     5
170
     0
171
     0
290
     0
174
     0
 93
        1
 44
0.0
173
     0
291
     0
 45
0.0
1001
ACAD
1000
AcDbSavedByObjectVersion
1070
     0
  0
VISUALSTYLE
  5
55
102
{ACAD_XDICTIONARY
360
478
102
}
102
{ACAD_REACTORS
330
30
102
}
330
30
100
AcDbVisualStyle
  2
Realistic
 70
     8
 71
     2
 72
     2
 73
     0
 90
        0
 40
-0.6
 41
-30.0
 62
     5
 63
     7
 74
     1
 91
        0
 64
     7
 65
   257
 75
     1
175
     1
 42
1.0
 92
        8
 66
     8
 43
1.0
 76
     1
 77
     6
 78
     2
 67
     7
 79
     5
170
     0
171
     0
290
     0
174
     0
 93
       13
 44
0.0
173
     0
291
     0
 45
0.0
1001
ACAD
1000
AcDbSavedByObjectVersion
1070
     0
  0
DICTIONARYVAR
  5
459
102
{ACAD_REACTORS
330
454
102
}
330
454
100
DictionaryVariables
280
     0
  1
1:1
  0
DICTIONARYVAR
  5
456
102
{ACAD_REACTORS
330
454
102
}
330
454
100
DictionaryVariables
280
     0
  1
STANDARD
  0
DICTIONARYVAR
  5
455
102
{ACAD_REACTORS
330
454
102
}
330
454
100
DictionaryVariables
280
     0
  1
STANDARD
  0
DICTIONARYVAR
  5
457
102
{ACAD_REACTORS
330
454
102
}
330
454
100
DictionaryVariables
280
     0
  1

  0
DICTIONARYVAR
  5
458
102
{ACAD_REACTORS
330
454
102
}
330
454
100
DictionaryVariables
280
     0
  1

  0
DICTIONARYVAR
  5
45E
102
{ACAD_REACTORS
330
454
102
}
330
454
100
DictionaryVariables
280
     0
  1
2
  0
DICTIONARYVAR
  5
45C
102
{ACAD_REACTORS
330
454
102
}
330
454
100
DictionaryVariables
280
     0
  1
1
  0
DICTIONARYVAR
  5
45B
102
{ACAD_REACTORS
330
454
102
}
330
454
100
DictionaryVariables
280
     0
  1
0
  0
DICTIONARYVAR
  5
45F
102
{ACAD_REACTORS
330
454
102
}
330
454
100
DictionaryVariables
280
     0
  1
1
  0
DICTIONARYVAR
  5
45A
102
{ACAD_REACTORS
330
454
102
}
330
454
100
DictionaryVariables
280
     0
  1
127
  0
DICTIONARYVAR
  5
45D
102
{ACAD_REACTORS
330
454
102
}
330
454
100
DictionaryVariables
280
     0
  1
0
  0
DICTIONARY
  5
46B
102
{ACAD_REACTORS
330
469
102
}
330
469
100
AcDbDictionary
281
     1
  0
DICTIONARY
  5
46A
102
{ACAD_REACTORS
330
469
102
}
330
469
100
AcDbDictionary
281
     1
  3
8796080775872
350
464
  3
8796080775888
350
465
  3
8796080775904
350
466
  3
8796080775920
350
467
  3
8796080775936
350
468
  0
DICTIONARY
  5
3F7
102
{ACAD_REACTORS
330
3F6
102
}
330
3F6
100
AcDbDictionary
281
     1
  0
DICTIONARY
  5
3EF
102
{ACAD_REACTORS
330
3E7
102
}
330
3E7
100
AcDbDictionary
281
     1
  3
DWGSETTINGS
350
3EE
  3
FEM
350
3F0
  3
Shaft
350
3F1
  3
TRANSSETTINGS
350
3F2
  0
XRECORD
  5
1C
102
{ACAD_REACTORS
330
1B
102
}
330
1B
100
AcDbXrecord
280
     1
  1
A111-only
  1
A111*
  1
*
  1
*
 70
     0
  1
*
  1
*
  0
XRECORD
  5
1D
102
{ACAD_REACTORS
330
1B
102
}
330
1B
100
AcDbXrecord
280
     1
  1
CENTER
  1
*
  1
*
  1
CENTER2
 70
     3
  1
*
  1
*
  0
XRECORD
  5
1E
102
{ACAD_REACTORS
330
1B
102
}
330
1B
100
AcDbXrecord
280
     1
  1
E511-only
  1
E511*
  1
*
  1
*
 70
     0
  1
*
  1
*
  0
XRECORD
  5
1F
102
{ACAD_REACTORS
330
1B
102
}
330
1B
100
AcDbXrecord
280
     1
  1
ganci
  1
anello
  1
*
  1
*
 70
     0
  1
*
  1
*
  0
XRECORD
  5
20
102
{ACAD_REACTORS
330
1B
102
}
330
1B
100
AcDbXrecord
280
     1
  1
kiseki
  1
kiseki*
  1
*
  1
*
 70
     0
  1
*
  1
*
  0
XRECORD
  5
21
102
{ACAD_REACTORS
330
1B
102
}
330
1B
100
AcDbXrecord
280
     1
  1
OFF AND FROZEN
  1
*
  1
*
  1
*
 70
     7
  1
*
  1
*
  0
XRECORD
  5
22
102
{ACAD_REACTORS
330
1B
102
}
330
1B
100
AcDbXrecord
280
     1
  1
TTB-only
  1
T*
  1
*
  1
*
 70
     0
  1
*
  1
*
  0
XRECORD
  5
23
102
{ACAD_REACTORS
330
1B
102
}
330
1B
100
AcDbXrecord
280
     1
  1
ロック解除
  1
*
  1
*
  1
*
 70
   768
  1
*
  1
*
  0
DICTIONARY
  5
40F
330
40E
100
AcDbDictionary
280
     1
281
     1
  3
ACAD_XREC_ROUNDTRIP
360
47E
  0
DICTIONARY
  5
46C
330
7
100
AcDbDictionary
280
     1
281
     1
  3
ACAD_XREC_ROUNDTRIP
360
46D
  0
DICTIONARY
  5
10
330
F
100
AcDbDictionary
280
     1
281
     1
  3
ACAD_XREC_ROUNDTRIP
360
46E
  0
DICTIONARY
  5
475
330
4A
100
AcDbDictionary
280
     1
281
     1
  3
ACAD_XREC_ROUNDTRIP
360
476
  0
DICTIONARY
  5
473
330
49
100
AcDbDictionary
280
     1
281
     1
  3
ACAD_XREC_ROUNDTRIP
360
474
  0
DICTIONARY
  5
46F
330
17
100
AcDbDictionary
280
     1
281
     1
  3
ACAD_XREC_ROUNDTRIP
360
470
  0
DICTIONARY
  5
41A
330
419
100
AcDbDictionary
280
     1
281
     1
  3
ACAD_XREC_ROUNDTRIP
360
47F
  0
DICTIONARY
  5
54
330
53
100
AcDbDictionary
280
     1
281
     1
  3
ACAD_ROUNDTRIP_2008_TABLESTYLE_CELLSTYLEMAP
360
460
  3
ACAD_XREC_ROUNDTRIP
360
477
  0
DICTIONARY
  5
471
330
2F
100
AcDbDictionary
280
     1
281
     1
  3
ACAD_XREC_ROUNDTRIP
360
472
  0
DICTIONARY
  5
47A
330
56
100
AcDbDictionary
280
     1
281
     1
  3
ACAD_XREC_ROUNDTRIP
360
47B
  0
DICTIONARY
  5
478
330
55
100
AcDbDictionary
280
     1
281
     1
  3
ACAD_XREC_ROUNDTRIP
360
479
  0
XRECORD
  5
464
102
{ACAD_REACTORS
330
46A
102
}
330
46A
100
AcDbXrecord
280
     1
  1
AcDb_Thumbnail_Schema
102
{ATTRRECORD
341
465
  2
AcDbDs::TreatedAsObjectData
280
     1
291
     1
102
ATTRRECORD}
102
{ATTRRECORD
341
466
  2
AcDbDs::Legacy
280
     1
291
     1
102
ATTRRECORD}
  2
AcDbDs::ID
280
    10
 91
        8
102
{ATTRRECORD
341
467
  2
AcDs:Indexable
280
     1
291
     1
102
ATTRRECORD}
102
{ATTRRECORD
341
468
  2
AcDbDs::HandleAttribute
280
     7
282
     1
102
ATTRRECORD}
  2
Thumbnail_Data
280
    15
 91
        0
  0
XRECORD
  5
465
102
{ACAD_REACTORS
330
46A
102
}
330
46A
100
AcDbXrecord
280
     1
  1
AcDbDs::TreatedAsObjectDataSchema
  2
AcDbDs::TreatedAsObjectData
280
     1
 91
        0
  0
XRECORD
  5
466
102
{ACAD_REACTORS
330
46A
102
}
330
46A
100
AcDbXrecord
280
     1
  1
AcDbDs::LegacySchema
  2
AcDbDs::Legacy
280
     1
 91
        0
  0
XRECORD
  5
467
102
{ACAD_REACTORS
330
46A
102
}
330
46A
100
AcDbXrecord
280
     1
  1
AcDbDs::IndexedPropertySchema
  2
AcDs:Indexable
280
     1
 91
        0
  0
XRECORD
  5
468
102
{ACAD_REACTORS
330
46A
102
}
330
46A
100
AcDbXrecord
280
     1
  1
AcDbDs::HandleAttributeSchema
  2
AcDbDs::HandleAttribute
280
     7
 91
        1
284
     1
  0
XRECORD
  5
47E
102
{ACAD_REACTORS
330
40F
102
}
330
40F
100
AcDbXrecord
280
     1
102
DISPLAYNAME
  1
Metric50
102
FLAGS
 90
        0
  0
XRECORD
  5
46D
102
{ACAD_REACTORS
330
46C
102
}
330
46C
100
AcDbXrecord
280
     1
102
SHADEPLOT
 70
     0
102
SHADEPLOTRESLEVEL
 70
     2
102
SHADEPLOTCUSTOMDPI
 70
   300
  0
XRECORD
  5
46E
102
{ACAD_REACTORS
330
10
102
}
330
10
100
AcDbXrecord
280
     1
102
SHADEPLOT
 70
     0
102
SHADEPLOTRESLEVEL
 70
     2
102
SHADEPLOTCUSTOMDPI
 70
   300
  0
XRECORD
  5
476
102
{ACAD_REACTORS
330
475
102
}
330
475
100
AcDbXrecord
280
     1
102
MATERIAL
148
0.0
149
0.0
149
0.0
 93
        0
 94
       63
282
     0
 72
     1
 77
     1
171
     1
175
     1
179
     1
273
     0
  0
XRECORD
  5
474
102
{ACAD_REACTORS
330
473
102
}
330
473
100
AcDbXrecord
280
     1
102
MATERIAL
148
0.0
149
0.0
149
0.0
 93
        0
 94
       63
282
     0
 72
     1
 77
     1
171
     1
175
     1
179
     1
273
     0
  0
XRECORD
  5
470
102
{ACAD_REACTORS
330
46F
102
}
330
46F
100
AcDbXrecord
280
     1
102
MATERIAL
148
0.0
149
0.0
149
0.0
 93
        0
 94
       63
282
     0
 72
     1
 77
     1
171
     1
175
     1
179
     1
273
     0
  0
XRECORD
  5
47F
102
{ACAD_REACTORS
330
41A
102
}
330
41A
100
AcDbXrecord
280
     1
102
DISPLAYNAME
  1
Metric50
102
FLAGS
 90
        0
  0
CELLSTYLEMAP
  5
460
102
{ACAD_REACTORS
330
54
102
}
330
54
100
AcDbCellStyleMap
 90
        3
300
CELLSTYLE
  1
TABLEFORMAT_BEGIN
 90
        5
170
     1
 91
        0
 92
    32768
 62
   257
 93
        1
300
CONTENTFORMAT
  1
CONTENTFORMAT_BEGIN
 90
        0
 91
        0
 92
      512
 93
        0
300

 40
0.0
140
1.0
 94
        5
 62
     0
340
26
144
6.0
309
CONTENTFORMAT_END
171
     1
301
MARGIN
  1
CELLMARGIN_BEGIN
 40
1.5
 40
1.5
 40
1.5
 40
1.5
 40
0.18
 40
0.18
309
CELLMARGIN_END
 94
        6
 95
        1
302
GRIDFORMAT
  1
GRIDFORMAT_BEGIN
 90
        0
 91
        1
 62
     0
 92
       -2
340
0
 93
        0
 40
0.045
309
GRIDFORMAT_END
 95
        2
302
GRIDFORMAT
  1
GRIDFORMAT_BEGIN
 90
        0
 91
        1
 62
     0
 92
       -2
340
0
 93
        0
 40
0.045
309
GRIDFORMAT_END
 95
        4
302
GRIDFORMAT
  1
GRIDFORMAT_BEGIN
 90
        0
 91
        1
 62
     0
 92
       -2
340
0
 93
        0
 40
0.045
309
GRIDFORMAT_END
 95
        8
302
GRIDFORMAT
  1
GRIDFORMAT_BEGIN
 90
        0
 91
        1
 62
     0
 92
       -2
340
0
 93
        0
 40
0.045
309
GRIDFORMAT_END
 95
       16
302
GRIDFORMAT
  1
GRIDFORMAT_BEGIN
 90
        0
 91
        1
 62
     0
 92
       -2
340
0
 93
        0
 40
0.045
309
GRIDFORMAT_END
 95
       32
302
GRIDFORMAT
  1
GRIDFORMAT_BEGIN
 90
        0
 91
        1
 62
     0
 92
       -2
340
0
 93
        0
 40
0.045
309
GRIDFORMAT_END
309
TABLEFORMAT_END
  1
CELLSTYLE_BEGIN
 90
        1
 91
        1
300
_TITLE
309
CELLSTYLE_END
300
CELLSTYLE
  1
TABLEFORMAT_BEGIN
 90
        5
170
     1
 91
        0
 92
        0
 62
   257
 93
        1
300
CONTENTFORMAT
  1
CONTENTFORMAT_BEGIN
 90
        0
 91
        0
 92
      512
 93
        0
300

 40
0.0
140
1.0
 94
        5
 62
     0
340
26
144
4.5
309
CONTENTFORMAT_END
171
     1
301
MARGIN
  1
CELLMARGIN_BEGIN
 40
1.5
 40
1.5
 40
1.5
 40
1.5
 40
0.18
 40
0.18
309
CELLMARGIN_END
 94
        6
 95
        1
302
GRIDFORMAT
  1
GRIDFORMAT_BEGIN
 90
        0
 91
        1
 62
     0
 92
       -2
340
0
 93
        0
 40
0.045
309
GRIDFORMAT_END
 95
        2
302
GRIDFORMAT
  1
GRIDFORMAT_BEGIN
 90
        0
 91
        1
 62
     0
 92
       -2
340
0
 93
        0
 40
0.045
309
GRIDFORMAT_END
 95
        4
302
GRIDFORMAT
  1
GRIDFORMAT_BEGIN
 90
        0
 91
        1
 62
     0
 92
       -2
340
0
 93
        0
 40
0.045
309
GRIDFORMAT_END
 95
        8
302
GRIDFORMAT
  1
GRIDFORMAT_BEGIN
 90
        0
 91
        1
 62
     0
 92
       -2
340
0
 93
        0
 40
0.045
309
GRIDFORMAT_END
 95
       16
302
GRIDFORMAT
  1
GRIDFORMAT_BEGIN
 90
        0
 91
        1
 62
     0
 92
       -2
340
0
 93
        0
 40
0.045
309
GRIDFORMAT_END
 95
       32
302
GRIDFORMAT
  1
GRIDFORMAT_BEGIN
 90
        0
 91
        1
 62
     0
 92
       -2
340
0
 93
        0
 40
0.045
309
GRIDFORMAT_END
309
TABLEFORMAT_END
  1
CELLSTYLE_BEGIN
 90
        2
 91
        1
300
_HEADER
309
CELLSTYLE_END
300
CELLSTYLE
  1
TABLEFORMAT_BEGIN
 90
        5
170
     1
 91
        0
 92
        0
 62
   257
 93
        1
300
CONTENTFORMAT
  1
CONTENTFORMAT_BEGIN
 90
        0
 91
        0
 92
      512
 93
        0
300

 40
0.0
140
1.0
 94
        2
 62
     0
340
26
144
4.5
309
CONTENTFORMAT_END
171
     1
301
MARGIN
  1
CELLMARGIN_BEGIN
 40
1.5
 40
1.5
 40
1.5
 40
1.5
 40
0.18
 40
0.18
309
CELLMARGIN_END
 94
        6
 95
        1
302
GRIDFORMAT
  1
GRIDFORMAT_BEGIN
 90
        0
 91
        1
 62
     0
 92
       -2
340
0
 93
        0
 40
0.045
309
GRIDFORMAT_END
 95
        2
302
GRIDFORMAT
  1
GRIDFORMAT_BEGIN
 90
        0
 91
        1
 62
     0
 92
       -2
340
0
 93
        0
 40
0.045
309
GRIDFORMAT_END
 95
        4
302
GRIDFORMAT
  1
GRIDFORMAT_BEGIN
 90
        0
 91
        1
 62
     0
 92
       -2
340
0
 93
        0
 40
0.045
309
GRIDFORMAT_END
 95
        8
302
GRIDFORMAT
  1
GRIDFORMAT_BEGIN
 90
        0
 91
        1
 62
     0
 92
       -2
340
0
 93
        0
 40
0.045
309
GRIDFORMAT_END
 95
       16
302
GRIDFORMAT
  1
GRIDFORMAT_BEGIN
 90
        0
 91
        1
 62
     0
 92
       -2
340
0
 93
        0
 40
0.045
309
GRIDFORMAT_END
 95
       32
302
GRIDFORMAT
  1
GRIDFORMAT_BEGIN
 90
        0
 91
        1
 62
     0
 92
       -2
340
0
 93
        0
 40
0.045
309
GRIDFORMAT_END
309
TABLEFORMAT_END
  1
CELLSTYLE_BEGIN
 90
        3
 91
        2
300
_DATA
309
CELLSTYLE_END
  0
XRECORD
  5
477
102
{ACAD_REACTORS
330
54
102
}
330
54
100
AcDbXrecord
280
     1
102
ACAD_ROUNDTRIP_PRE2007_TABLESTYLE
 90
      512
 91
        0
  1

 92
      512
 93
        0
  2

 94
      512
 95
        0
  3

  0
XRECORD
  5
472
102
{ACAD_REACTORS
330
471
102
}
330
471
100
AcDbXrecord
280
     1
102
RTVSPost2010Prop28
280
     1
102
RTVSPost2010PropOp28
 70
     1
102
RTVSPost2010Prop29
280
     1
102
RTVSPost2010PropOp29
 70
     1
102
RTVSPost2010Prop30
280
     0
102
RTVSPost2010PropOp30
 70
     1
102
RTVSPost2010Prop31
280
     0
102
RTVSPost2010PropOp31
 70
     1
102
RTVSPost2010Prop32
280
     0
102
RTVSPost2010PropOp32
 70
     1
102
RTVSPost2010Prop33
280
     0
102
RTVSPost2010PropOp33
 70
     1
102
RTVSPost2010Prop34
280
     0
102
RTVSPost2010PropOp34
 70
     1
102
RTVSPost2010Prop35
280
     0
102
RTVSPost2010PropOp35
 70
     1
102
RTVSPost2010Prop36
280
     0
102
RTVSPost2010PropOp36
 70
     1
102
RTVSPost2010Prop37
 90
       50
102
RTVSPost2010PropOp37
 70
     1
102
RTVSPost2010Prop38
140
0.0
102
RTVSPost2010PropOp38
 70
     1
102
RTVSPost2010Prop39
140
1.0
102
RTVSPost2010PropOp39
 70
     1
102
RTVSPost2010Prop40
 90
        0
102
RTVSPost2010PropOp40
 70
     1
102
RTVSPost2010Prop41ColorIndex
 90
       18
102
RTVSPost2010Prop41ColorRGB
 90
        0
102
RTVSPost2010PropOp41
 70
     1
102
RTVSPost2010Prop42
 90
       50
102
RTVSPost2010PropOp42
 70
     1
102
RTVSPost2010Prop43
 90
        3
102
RTVSPost2010PropOp43
 70
     1
102
RTVSPost2010Prop44ColorIndex
 90
        5
102
RTVSPost2010Prop44ColorRGB
 90
      255
102
RTVSPost2010PropOp44
 70
     1
102
RTVSPost2010Prop45
280
     0
102
RTVSPost2010PropOp45
 70
     1
102
RTVSPost2010Prop46
 90
       50
102
RTVSPost2010PropOp46
 70
     1
102
RTVSPost2010Prop47
 90
       50
102
RTVSPost2010PropOp47
 70
     1
102
RTVSPost2010Prop48
 90
       50
102
RTVSPost2010PropOp48
 70
     1
102
RTVSPost2010Prop49
280
     0
102
RTVSPost2010PropOp49
 70
     1
102
RTVSPost2010Prop50
 90
       50
102
RTVSPost2010PropOp50
 70
     1
102
RTVSPost2010Prop51ColorIndex
 90
      256
102
RTVSPost2010Prop51ColorRGB
 90
-16777216
102
RTVSPost2010PropOp51
 70
     0
102
RTVSPost2010Prop52
140
1.0
102
RTVSPost2010PropOp52
 70
     0
102
RTVSPost2010Prop53
 90
        2
102
RTVSPost2010PropOp53
 70
     1
102
RTVSPost2010Prop54
  1
strokes_ogs.tif
102
RTVSPost2010PropOp54
 70
     1
102
RTVSPost2010Prop55
280
     0
102
RTVSPost2010PropOp55
 70
     1
102
RTVSPost2010Prop56
140
1.0
102
RTVSPost2010PropOp56
 70
     1
102
RTVSPost2010Prop57
140
1.0
102
RTVSPost2010PropOp57
 70
     1
102
RTVSPropertyOp0
 70
     1
102
RTVSPropertyOp1
 70
     1
102
RTVSPropertyOp2
 70
     1
102
RTVSPropertyOp3
 70
     1
102
RTVSPropertyOp4
 70
     1
102
RTVSPropertyOp5
 70
     1
102
RTVSPropertyOp6
 70
     1
102
RTVSPropertyOp7
 70
     1
102
RTVSPropertyOp8
 70
     1
102
RTVSPropertyOp9
 70
     1
102
RTVSPropertyOp10
 70
     1
102
RTVSPropertyOp11
 70
     1
102
RTVSPropertyOp12
 70
     1
102
RTVSPropertyOp13
 70
     1
102
RTVSPropertyOp14
 70
     1
102
RTVSPropertyOp15
 70
     1
102
RTVSPropertyOp16
 70
     1
102
RTVSPropertyOp17
 70
     1
102
RTVSPropertyOp18
 70
     1
102
RTVSPropertyOp19
 70
     1
102
RTVSPropertyOp20
 70
     1
102
RTVSPropertyOp21
 70
     1
102
RTVSPropertyOp22
 70
     1
102
RTVSPropertyOp23
 70
     1
102
RTVSPropertyOp24
 70
     1
102
RTVSPropertyOp25
 70
     1
102
RTVSPropertyOp26
 70
     1
102
RTVSPropertyOp27
 70
     1
102
RTVSPropertyOp28
 70
     1
102
RTVSPropertyOp29
 70
     1
102
RTVSPropertyOp30
 70
     1
102
RTVSPropertyOp31
 70
     1
102
RTVSPropertyOp32
 70
     1
102
RTVSPropertyOp33
 70
     1
102
RTVSPropertyOp34
 70
     1
102
RTVSPropertyOp35
 70
     1
102
RTVSPropertyOp36
 70
     1
102
RTVSPropertyOp37
 70
     1
102
RTVSPropertyOp38
 70
     1
102
RTVSPropertyOp39
 70
     1
102
RTVSPropertyOp40
 70
     1
102
RTVSPropertyOp41
 70
     1
102
RTVSPropertyOp42
 70
     1
102
RTVSPropertyOp43
 70
     1
102
RTVSPropertyOp44
 70
     1
102
RTVSPropertyOp45
 70
     1
102
RTVSPropertyOp46
 70
     1
102
RTVSPropertyOp47
 70
     1
102
RTVSPropertyOp48
 70
     1
102
RTVSPropertyOp49
 70
     1
102
RTVSPropertyOp50
 70
     1
102
RTVSPropertyOp51
 70
     0
102
RTVSPropertyOp52
 70
     0
102
RTVSPropertyOp53
 70
     1
102
RTVSPropertyOp54
 70
     1
102
RTVSPropertyOp55
 70
     1
102
RTVSPropertyOp56
 70
     1
102
RTVSPropertyOp57
 70
     1
102
RTVSPropertyOp58
 70
     1
102
RTVSPropertyOp59
 70
     1
102
RTVSPropertyOp60
 70
     1
102
RTVSPropertyOp61
 70
     1
102
RTVSPropertyOp62
 70
     1
  0
XRECORD
  5
47B
102
{ACAD_REACTORS
330
47A
102
}
330
47A
100
AcDbXrecord
280
     1
102
RTVSPost2010Prop28
280
     0
102
RTVSPost2010PropOp28
 70
     1
102
RTVSPost2010Prop29
280
     1
102
RTVSPost2010PropOp29
 70
     1
102
RTVSPost2010Prop30
280
     1
102
RTVSPost2010PropOp30
 70
     1
102
RTVSPost2010Prop31
280
     0
102
RTVSPost2010PropOp31
 70
     1
102
RTVSPost2010Prop32
280
     0
102
RTVSPost2010PropOp32
 70
     1
102
RTVSPost2010Prop33
280
     0
102
RTVSPost2010PropOp33
 70
     1
102
RTVSPost2010Prop34
280
     0
102
RTVSPost2010PropOp34
 70
     1
102
RTVSPost2010Prop35
280
     0
102
RTVSPost2010PropOp35
 70
     1
102
RTVSPost2010Prop36
280
     0
102
RTVSPost2010PropOp36
 70
     1
102
RTVSPost2010Prop37
 90
       50
102
RTVSPost2010PropOp37
 70
     1
102
RTVSPost2010Prop38
140
0.0
102
RTVSPost2010PropOp38
 70
     1
102
RTVSPost2010Prop39
140
1.0
102
RTVSPost2010PropOp39
 70
     1
102
RTVSPost2010Prop40
 90
        0
102
RTVSPost2010PropOp40
 70
     1
102
RTVSPost2010Prop41ColorIndex
 90
       18
102
RTVSPost2010Prop41ColorRGB
 90
        0
102
RTVSPost2010PropOp41
 70
     1
102
RTVSPost2010Prop42
 90
       50
102
RTVSPost2010PropOp42
 70
     1
102
RTVSPost2010Prop43
 90
        3
102
RTVSPost2010PropOp43
 70
     1
102
RTVSPost2010Prop44ColorIndex
 90
        5
102
RTVSPost2010Prop44ColorRGB
 90
      255
102
RTVSPost2010PropOp44
 70
     1
102
RTVSPost2010Prop45
280
     0
102
RTVSPost2010PropOp45
 70
     1
102
RTVSPost2010Prop46
 90
       50
102
RTVSPost2010PropOp46
 70
     1
102
RTVSPost2010Prop47
 90
       50
102
RTVSPost2010PropOp47
 70
     1
102
RTVSPost2010Prop48
 90
       50
102
RTVSPost2010PropOp48
 70
     1
102
RTVSPost2010Prop49
280
     0
102
RTVSPost2010PropOp49
 70
     1
102
RTVSPost2010Prop50
 90
       50
102
RTVSPost2010PropOp50
 70
     1
102
RTVSPost2010Prop51ColorIndex
 90
      256
102
RTVSPost2010Prop51ColorRGB
 90
-16777216
102
RTVSPost2010PropOp51
 70
     0
102
RTVSPost2010Prop52
140
1.0
102
RTVSPost2010PropOp52
 70
     0
102
RTVSPost2010Prop53
 90
        2
102
RTVSPost2010PropOp53
 70
     1
102
RTVSPost2010Prop54
  1
strokes_ogs.tif
102
RTVSPost2010PropOp54
 70
     1
102
RTVSPost2010Prop55
280
     0
102
RTVSPost2010PropOp55
 70
     1
102
RTVSPost2010Prop56
140
1.0
102
RTVSPost2010PropOp56
 70
     1
102
RTVSPost2010Prop57
140
1.0
102
RTVSPost2010PropOp57
 70
     1
102
RTVSPropertyOp0
 70
     1
102
RTVSPropertyOp1
 70
     1
102
RTVSPropertyOp2
 70
     1
102
RTVSPropertyOp3
 70
     1
102
RTVSPropertyOp4
 70
     1
102
RTVSPropertyOp5
 70
     1
102
RTVSPropertyOp6
 70
     1
102
RTVSPropertyOp7
 70
     1
102
RTVSPropertyOp8
 70
     1
102
RTVSPropertyOp9
 70
     1
102
RTVSPropertyOp10
 70
     1
102
RTVSPropertyOp11
 70
     1
102
RTVSPropertyOp12
 70
     1
102
RTVSPropertyOp13
 70
     1
102
RTVSPropertyOp14
 70
     1
102
RTVSPropertyOp15
 70
     1
102
RTVSPropertyOp16
 70
     1
102
RTVSPropertyOp17
 70
     1
102
RTVSPropertyOp18
 70
     1
102
RTVSPropertyOp19
 70
     1
102
RTVSPropertyOp20
 70
     1
102
RTVSPropertyOp21
 70
     1
102
RTVSPropertyOp22
 70
     1
102
RTVSPropertyOp23
 70
     1
102
RTVSPropertyOp24
 70
     1
102
RTVSPropertyOp25
 70
     1
102
RTVSPropertyOp26
 70
     1
102
RTVSPropertyOp27
 70
     1
102
RTVSPropertyOp28
 70
     1
102
RTVSPropertyOp29
 70
     1
102
RTVSPropertyOp30
 70
     1
102
RTVSPropertyOp31
 70
     1
102
RTVSPropertyOp32
 70
     1
102
RTVSPropertyOp33
 70
     1
102
RTVSPropertyOp34
 70
     1
102
RTVSPropertyOp35
 70
     1
102
RTVSPropertyOp36
 70
     1
102
RTVSPropertyOp37
 70
     1
102
RTVSPropertyOp38
 70
     1
102
RTVSPropertyOp39
 70
     1
102
RTVSPropertyOp40
 70
     1
102
RTVSPropertyOp41
 70
     1
102
RTVSPropertyOp42
 70
     1
102
RTVSPropertyOp43
 70
     1
102
RTVSPropertyOp44
 70
     1
102
RTVSPropertyOp45
 70
     1
102
RTVSPropertyOp46
 70
     1
102
RTVSPropertyOp47
 70
     1
102
RTVSPropertyOp48
 70
     1
102
RTVSPropertyOp49
 70
     1
102
RTVSPropertyOp50
 70
     1
102
RTVSPropertyOp51
 70
     0
102
RTVSPropertyOp52
 70
     0
102
RTVSPropertyOp53
 70
     1
102
RTVSPropertyOp54
 70
     1
102
RTVSPropertyOp55
 70
     1
102
RTVSPropertyOp56
 70
     1
102
RTVSPropertyOp57
 70
     1
102
RTVSPropertyOp58
 70
     1
102
RTVSPropertyOp59
 70
     1
102
RTVSPropertyOp60
 70
     1
102
RTVSPropertyOp61
 70
     1
102
RTVSPropertyOp62
 70
     1
  0
XRECORD
  5
479
102
{ACAD_REACTORS
330
478
102
}
330
478
100
AcDbXrecord
280
     1
102
RTVSPost2010Prop28
280
     0
102
RTVSPost2010PropOp28
 70
     1
102
RTVSPost2010Prop29
280
     1
102
RTVSPost2010PropOp29
 70
     1
102
RTVSPost2010Prop30
280
     1
102
RTVSPost2010PropOp30
 70
     1
102
RTVSPost2010Prop31
280
     0
102
RTVSPost2010PropOp31
 70
     1
102
RTVSPost2010Prop32
280
     0
102
RTVSPost2010PropOp32
 70
     1
102
RTVSPost2010Prop33
280
     0
102
RTVSPost2010PropOp33
 70
     1
102
RTVSPost2010Prop34
280
     0
102
RTVSPost2010PropOp34
 70
     1
102
RTVSPost2010Prop35
280
     0
102
RTVSPost2010PropOp35
 70
     1
102
RTVSPost2010Prop36
280
     0
102
RTVSPost2010PropOp36
 70
     1
102
RTVSPost2010Prop37
 90
       50
102
RTVSPost2010PropOp37
 70
     1
102
RTVSPost2010Prop38
140
0.0
102
RTVSPost2010PropOp38
 70
     1
102
RTVSPost2010Prop39
140
1.0
102
RTVSPost2010PropOp39
 70
     1
102
RTVSPost2010Prop40
 90
        0
102
RTVSPost2010PropOp40
 70
     1
102
RTVSPost2010Prop41ColorIndex
 90
       18
102
RTVSPost2010Prop41ColorRGB
 90
        0
102
RTVSPost2010PropOp41
 70
     1
102
RTVSPost2010Prop42
 90
       50
102
RTVSPost2010PropOp42
 70
     1
102
RTVSPost2010Prop43
 90
        3
102
RTVSPost2010PropOp43
 70
     1
102
RTVSPost2010Prop44ColorIndex
 90
        5
102
RTVSPost2010Prop44ColorRGB
 90
      255
102
RTVSPost2010PropOp44
 70
     1
102
RTVSPost2010Prop45
280
     0
102
RTVSPost2010PropOp45
 70
     1
102
RTVSPost2010Prop46
 90
       50
102
RTVSPost2010PropOp46
 70
     1
102
RTVSPost2010Prop47
 90
       50
102
RTVSPost2010PropOp47
 70
     1
102
RTVSPost2010Prop48
 90
       50
102
RTVSPost2010PropOp48
 70
     1
102
RTVSPost2010Prop49
280
     0
102
RTVSPost2010PropOp49
 70
     1
102
RTVSPost2010Prop50
 90
       50
102
RTVSPost2010PropOp50
 70
     1
102
RTVSPost2010Prop51ColorIndex
 90
      256
102
RTVSPost2010Prop51ColorRGB
 90
-16777216
102
RTVSPost2010PropOp51
 70
     0
102
RTVSPost2010Prop52
140
1.0
102
RTVSPost2010PropOp52
 70
     0
102
RTVSPost2010Prop53
 90
        2
102
RTVSPost2010PropOp53
 70
     1
102
RTVSPost2010Prop54
  1
strokes_ogs.tif
102
RTVSPost2010PropOp54
 70
     1
102
RTVSPost2010Prop55
280
     0
102
RTVSPost2010PropOp55
 70
     1
102
RTVSPost2010Prop56
140
1.0
102
RTVSPost2010PropOp56
 70
     1
102
RTVSPost2010Prop57
140
1.0
102
RTVSPost2010PropOp57
 70
     1
102
RTVSPropertyOp0
 70
     1
102
RTVSPropertyOp1
 70
     1
102
RTVSPropertyOp2
 70
     1
102
RTVSPropertyOp3
 70
     1
102
RTVSPropertyOp4
 70
     1
102
RTVSPropertyOp5
 70
     1
102
RTVSPropertyOp6
 70
     1
102
RTVSPropertyOp7
 70
     1
102
RTVSPropertyOp8
 70
     1
102
RTVSPropertyOp9
 70
     1
102
RTVSPropertyOp10
 70
     1
102
RTVSPropertyOp11
 70
     1
102
RTVSPropertyOp12
 70
     1
102
RTVSPropertyOp13
 70
     1
102
RTVSPropertyOp14
 70
     1
102
RTVSPropertyOp15
 70
     1
102
RTVSPropertyOp16
 70
     1
102
RTVSPropertyOp17
 70
     1
102
RTVSPropertyOp18
 70
     1
102
RTVSPropertyOp19
 70
     1
102
RTVSPropertyOp20
 70
     1
102
RTVSPropertyOp21
 70
     1
102
RTVSPropertyOp22
 70
     1
102
RTVSPropertyOp23
 70
     1
102
RTVSPropertyOp24
 70
     1
102
RTVSPropertyOp25
 70
     1
102
RTVSPropertyOp26
 70
     1
102
RTVSPropertyOp27
 70
     1
102
RTVSPropertyOp28
 70
     1
102
RTVSPropertyOp29
 70
     1
102
RTVSPropertyOp30
 70
     1
102
RTVSPropertyOp31
 70
     1
102
RTVSPropertyOp32
 70
     1
102
RTVSPropertyOp33
 70
     1
102
RTVSPropertyOp34
 70
     1
102
RTVSPropertyOp35
 70
     1
102
RTVSPropertyOp36
 70
     1
102
RTVSPropertyOp37
 70
     1
102
RTVSPropertyOp38
 70
     1
102
RTVSPropertyOp39
 70
     1
102
RTVSPropertyOp40
 70
     1
102
RTVSPropertyOp41
 70
     1
102
RTVSPropertyOp42
 70
     1
102
RTVSPropertyOp43
 70
     1
102
RTVSPropertyOp44
 70
     1
102
RTVSPropertyOp45
 70
     1
102
RTVSPropertyOp46
 70
     1
102
RTVSPropertyOp47
 70
     1
102
RTVSPropertyOp48
 70
     1
102
RTVSPropertyOp49
 70
     1
102
RTVSPropertyOp50
 70
     1
102
RTVSPropertyOp51
 70
     0
102
RTVSPropertyOp52
 70
     0
102
RTVSPropertyOp53
 70
     1
102
RTVSPropertyOp54
 70
     1
102
RTVSPropertyOp55
 70
     1
102
RTVSPropertyOp56
 70
     1
102
RTVSPropertyOp57
 70
     1
102
RTVSPropertyOp58
 70
     1
102
RTVSPropertyOp59
 70
     1
102
RTVSPropertyOp60
 70
     1
102
RTVSPropertyOp61
 70
     1
102
RTVSPropertyOp62
 70
     1
  0
ENDSEC
  0
EOF
